  0
SECTION
  2
HEADER
  9
$ACADVER
  1
AC1018
  9
$ACADMAINTVER
 70
     0
  9
$DWGCODEPAGE
  3
ANSI_1252
  9
$INSBASE
 10
0.0
 20
0.0
 30
0.0
  9
$EXTMIN
 10
0.0
 20
0.0
 30
0.0
  9
$EXTMAX
 10
2100.0
 20
2970.0
 30
0.0
  9
$LIMMIN
 10
0.0
 20
0.0
  9
$LIMMAX
 10
2100.0
 20
2970.0
  9
$ORTHOMODE
 70
     0
  9
$REGENMODE
 70
     1
  9
$FILLMODE
 70
     1
  9
$QTEXTMODE
 70
     0
  9
$MIRRTEXT
 70
     1
  9
$LTSCALE
 40
10.0
  9
$ATTMODE
 70
     1
  9
$TEXTSIZE
 40
2.5
  9
$TRACEWID
 40
1.0
  9
$TEXTSTYLE
  7
Standard
  9
$CLAYER
  8
0
  9
$CELTYPE
  6
ByLayer
  9
$CECOLOR
 62
     7
  9
$CELTSCALE
 40
1.0
  9
$DISPSILH
 70
     0
  9
$DIMSCALE
 40
10.0
  9
$DIMASZ
 40
3.5
  9
$DIMEXO
 40
0.625
  9
$DIMDLI
 40
3.75
  9
$DIMRND
 40
0.0
  9
$DIMDLE
 40
0.0
  9
$DIMEXE
 40
1.25
  9
$DIMTP
 40
0.0
  9
$DIMTM
 40
0.0
  9
$DIMTXT
 40
3.5
  9
$DIMCEN
 40
2.5
  9
$DIMTSZ
 40
0.0
  9
$DIMTOL
 70
     0
  9
$DIMLIM
 70
     0
  9
$DIMTIH
 70
     0
  9
$DIMTOH
 70
     0
  9
$DIMSE1
 70
     0
  9
$DIMSE2
 70
     0
  9
$DIMTAD
 70
     1
  9
$DIMZIN
 70
     8
  9
$DIMBLK
  1

  9
$DIMASO
 70
     1
  9
$DIMSHO
 70
     1
  9
$DIMPOST
  1

  9
$DIMAPOST
  1

  9
$DIMALT
 70
     0
  9
$DIMALTD
 70
     3
  9
$DIMALTF
 40
0.03937
  9
$DIMLFAC
 40
1.0
  9
$DIMTOFL
 70
     1
  9
$DIMTVP
 40
0.0
  9
$DIMTIX
 70
     0
  9
$DIMSOXD
 70
     0
  9
$DIMSAH
 70
     0
  9
$DIMBLK1
  1

  9
$DIMBLK2
  1

  9
$DIMSTYLE
  2
ISO-25
  9
$DIMCLRD
 70
     0
  9
$DIMCLRE
 70
     0
  9
$DIMCLRT
 70
     0
  9
$DIMTFAC
 40
1.0
  9
$DIMGAP
 40
0.625
  9
$DIMJUST
 70
     0
  9
$DIMSD1
 70
     0
  9
$DIMSD2
 70
     0
  9
$DIMTOLJ
 70
     0
  9
$DIMTZIN
 70
     8
  9
$DIMALTZ
 70
     0
  9
$DIMALTTZ
 70
     0
  9
$DIMUPT
 70
     0
  9
$DIMDEC
 70
     2
  9
$DIMTDEC
 70
     2
  9
$DIMALTU
 70
     2
  9
$DIMALTTD
 70
     3
  9
$DIMTXSTY
  7
Standard
  9
$DIMAUNIT
 70
     0
  9
$DIMADEC
 70
     0
  9
$DIMALTRND
 40
0.0
  9
$DIMAZIN
 70
     0
  9
$DIMDSEP
 70
    44
  9
$DIMATFIT
 70
     3
  9
$DIMFRAC
 70
     0
  9
$DIMLDRBLK
  1

  9
$DIMLUNIT
 70
     2
  9
$DIMLWD
 70
    -2
  9
$DIMLWE
 70
    -2
  9
$DIMTMOVE
 70
     0
  9
$LUNITS
 70
     2
  9
$LUPREC
 70
     4
  9
$SKETCHINC
 40
1.0
  9
$FILLETRAD
 40
10.0
  9
$AUNITS
 70
     0
  9
$AUPREC
 70
     0
  9
$MENU
  1
.
  9
$ELEVATION
 40
0.0
  9
$PELEVATION
 40
0.0
  9
$THICKNESS
 40
0.0
  9
$LIMCHECK
 70
     0
  9
$CHAMFERA
 40
10.0
  9
$CHAMFERB
 40
10.0
  9
$CHAMFERC
 40
20.0
  9
$CHAMFERD
 40
0.0
  9
$SKPOLY
 70
     0
  9
$TDCREATE
 40
2456091.54527632
  9
$TDUCREATE
 40
2456091.461942986
  9
$TDUPDATE
 40
2456091.545276331
  9
$TDUUPDATE
 40
2456091.461942998
  9
$TDINDWG
 40
0.0000000116
  9
$TDUSRTIMER
 40
0.0000000116
  9
$USRTIMER
 70
     1
  9
$ANGBASE
 50
0.0
  9
$ANGDIR
 70
     0
  9
$PDMODE
 70
     0
  9
$PDSIZE
 40
0.0
  9
$PLINEWID
 40
0.0
  9
$SPLFRAME
 70
     0
  9
$SPLINETYPE
 70
     6
  9
$SPLINESEGS
 70
     8
  9
$HANDSEED
  5
4F7
  9
$SURFTAB1
 70
     6
  9
$SURFTAB2
 70
     6
  9
$SURFTYPE
 70
     6
  9
$SURFU
 70
     6
  9
$SURFV
 70
     6
  9
$UCSBASE
  2

  9
$UCSNAME
  2

  9
$UCSORG
 10
0.0
 20
0.0
 30
0.0
  9
$UCSXDIR
 10
1.0
 20
0.0
 30
0.0
  9
$UCSYDIR
 10
0.0
 20
1.0
 30
0.0
  9
$UCSORTHOREF
  2

  9
$UCSORTHOVIEW
 70
     0
  9
$UCSORGTOP
 10
0.0
 20
0.0
 30
0.0
  9
$UCSORGBOTTOM
 10
0.0
 20
0.0
 30
0.0
  9
$UCSORGLEFT
 10
0.0
 20
0.0
 30
0.0
  9
$UCSORGRIGHT
 10
0.0
 20
0.0
 30
0.0
  9
$UCSORGFRONT
 10
0.0
 20
0.0
 30
0.0
  9
$UCSORGBACK
 10
0.0
 20
0.0
 30
0.0
  9
$PUCSBASE
  2

  9
$PUCSNAME
  2

  9
$PUCSORG
 10
0.0
 20
0.0
 30
0.0
  9
$PUCSXDIR
 10
1.0
 20
0.0
 30
0.0
  9
$PUCSYDIR
 10
0.0
 20
1.0
 30
0.0
  9
$PUCSORTHOREF
  2

  9
$PUCSORTHOVIEW
 70
     0
  9
$PUCSORGTOP
 10
0.0
 20
0.0
 30
0.0
  9
$PUCSORGBOTTOM
 10
0.0
 20
0.0
 30
0.0
  9
$PUCSORGLEFT
 10
0.0
 20
0.0
 30
0.0
  9
$PUCSORGRIGHT
 10
0.0
 20
0.0
 30
0.0
  9
$PUCSORGFRONT
 10
0.0
 20
0.0
 30
0.0
  9
$PUCSORGBACK
 10
0.0
 20
0.0
 30
0.0
  9
$USERI1
 70
     0
  9
$USERI2
 70
     0
  9
$USERI3
 70
     0
  9
$USERI4
 70
     0
  9
$USERI5
 70
     0
  9
$USERR1
 40
0.0
  9
$USERR2
 40
0.0
  9
$USERR3
 40
0.0
  9
$USERR4
 40
0.0
  9
$USERR5
 40
0.0
  9
$WORLDVIEW
 70
     1
  9
$SHADEDGE
 70
     3
  9
$SHADEDIF
 70
    70
  9
$TILEMODE
 70
     1
  9
$MAXACTVP
 70
    64
  9
$PINSBASE
 10
0.0
 20
0.0
 30
0.0
  9
$PLIMCHECK
 70
     0
  9
$PEXTMIN
 10
0.0
 20
0.0
 30
0.0
  9
$PEXTMAX
 10
2100.0
 20
2970.0
 30
0.0
  9
$PLIMMIN
 10
0.0
 20
0.0
  9
$PLIMMAX
 10
2100.0
 20
2970.0
  9
$UNITMODE
 70
     0
  9
$VISRETAIN
 70
     1
  9
$PLINEGEN
 70
     0
  9
$PSLTSCALE
 70
     1
  9
$TREEDEPTH
 70
  3020
  9
$CMLSTYLE
  2
Standard
  9
$CMLJUST
 70
     0
  9
$CMLSCALE
 40
20.0
  9
$PROXYGRAPHICS
 70
     1
  9
$MEASUREMENT
 70
     1
  9
$CELWEIGHT
370
    -1
  9
$ENDCAPS
280
     0
  9
$JOINSTYLE
280
     0
  9
$LWDISPLAY
290
     0
  9
$INSUNITS
 70
     4
  9
$HYPERLINKBASE
  1

  9
$STYLESHEET
  1

  9
$XEDIT
290
     1
  9
$CEPSNTYPE
380
     0
  9
$PSTYLEMODE
290
     1
  9
$FINGERPRINTGUID
  2
{FAEB1C30-E019-11D5-929B-00C0DF256EC4}
  9
$VERSIONGUID
  2
{FAEB1C32-E019-11D5-929B-00C0DF256EC4}
  9
$EXTNAMES
290
     1
  9
$PSVPSCALE
 40
0.0
  9
$OLESTARTUP
290
     0
  9
$SORTENTS
280
   127
  9
$INDEXCTL
280
     0
  9
$HIDETEXT
280
     1
  9
$XCLIPFRAME
290
     0
  9
$HALOGAP
280
     0
  9
$OBSCOLOR
 70
   257
  9
$OBSLTYPE
280
     0
  9
$INTERSECTIONDISPLAY
280
     0
  9
$INTERSECTIONCOLOR
 70
   257
  9
$DIMASSOC
280
     2
  9
$PROJECTNAME
  1

  0
ENDSEC
  0
SECTION
  2
CLASSES
  0
CLASS
  1
ACDBDICTIONARYWDFLT
  2
AcDbDictionaryWithDefault
  3
ObjectDBX Classes
 90
        0
 91
        1
280
     0
281
     0
  0
ENDSEC
  0
SECTION
  2
TABLES
  0
TABLE
  2
VPORT
  5
8
330
0
100
AcDbSymbolTable
 70
     2
  0
VPORT
  5
29
330
8
100
AcDbSymbolTableRecord
100
AcDbViewportTableRecord
  2
*ACTIVE
 70
     0
 10
0.0
 20
0.0
 11
1.0
 21
1.0
 12
1050.0
 22
1485.0
 13
0.0
 23
0.0
 14
1.0
 24
1.0
 15
0.0
 25
0.0
 16
0.0
 26
0.0
 36
1.0
 17
0.0
 27
0.0
 37
0.0
 40
2970.0
 41
0.707071
 42
50.0
 43
0.0
 44
0.0
 50
0.0
 51
0.0
 71
    16
 72
   100
 73
     1
 74
     0
 75
     0
 76
     0
 77
     0
 78
     0
281
     0
 65
     0
110
0.0
120
0.0
130
0.0
111
1.0
121
0.0
131
0.0
112
0.0
122
1.0
132
0.0
 79
     0
146
0.0
  0
ENDTAB
  0
TABLE
  2
LTYPE
  5
5
330
0
100
AcDbSymbolTable
 70
     3
  0
LTYPE
  5
14
330
5
100
AcDbSymbolTableRecord
100
AcDbLinetypeTableRecord
  2
ByBlock
 70
     0
  3

 72
    65
 73
     0
 40
0.0
  0
LTYPE
  5
15
330
5
100
AcDbSymbolTableRecord
100
AcDbLinetypeTableRecord
  2
ByLayer
 70
     0
  3

 72
    65
 73
     0
 40
0.0
  0
LTYPE
  5
16
330
5
100
AcDbSymbolTableRecord
100
AcDbLinetypeTableRecord
  2
Continuous
 70
     0
  3
Solid line
 72
    65
 73
     0
 40
0.0
  0
LTYPE
  5
2A
330
5
100
AcDbSymbolTableRecord
100
AcDbLinetypeTableRecord
  2
DASHED
 70
     0
  3
__ __ __ __ __
 72
    65
 73
     2
 40
6.25
 49
5.0
 74
     4
 75
     0
340
0
 46
1.0
 50
0.0
 44
0.0
 45
0.0
 49
-1.25
 74
     4
 75
     0
340
0
 46
1.0
 50
0.0
 44
0.0
 45
0.0
  0
LTYPE
  5
13B
330
5
100
AcDbSymbolTableRecord
100
AcDbLinetypeTableRecord
  2
CENTER
 70
     0
  3
__ . __ . __ . __ . __
 72
    65
 73
     4
 40
7.5
 49
5.0
 74
     4
 75
     0
340
0
 46
1.0
 50
0.0
 44
0.0
 45
0.0
 49
-1.25
 74
     4
 75
     0
340
0
 46
1.0
 50
0.0
 44
0.0
 45
0.0
 49
0.0
 74
     4
 75
     0
340
0
 46
1.0
 50
0.0
 44
0.0
 45
0.0
 49
-1.25
 74
     4
 75
     0
340
0
 46
1.0
 50
0.0
 44
0.0
 45
0.0
  0
ENDTAB
  0
TABLE
  2
LAYER
  5
2
330
0
100
AcDbSymbolTable
 70
    14
  0
LAYER
  5
10
330
2
100
AcDbSymbolTableRecord
100
AcDbLayerTableRecord
  2
0
 70
     0
 62
     7
  6
Continuous
370
    -3
390
F
  0
LAYER
  5
2B
330
2
100
AcDbSymbolTableRecord
100
AcDbLayerTableRecord
  2
LC-INFO-1-10-mm-A4H-0
 70
     1
 62
     7
  6
ByBlock
370
    -3
390
F
  0
LAYER
  5
2C
330
2
100
AcDbSymbolTableRecord
100
AcDbLayerTableRecord
  2
LC-CUT-HIDDEN
 70
     0
 62
     7
  6
DASHED
370
    -3
390
F
  0
LAYER
  5
2D
330
2
100
AcDbSymbolTableRecord
100
AcDbLayerTableRecord
  2
LC-VIEWPORT
 70
     0
 62
     7
  6
ByBlock
370
    -3
390
F
  0
LAYER
  5
2E
330
2
100
AcDbSymbolTableRecord
100
AcDbLayerTableRecord
  2
LC-3D-HIDDEN
 70
     0
 62
     9
  6
DASHED
370
    -3
390
F
  0
LAYER
  5
33
330
2
100
AcDbSymbolTableRecord
100
AcDbLayerTableRecord
  2
LC-001-111-----0
 70
     0
 62
   253
  6
ByBlock
370
    -3
390
F
  0
LAYER
  5
A1
330
2
100
AcDbSymbolTableRecord
100
AcDbLayerTableRecord
  2
LC-002-002-----0
 70
     0
 62
     1
  6
ByBlock
370
    -3
390
F
  0
LAYER
  5
102
330
2
100
AcDbSymbolTableRecord
100
AcDbLayerTableRecord
  2
LC-003-230-ZVN-0
 70
     0
 62
     2
  6
ByBlock
370
    -3
390
F
  0
LAYER
  5
104
330
2
100
AcDbSymbolTableRecord
100
AcDbLayerTableRecord
  2
LC-004-002-RND-0
 70
     0
 62
     1
  6
ByBlock
370
    -3
390
F
  0
LAYER
  5
10E
330
2
100
AcDbSymbolTableRecord
100
AcDbLayerTableRecord
  2
LC-005-003-----0
 70
     0
 62
     2
  6
ByBlock
370
    -3
390
F
  0
LAYER
  5
110
330
2
100
AcDbSymbolTableRecord
100
AcDbLayerTableRecord
  2
Defpoints
 70
     0
 62
     7
  6
Continuous
290
     0
370
    -3
390
F
  0
LAYER
  5
135
330
2
100
AcDbSymbolTableRecord
100
AcDbLayerTableRecord
  2
LC-006-004-----0
 70
     0
 62
     7
  6
ByBlock
370
    -3
390
F
  0
LAYER
  5
13C
330
2
100
AcDbSymbolTableRecord
100
AcDbLayerTableRecord
  2
LC-007-006-MLN-0
 70
     0
 62
     2
  6
CENTER
370
    -3
390
F
  0
LAYER
  5
1D7
330
2
100
AcDbSymbolTableRecord
100
AcDbLayerTableRecord
  2
LC-008-005-----0
 70
     0
 62
     2
  6
ByBlock
370
    -3
390
F
  0
ENDTAB
  0
TABLE
  2
STYLE
  5
3
330
0
100
AcDbSymbolTable
 70
     2
  0
STYLE
  5
11
330
3
100
AcDbSymbolTableRecord
100
AcDbTextStyleTableRecord
  2
Standard
 70
     0
 40
0.0
 41
1.0
 50
0.0
 71
     0
 42
2.5
  3
txt
  4

  0
STYLE
  5
2F
330
3
100
AcDbSymbolTableRecord
100
AcDbTextStyleTableRecord
  2
LCTX0-400-0-0pDIN-Schrift
 70
     0
 40
0.0
 41
0.7
 50
0.0
 71
     0
 42
3.5
  3
TXT
  4

  0
ENDTAB
  0
TABLE
  2
VIEW
  5
6
330
0
100
AcDbSymbolTable
 70
     0
  0
ENDTAB
  0
TABLE
  2
UCS
  5
7
330
0
100
AcDbSymbolTable
 70
     0
  0
ENDTAB
  0
TABLE
  2
APPID
  5
9
330
0
100
AcDbSymbolTable
 70
     1
  0
APPID
  5
12
330
9
100
AcDbSymbolTableRecord
100
AcDbRegAppTableRecord
  2
ACAD
 70
     0
  0
ENDTAB
  0
TABLE
  2
DIMSTYLE
  5
A
330
0
100
AcDbSymbolTable
 70
     4
100
AcDbDimStyleTable
  0
DIMSTYLE
105
27
330
A
100
AcDbSymbolTableRecord
100
AcDbDimStyleTableRecord
  2
ISO-25
 70
     0
 41
2.5
 42
0.625
 43
3.75
 44
1.25
 73
     0
 74
     0
 77
     1
 78
     8
140
2.5
141
2.5
143
0.03937
147
0.625
171
     3
172
     1
271
     2
272
     2
274
     3
278
    44
283
     0
284
     8
340
11
  0
DIMSTYLE
105
10D
102
{ACAD_REACTORS
330
10F
330
11E
330
302
330
310
330
31D
330
32B
330
339
330
348
330
356
330
37B
330
388
330
397
330
4A1
330
4B8
330
4C7
330
4D6
330
4E3
102
}
330
A
100
AcDbSymbolTableRecord
100
AcDbDimStyleTableRecord
  2
LC-DIM-L-0025-02-02
 70
     0
 40
10.0
 41
2.5
 42
0.0
 43
7.5
 44
1.8
 73
     0
 74
     0
 77
     1
 78
     8
 79
     2
140
2.5
141
0.0
146
0.71
147
1.5
172
     1
176
     2
177
     2
178
     2
179
     2
271
     2
278
    44
289
     1
340
2F
  0
DIMSTYLE
105
12B
102
{ACAD_REACTORS
330
12C
102
}
330
A
100
AcDbSymbolTableRecord
100
AcDbDimStyleTableRecord
  2
LC-DIM-R-0025-02-02
 70
     0
 40
10.0
 41
2.5
 42
0.0
 43
7.5
 44
1.8
 73
     0
 74
     0
 77
     1
 78
     8
 79
     2
140
2.5
141
0.0
146
0.71
147
1.5
176
     2
177
     2
178
     2
179
     2
271
     2
278
    44
289
     1
340
2F
  0
DIMSTYLE
105
364
102
{ACAD_REACTORS
330
365
330
370
102
}
330
A
100
AcDbSymbolTableRecord
100
AcDbDimStyleTableRecord
  2
LC-DIM-L-0025-02-32
 70
     0
 40
10.0
 41
2.5
 42
0.0
 43
7.5
 44
1.8
 73
     0
 74
     0
 75
     1
 76
     1
 77
     1
 78
     8
 79
     2
140
2.5
141
0.0
146
0.71
147
1.5
172
     1
176
     2
177
     2
178
     2
179
     2
271
     2
278
    44
289
     1
340
2F
  0
ENDTAB
  0
TABLE
  2
BLOCK_RECORD
  5
1
330
0
100
AcDbSymbolTable
 70
    33
  0
BLOCK_RECORD
  5
1F
330
1
100
AcDbSymbolTableRecord
100
AcDbBlockTableRecord
  2
*Model_Space
340
22
  0
BLOCK_RECORD
  5
1B
330
1
100
AcDbSymbolTableRecord
100
AcDbBlockTableRecord
  2
*Paper_Space
340
1E
  0
BLOCK_RECORD
  5
23
330
1
100
AcDbSymbolTableRecord
100
AcDbBlockTableRecord
  2
*Paper_Space0
340
26
  0
BLOCK_RECORD
  5
30
330
1
100
AcDbSymbolTableRecord
100
AcDbBlockTableRecord
  2
SYM1
340
0
102
{BLKREFS
331
103
102
}
  0
BLOCK_RECORD
  5
111
330
1
100
AcDbSymbolTableRecord
100
AcDbBlockTableRecord
  2
*D2
340
0
  0
BLOCK_RECORD
  5
11F
330
1
100
AcDbSymbolTableRecord
100
AcDbBlockTableRecord
  2
*D3
340
0
  0
BLOCK_RECORD
  5
12D
330
1
100
AcDbSymbolTableRecord
100
AcDbBlockTableRecord
  2
*D4
340
0
  0
BLOCK_RECORD
  5
1D4
330
1
100
AcDbSymbolTableRecord
100
AcDbBlockTableRecord
  2
*X15
340
0
102
{BLKREFS
331
1EE
102
}
  0
BLOCK_RECORD
  5
1EF
330
1
100
AcDbSymbolTableRecord
100
AcDbBlockTableRecord
  2
*X26
340
0
102
{BLKREFS
331
210
102
}
  0
BLOCK_RECORD
  5
211
330
1
100
AcDbSymbolTableRecord
100
AcDbBlockTableRecord
  2
*X37
340
0
102
{BLKREFS
331
23D
102
}
  0
BLOCK_RECORD
  5
24C
330
1
100
AcDbSymbolTableRecord
100
AcDbBlockTableRecord
  2
*X48
340
0
102
{BLKREFS
331
272
102
}
  0
BLOCK_RECORD
  5
273
330
1
100
AcDbSymbolTableRecord
100
AcDbBlockTableRecord
  2
*X59
340
0
102
{BLKREFS
331
28D
102
}
  0
BLOCK_RECORD
  5
2BF
330
1
100
AcDbSymbolTableRecord
100
AcDbBlockTableRecord
  2
*X610
340
0
102
{BLKREFS
331
2D5
102
}
  0
BLOCK_RECORD
  5
2D6
330
1
100
AcDbSymbolTableRecord
100
AcDbBlockTableRecord
  2
*X711
340
0
102
{BLKREFS
331
301
102
}
  0
BLOCK_RECORD
  5
303
330
1
100
AcDbSymbolTableRecord
100
AcDbBlockTableRecord
  2
*D12
340
0
  0
BLOCK_RECORD
  5
311
330
1
100
AcDbSymbolTableRecord
100
AcDbBlockTableRecord
  2
*D13
340
0
  0
BLOCK_RECORD
  5
31E
330
1
100
AcDbSymbolTableRecord
100
AcDbBlockTableRecord
  2
*D14
340
0
  0
BLOCK_RECORD
  5
32C
330
1
100
AcDbSymbolTableRecord
100
AcDbBlockTableRecord
  2
*D15
340
0
  0
BLOCK_RECORD
  5
33A
330
1
100
AcDbSymbolTableRecord
100
AcDbBlockTableRecord
  2
*D16
340
0
  0
BLOCK_RECORD
  5
349
330
1
100
AcDbSymbolTableRecord
100
AcDbBlockTableRecord
  2
*D17
340
0
  0
BLOCK_RECORD
  5
357
330
1
100
AcDbSymbolTableRecord
100
AcDbBlockTableRecord
  2
*D18
340
0
  0
BLOCK_RECORD
  5
366
330
1
100
AcDbSymbolTableRecord
100
AcDbBlockTableRecord
  2
*D19
340
0
  0
BLOCK_RECORD
  5
371
330
1
100
AcDbSymbolTableRecord
100
AcDbBlockTableRecord
  2
*D20
340
0
  0
BLOCK_RECORD
  5
37C
330
1
100
AcDbSymbolTableRecord
100
AcDbBlockTableRecord
  2
*D21
340
0
  0
BLOCK_RECORD
  5
389
330
1
100
AcDbSymbolTableRecord
100
AcDbBlockTableRecord
  2
*D22
340
0
  0
BLOCK_RECORD
  5
398
330
1
100
AcDbSymbolTableRecord
100
AcDbBlockTableRecord
  2
*D23
340
0
  0
BLOCK_RECORD
  5
3AD
330
1
100
AcDbSymbolTableRecord
100
AcDbBlockTableRecord
  2
*X824
340
0
102
{BLKREFS
331
3EC
102
}
  0
BLOCK_RECORD
  5
3F0
330
1
100
AcDbSymbolTableRecord
100
AcDbBlockTableRecord
  2
*X925
340
0
102
{BLKREFS
331
42F
102
}
  0
BLOCK_RECORD
  5
431
330
1
100
AcDbSymbolTableRecord
100
AcDbBlockTableRecord
  2
*X1026
340
0
102
{BLKREFS
331
467
102
}
  0
BLOCK_RECORD
  5
46A
330
1
100
AcDbSymbolTableRecord
100
AcDbBlockTableRecord
  2
*X1127
340
0
102
{BLKREFS
331
4A0
102
}
  0
BLOCK_RECORD
  5
4A2
330
1
100
AcDbSymbolTableRecord
100
AcDbBlockTableRecord
  2
*D28
340
0
  0
BLOCK_RECORD
  5
4B9
330
1
100
AcDbSymbolTableRecord
100
AcDbBlockTableRecord
  2
*D29
340
0
  0
BLOCK_RECORD
  5
4C8
330
1
100
AcDbSymbolTableRecord
100
AcDbBlockTableRecord
  2
*D30
340
0
  0
BLOCK_RECORD
  5
4D7
330
1
100
AcDbSymbolTableRecord
100
AcDbBlockTableRecord
  2
*D31
340
0
  0
BLOCK_RECORD
  5
4E4
330
1
100
AcDbSymbolTableRecord
100
AcDbBlockTableRecord
  2
*D32
340
0
  0
ENDTAB
  0
ENDSEC
  0
SECTION
  2
BLOCKS
  0
BLOCK
  5
20
330
1F
100
AcDbEntity
  8
0
100
AcDbBlockBegin
  2
*Model_Space
 70
     0
 71
     0
 10
0.0
 20
0.0
 30
0.0
  3
*Model_Space
  1

  0
ENDBLK
  5
21
330
1F
100
AcDbEntity
  8
0
100
AcDbBlockEnd
  0
BLOCK
  5
1C
330
1B
100
AcDbEntity
 67
     1
  8
0
100
AcDbBlockBegin
  2
*Paper_Space
 70
     0
 71
     0
 10
0.0
 20
0.0
 30
0.0
  3
*Paper_Space
  1

  0
ENDBLK
  5
1D
330
1B
100
AcDbEntity
 67
     1
  8
0
100
AcDbBlockEnd
  0
BLOCK
  5
24
330
23
100
AcDbEntity
  8
0
100
AcDbBlockBegin
  2
*Paper_Space0
 70
     0
 71
     0
 10
0.0
 20
0.0
 30
0.0
  3
*Paper_Space0
  1

  0
ENDBLK
  5
25
330
23
100
AcDbEntity
  8
0
100
AcDbBlockEnd
  0
BLOCK
  5
31
330
30
100
AcDbEntity
  8
0
100
AcDbBlockBegin
  2
SYM1
 70
     0
 71
     0
 10
0.0
 20
0.0
 30
0.0
  3
SYM1
  1

  4
SYM1
  0
LINE
  5
34
330
30
100
AcDbEntity
  8
LC-001-111-----0
 62
   253
370
    50
100
AcDbLine
 10
2050.0
 20
50.0
 30
0.0
 11
2050.0
 21
2920.0
 31
0.0
  0
LINE
  5
35
330
30
100
AcDbEntity
  8
LC-001-111-----0
 62
   253
370
    25
100
AcDbLine
 10
178.0
 20
220.0
 30
0.0
 11
724.0
 21
220.0
 31
0.0
  0
LINE
  5
36
330
30
100
AcDbEntity
  8
LC-001-111-----0
 62
   253
370
    35
100
AcDbLine
 10
724.0
 20
220.0
 30
0.0
 11
2050.0
 21
220.0
 31
0.0
  0
LINE
  5
37
330
30
100
AcDbEntity
  8
LC-001-111-----0
 62
   253
370
    50
100
AcDbLine
 10
178.0
 20
602.5
 30
0.0
 11
2050.0
 21
602.5
 31
0.0
  0
LINE
  5
38
330
30
100
AcDbEntity
  8
LC-001-111-----0
 62
   253
370
    25
100
AcDbLine
 10
178.0
 20
92.5
 30
0.0
 11
2050.0
 21
92.5
 31
0.0
  0
LINE
  5
39
330
30
100
AcDbEntity
  8
LC-001-111-----0
 62
   253
370
    25
100
AcDbLine
 10
178.0
 20
135.0
 30
0.0
 11
724.0
 21
135.0
 31
0.0
  0
LINE
  5
3A
330
30
100
AcDbEntity
  8
LC-001-111-----0
 62
   253
370
    25
100
AcDbLine
 10
178.0
 20
177.5
 30
0.0
 11
724.0
 21
177.5
 31
0.0
  0
LINE
  5
3B
330
30
100
AcDbEntity
  8
LC-001-111-----0
 62
   253
370
    25
100
AcDbLine
 10
178.0
 20
262.5
 30
0.0
 11
1166.0
 21
262.5
 31
0.0
  0
LINE
  5
3C
330
30
100
AcDbEntity
  8
LC-001-111-----0
 62
   253
370
    25
100
AcDbLine
 10
178.0
 20
305.0
 30
0.0
 11
1166.0
 21
305.0
 31
0.0
  0
LINE
  5
3D
330
30
100
AcDbEntity
  8
LC-001-111-----0
 62
   253
370
    25
100
AcDbLine
 10
178.0
 20
347.5
 30
0.0
 11
1166.0
 21
347.5
 31
0.0
  0
LINE
  5
3E
330
30
100
AcDbEntity
  8
LC-001-111-----0
 62
   253
370
    25
100
AcDbLine
 10
178.0
 20
390.0
 30
0.0
 11
1166.0
 21
390.0
 31
0.0
  0
LINE
  5
3F
330
30
100
AcDbEntity
  8
LC-001-111-----0
 62
   253
370
    35
100
AcDbLine
 10
178.0
 20
432.5
 30
0.0
 11
2050.0
 21
432.5
 31
0.0
  0
LINE
  5
40
330
30
100
AcDbEntity
  8
LC-001-111-----0
 62
   253
370
    25
100
AcDbLine
 10
828.0
 20
262.5
 30
0.0
 11
828.0
 21
432.5
 31
0.0
  0
LINE
  5
41
330
30
100
AcDbEntity
  8
LC-001-111-----0
 62
   253
370
    35
100
AcDbLine
 10
1920.0
 20
92.5
 30
0.0
 11
1920.0
 21
220.0
 31
0.0
  0
LINE
  5
42
330
30
100
AcDbEntity
  8
LC-001-111-----0
 62
   253
370
    25
100
AcDbLine
 10
1166.0
 20
538.75
 30
0.0
 11
2050.0
 21
538.75
 31
0.0
  0
LINE
  5
43
330
30
100
AcDbEntity
  8
LC-001-111-----0
 62
   253
370
    25
100
AcDbLine
 10
256.0
 20
50.0
 30
0.0
 11
256.0
 21
432.5
 31
0.0
  0
LINE
  5
44
330
30
100
AcDbEntity
  8
LC-001-111-----0
 62
   253
370
    25
100
AcDbLine
 10
516.0
 20
50.0
 30
0.0
 11
516.0
 21
432.5
 31
0.0
  0
LINE
  5
45
330
30
100
AcDbEntity
  8
LC-001-111-----0
 62
   253
370
    25
100
AcDbLine
 10
646.0
 20
50.0
 30
0.0
 11
646.0
 21
432.5
 31
0.0
  0
LINE
  5
46
330
30
100
AcDbEntity
  8
LC-001-111-----0
 62
   253
370
    35
100
AcDbLine
 10
724.0
 20
50.0
 30
0.0
 11
724.0
 21
602.5
 31
0.0
  0
LINE
  5
47
330
30
100
AcDbEntity
  8
LC-001-111-----0
 62
   253
370
    35
100
AcDbLine
 10
1166.0
 20
50.0
 30
0.0
 11
1166.0
 21
602.5
 31
0.0
  0
LINE
  5
48
330
30
100
AcDbEntity
  8
LC-001-111-----0
 62
   253
370
    25
100
AcDbLine
 10
1920.0
 20
135.0
 30
0.0
 11
2050.0
 21
135.0
 31
0.0
  0
LINE
  5
49
330
30
100
AcDbEntity
  8
LC-001-111-----0
 62
   253
370
    25
100
AcDbLine
 10
984.0
 20
220.0
 30
0.0
 11
984.0
 21
602.5
 31
0.0
  0
LINE
  5
4A
330
30
100
AcDbEntity
  8
LC-001-111-----0
 62
   253
370
    25
100
AcDbLine
 10
1686.0
 20
538.75
 30
0.0
 11
1686.0
 21
602.5
 31
0.0
  0
LINE
  5
4B
330
30
100
AcDbEntity
  8
LC-001-111-----0
 62
   253
370
    25
100
AcDbLine
 10
1608.0
 20
50.0
 30
0.0
 11
1608.0
 21
92.5
 31
0.0
  0
LINE
  5
4C
330
30
100
AcDbEntity
  8
LC-001-111-----0
 62
   253
370
    50
100
AcDbLine
 10
178.0
 20
50.0
 30
0.0
 11
178.0
 21
2920.0
 31
0.0
  0
LINE
  5
4D
330
30
100
AcDbEntity
  8
LC-001-111-----0
 62
   253
370
    50
100
AcDbLine
 10
178.0
 20
2920.0
 30
0.0
 11
2050.0
 21
2920.0
 31
0.0
  0
TEXT
  5
4E
330
30
100
AcDbEntity
  8
LC-001-111-----0
 62
     7
370
    25
100
AcDbText
 10
1389.896875
 20
558.125
 30
0.0
 40
25.0
  1
1:10 inches(mm)
 41
0.75
  7
LCTX0-400-0-0pDIN-Schrift
 72
     1
 11
1504.0
 21
558.125
 31
0.0
100
AcDbText
  0
TEXT
  5
4F
330
30
100
AcDbEntity
  8
LC-001-111-----0
 62
     7
370
    25
100
AcDbText
 10
743.178125
 20
398.75
 30
0.0
 40
25.0
  1
2012
 41
0.75
  7
LCTX0-400-0-0pDIN-Schrift
 72
     1
 11
776.0
 21
398.75
 31
0.0
100
AcDbText
  0
TEXT
  5
50
330
30
100
AcDbEntity
  8
LC-001-111-----0
 62
     7
370
    25
100
AcDbText
 10
866.896875
 20
356.25
 30
0.0
 40
25.0
  1
15.02.
 41
0.75
  7
LCTX0-400-0-0pDIN-Schrift
 72
     1
 11
906.0
 21
356.25
 31
0.0
100
AcDbText
  0
TEXT
  5
51
330
30
100
AcDbEntity
  8
LC-001-111-----0
 62
     7
370
    25
100
AcDbText
 10
1056.25
 20
356.25
 30
0.0
 40
25.0
  1
KM
 41
0.75
  7
LCTX0-400-0-0pDIN-Schrift
 72
     1
 11
1075.0
 21
356.25
 31
0.0
100
AcDbText
  0
TEXT
  5
52
330
30
100
AcDbEntity
  8
LC-001-111-----0
 62
   253
370
    20
100
AcDbText
 10
1183.923077
 20
560.625
 30
0.0
 40
20.0
  1
Maßstab
 41
0.75
  7
LCTX0-400-0-0pDIN-Schrift
100
AcDbText
  0
TEXT
  5
53
330
30
100
AcDbEntity
  8
LC-001-111-----0
 62
   253
370
    20
100
AcDbText
 10
868.4175
 20
401.25
 30
0.0
 40
20.0
  1
Datum
 41
0.75
  7
LCTX0-400-0-0pDIN-Schrift
 72
     1
 11
906.0
 21
401.25
 31
0.0
100
AcDbText
  0
TEXT
  5
54
330
30
100
AcDbEntity
  8
LC-001-111-----0
 62
   253
370
    20
100
AcDbText
 10
1044.9625
 20
401.25
 30
0.0
 40
20.0
  1
Name
 41
0.75
  7
LCTX0-400-0-0pDIN-Schrift
 72
     1
 11
1075.0
 21
401.25
 31
0.0
100
AcDbText
  0
TEXT
  5
55
330
30
100
AcDbEntity
  8
LC-001-111-----0
 62
   253
370
    20
100
AcDbText
 10
741.923077
 20
358.75
 30
0.0
 40
20.0
  1
Bearb.
 41
0.75
  7
LCTX0-400-0-0pDIN-Schrift
100
AcDbText
  0
TEXT
  5
56
330
30
100
AcDbEntity
  8
LC-001-111-----0
 62
   253
370
    20
100
AcDbText
 10
741.923077
 20
316.25
 30
0.0
 40
20.0
  1
Gepr.
 41
0.75
  7
LCTX0-400-0-0pDIN-Schrift
100
AcDbText
  0
TEXT
  5
57
330
30
100
AcDbEntity
  8
LC-001-111-----0
 62
   253
370
    20
100
AcDbText
 10
741.923077
 20
273.75
 30
0.0
 40
20.0
  1
Norm
 41
0.75
  7
LCTX0-400-0-0pDIN-Schrift
100
AcDbText
  0
TEXT
  5
58
330
30
100
AcDbEntity
  8
LC-001-111-----0
 62
   253
370
    20
100
AcDbText
 10
1937.923077
 20
188.75
 30
0.0
 40
20.0
  1
Blatt
 41
0.75
  7
LCTX0-400-0-0pDIN-Schrift
100
AcDbText
  0
TEXT
  5
59
330
30
100
AcDbEntity
  8
LC-001-111-----0
 62
   253
370
    20
100
AcDbText
 10
2011.906923
 20
103.75
 30
0.0
 40
20.0
  1
Bl.
 41
0.75
  7
LCTX0-400-0-0pDIN-Schrift
 72
     2
 11
2037.076923
 21
103.75
 31
0.0
100
AcDbText
  0
TEXT
  5
5A
330
30
100
AcDbEntity
  8
LC-001-111-----0
 62
   253
370
    20
100
AcDbText
 10
196.056
 20
61.25
 30
0.0
 40
20.0
  1
Zust.
 41
0.6
  7
LCTX0-400-0-0pDIN-Schrift
 72
     1
 11
222.0
 21
61.25
 31
0.0
100
AcDbText
  0
TEXT
  5
5B
330
30
100
AcDbEntity
  8
LC-001-111-----0
 62
   253
370
    20
100
AcDbText
 10
326.0
 20
61.25
 30
0.0
 40
20.0
  1
Änderung
 41
0.75
  7
LCTX0-400-0-0pDIN-Schrift
 72
     1
 11
386.0
 21
61.25
 31
0.0
100
AcDbText
  0
TEXT
  5
5C
330
30
100
AcDbEntity
  8
LC-001-111-----0
 62
   253
370
    20
100
AcDbText
 10
543.4175
 20
61.25
 30
0.0
 40
20.0
  1
Datum
 41
0.75
  7
LCTX0-400-0-0pDIN-Schrift
 72
     1
 11
581.0
 21
61.25
 31
0.0
100
AcDbText
  0
TEXT
  5
5D
330
30
100
AcDbEntity
  8
LC-001-111-----0
 62
   253
370
    20
100
AcDbText
 10
654.9625
 20
61.25
 30
0.0
 40
20.0
  1
Name
 41
0.75
  7
LCTX0-400-0-0pDIN-Schrift
 72
     1
 11
685.0
 21
61.25
 31
0.0
100
AcDbText
  0
TEXT
  5
5E
330
30
100
AcDbEntity
  8
LC-001-111-----0
 62
     7
370
    50
100
AcDbText
 10
1214.04375
 20
343.75
 30
0.0
 40
50.0
  1
Inspiration/Inspire-N175
 41
0.75
  7
LCTX0-400-0-0pDIN-Schrift
 72
     1
 11
1608.0
 21
343.75
 31
0.0
100
AcDbText
  0
TEXT
  5
5F
330
30
100
AcDbEntity
  8
LC-001-111-----0
 62
     7
370
    35
100
AcDbText
 10
1528.103195
 20
266.25
 30
0.0
 40
35.0
  1
topmount
 41
0.75
  7
LCTX0-400-0-0pDIN-Schrift
100
AcDbText
  0
TEXT
  5
60
330
30
100
AcDbEntity
  8
LC-001-111-----0
 62
     7
370
    50
100
AcDbText
 10
1346.33125
 20
131.25
 30
0.0
 40
50.0
  1
4.12.789.04.00
 41
0.75
  7
LCTX0-400-0-0pDIN-Schrift
 72
     1
 11
1543.0
 21
131.25
 31
0.0
100
AcDbText
  0
ARC
  5
61
330
30
100
AcDbEntity
  8
LC-001-111-----0
 62
   253
370
    25
100
AcDbCircle
 10
758.903191
 20
174.567744
 30
0.0
 40
20.81533311668208
100
AcDbArc
 50
62.408264
 51
94.48185
  0
LINE
  5
62
330
30
100
AcDbEntity
  8
LC-001-111-----0
 62
   253
370
    50
100
AcDbLine
 10
178.0
 20
50.0
 30
0.0
 11
2050.0
 21
50.0
 31
0.0
  0
LINE
  5
63
330
30
100
AcDbEntity
  8
LC-001-111-----0
 62
   253
370
    25
100
AcDbLine
 10
50.0
 20
1485.0
 30
0.0
 11
0.0
 21
1485.0
 31
0.0
  0
LINE
  5
64
330
30
100
AcDbEntity
  8
LC-001-111-----0
 62
   253
370
    25
100
AcDbLine
 10
1063.835603
 20
195.169147
 30
0.0
 11
1063.835603
 21
157.149147
 31
0.0
  0
LINE
  5
65
330
30
100
AcDbEntity
  8
LC-001-111-----0
 62
   253
370
    25
100
AcDbLine
 10
2100.0
 20
2970.0
 30
0.0
 11
2100.0
 21
0.0
 31
0.0
  0
LINE
  5
66
330
30
100
AcDbEntity
  8
LC-001-111-----0
 62
   253
370
    25
100
AcDbLine
 10
2100.0
 20
0.0
 30
0.0
 11
0.0
 21
0.0
 31
0.0
  0
LINE
  5
67
330
30
100
AcDbEntity
  8
LC-001-111-----0
 62
   253
370
    25
100
AcDbLine
 10
0.0
 20
0.0
 30
0.0
 11
0.0
 21
2970.0
 31
0.0
  0
LINE
  5
68
330
30
100
AcDbEntity
  8
LC-001-111-----0
 62
   253
370
    25
100
AcDbLine
 10
2100.0
 20
2970.0
 30
0.0
 11
0.0
 21
2970.0
 31
0.0
  0
TEXT
  5
69
330
30
100
AcDbEntity
  8
LC-001-111-----0
 62
   253
370
    20
100
AcDbText
 10
729.2325
 20
111.159147
 30
0.0
 40
20.0
  1
Hofbauerstraße 1  ·  D-94209 REGEN
 41
0.65
  7
LCTX0-400-0-0pDIN-Schrift
 72
     1
 11
945.0
 21
111.159147
 31
0.0
100
AcDbText
  0
ARC
  5
6A
330
30
100
AcDbEntity
  8
LC-001-111-----0
 62
   253
370
    25
100
AcDbCircle
 10
758.032826
 20
185.671748
 30
0.0
 40
9.677270814709853
100
AcDbArc
 50
94.48185
 51
252.731329
  0
ARC
  5
6B
330
30
100
AcDbEntity
  8
LC-001-111-----0
 62
   253
370
    25
100
AcDbCircle
 10
823.845603
 20
176.159147
 30
0.0
 40
19.01000000000008
100
AcDbArc
 50
74.719456
 51
285.280544
  0
LINE
  5
6C
330
30
100
AcDbEntity
  8
LC-001-111-----0
 62
   253
370
    25
100
AcDbLine
 10
828.855603
 20
157.821208
 30
0.0
 11
828.855603
 21
163.204148
 31
0.0
  0
ARC
  5
6D
330
30
100
AcDbEntity
  8
LC-001-111-----0
 62
   253
370
    25
100
AcDbCircle
 10
823.845603
 20
176.159147
 30
0.0
 40
13.88999999999995
100
AcDbArc
 50
68.857352
 51
291.142648
  0
ARC
  5
6E
330
30
100
AcDbEntity
  8
LC-001-111-----0
 62
   253
370
    25
100
AcDbCircle
 10
823.845603
 20
176.159147
 30
0.0
 40
12.39000000000002
100
AcDbArc
 50
58.303227
 51
301.696773
  0
ARC
  5
6F
330
30
100
AcDbEntity
  8
LC-001-111-----0
 62
   253
370
    25
100
AcDbCircle
 10
1019.845603
 20
176.159147
 30
0.0
 40
19.01000000000008
100
AcDbArc
 50
74.719456
 51
285.280544
  0
LINE
  5
70
330
30
100
AcDbEntity
  8
LC-001-111-----0
 62
   253
370
    25
100
AcDbLine
 10
830.355603
 20
165.617231
 30
0.0
 11
830.355603
 21
156.709726
 31
0.0
  0
LINE
  5
71
330
30
100
AcDbEntity
  8
LC-001-111-----0
 62
   253
370
    25
100
AcDbLine
 10
755.160101
 20
176.430697
 30
0.0
 11
762.683613
 21
174.091896
 31
0.0
  0
ARC
  5
72
330
30
100
AcDbEntity
  8
LC-001-111-----0
 62
   253
370
    25
100
AcDbCircle
 10
823.845603
 20
176.159147
 30
0.0
 40
20.51000000000012
100
AcDbArc
 50
71.493868
 51
288.506132
  0
LINE
  5
73
330
30
100
AcDbEntity
  8
LC-001-111-----0
 62
   253
370
    25
100
AcDbLine
 10
1024.855603
 20
157.821208
 30
0.0
 11
1024.855603
 21
163.204148
 31
0.0
  0
LINE
  5
74
330
30
100
AcDbEntity
  8
LC-001-111-----0
 62
   253
370
    25
100
AcDbLine
 10
830.355603
 20
195.608569
 30
0.0
 11
830.355603
 21
186.701063
 31
0.0
  0
ARC
  5
75
330
30
100
AcDbEntity
  8
LC-001-111-----0
 62
   253
370
    25
100
AcDbCircle
 10
1019.845603
 20
176.159147
 30
0.0
 40
13.88999999999995
100
AcDbArc
 50
68.857352
 51
291.142648
  0
LINE
  5
76
330
30
100
AcDbEntity
  8
LC-001-111-----0
 62
   253
370
    25
100
AcDbLine
 10
862.835603
 20
155.649147
 30
0.0
 11
862.835603
 21
196.669147
 31
0.0
  0
LINE
  5
77
330
30
100
AcDbEntity
  8
LC-001-111-----0
 62
   253
370
    25
100
AcDbLine
 10
862.835603
 20
196.669147
 30
0.0
 11
872.355603
 21
196.669147
 31
0.0
  0
LINE
  5
78
330
30
100
AcDbEntity
  8
LC-001-111-----0
 62
   253
370
    25
100
AcDbLine
 10
872.355603
 20
196.669147
 30
0.0
 11
872.355603
 21
179.519147
 31
0.0
  0
LINE
  5
79
330
30
100
AcDbEntity
  8
LC-001-111-----0
 62
   253
370
    25
100
AcDbLine
 10
872.355603
 20
179.519147
 30
0.0
 11
887.335603
 21
179.519147
 31
0.0
  0
LINE
  5
7A
330
30
100
AcDbEntity
  8
LC-001-111-----0
 62
   253
370
    25
100
AcDbLine
 10
887.335603
 20
179.519147
 30
0.0
 11
887.335603
 21
196.669147
 31
0.0
  0
LINE
  5
7B
330
30
100
AcDbEntity
  8
LC-001-111-----0
 62
   253
370
    25
100
AcDbLine
 10
887.335603
 20
196.669147
 30
0.0
 11
896.855603
 21
196.669147
 31
0.0
  0
LINE
  5
7C
330
30
100
AcDbEntity
  8
LC-001-111-----0
 62
   253
370
    25
100
AcDbLine
 10
896.855603
 20
196.669147
 30
0.0
 11
896.855603
 21
155.649147
 31
0.0
  0
LINE
  5
7D
330
30
100
AcDbEntity
  8
LC-001-111-----0
 62
   253
370
    25
100
AcDbLine
 10
896.855603
 20
155.649147
 30
0.0
 11
887.335603
 21
155.649147
 31
0.0
  0
LINE
  5
7E
330
30
100
AcDbEntity
  8
LC-001-111-----0
 62
   253
370
    25
100
AcDbLine
 10
887.335603
 20
155.649147
 30
0.0
 11
887.335603
 21
172.799147
 31
0.0
  0
LINE
  5
7F
330
30
100
AcDbEntity
  8
LC-001-111-----0
 62
   253
370
    25
100
AcDbLine
 10
887.335603
 20
172.799147
 30
0.0
 11
872.355603
 21
172.799147
 31
0.0
  0
LINE
  5
80
330
30
100
AcDbEntity
  8
LC-001-111-----0
 62
   253
370
    25
100
AcDbLine
 10
872.355603
 20
172.799147
 30
0.0
 11
872.355603
 21
155.649147
 31
0.0
  0
LINE
  5
81
330
30
100
AcDbEntity
  8
LC-001-111-----0
 62
   253
370
    25
100
AcDbLine
 10
872.355603
 20
155.649147
 30
0.0
 11
862.835603
 21
155.649147
 31
0.0
  0
CIRCLE
  5
82
330
30
100
AcDbEntity
  8
LC-001-111-----0
 62
   253
370
    25
100
AcDbCircle
 10
946.345603
 20
176.159147
 30
0.0
 40
12.39000000000044
  0
CIRCLE
  5
83
330
30
100
AcDbEntity
  8
LC-001-111-----0
 62
   253
370
    25
100
AcDbCircle
 10
946.345603
 20
176.159147
 30
0.0
 40
20.51000000000049
  0
ARC
  5
84
330
30
100
AcDbEntity
  8
LC-001-111-----0
 62
   253
370
    25
100
AcDbCircle
 10
1019.845603
 20
176.159147
 30
0.0
 40
12.39000000000002
100
AcDbArc
 50
58.303227
 51
301.696773
  0
LINE
  5
85
330
30
100
AcDbEntity
  8
LC-001-111-----0
 62
   253
370
    25
100
AcDbLine
 10
864.335603
 20
195.169147
 30
0.0
 11
864.335603
 21
157.149147
 31
0.0
  0
LINE
  5
86
330
30
100
AcDbEntity
  8
LC-001-111-----0
 62
   253
370
    25
100
AcDbLine
 10
1026.355603
 20
165.617231
 30
0.0
 11
1026.355603
 21
156.709726
 31
0.0
  0
LINE
  5
87
330
30
100
AcDbEntity
  8
LC-001-111-----0
 62
   253
370
    25
100
AcDbLine
 10
864.335603
 20
157.149147
 30
0.0
 11
870.855603
 21
157.149147
 31
0.0
  0
LINE
  5
88
330
30
100
AcDbEntity
  8
LC-001-111-----0
 62
   253
370
    25
100
AcDbLine
 10
870.855603
 20
157.149147
 30
0.0
 11
870.855603
 21
174.299147
 31
0.0
  0
LINE
  5
89
330
30
100
AcDbEntity
  8
LC-001-111-----0
 62
   253
370
    25
100
AcDbLine
 10
870.855603
 20
174.299147
 30
0.0
 11
888.835603
 21
174.299147
 31
0.0
  0
LINE
  5
8A
330
30
100
AcDbEntity
  8
LC-001-111-----0
 62
   253
370
    25
100
AcDbLine
 10
888.835603
 20
174.299147
 30
0.0
 11
888.835603
 21
157.149147
 31
0.0
  0
LINE
  5
8B
330
30
100
AcDbEntity
  8
LC-001-111-----0
 62
   253
370
    25
100
AcDbLine
 10
888.835603
 20
157.149147
 30
0.0
 11
895.355603
 21
157.149147
 31
0.0
  0
LINE
  5
8C
330
30
100
AcDbEntity
  8
LC-001-111-----0
 62
   253
370
    25
100
AcDbLine
 10
895.355603
 20
157.149147
 30
0.0
 11
895.355603
 21
195.169147
 31
0.0
  0
LINE
  5
8D
330
30
100
AcDbEntity
  8
LC-001-111-----0
 62
   253
370
    25
100
AcDbLine
 10
895.355603
 20
195.169147
 30
0.0
 11
888.835603
 21
195.169147
 31
0.0
  0
LINE
  5
8E
330
30
100
AcDbEntity
  8
LC-001-111-----0
 62
   253
370
    25
100
AcDbLine
 10
888.835603
 20
195.169147
 30
0.0
 11
888.835603
 21
178.019147
 31
0.0
  0
LINE
  5
8F
330
30
100
AcDbEntity
  8
LC-001-111-----0
 62
   253
370
    25
100
AcDbLine
 10
888.835603
 20
178.019147
 30
0.0
 11
870.855603
 21
178.019147
 31
0.0
  0
LINE
  5
90
330
30
100
AcDbEntity
  8
LC-001-111-----0
 62
   253
370
    25
100
AcDbLine
 10
870.855603
 20
178.019147
 30
0.0
 11
870.855603
 21
195.169147
 31
0.0
  0
CIRCLE
  5
91
330
30
100
AcDbEntity
  8
LC-001-111-----0
 62
   253
370
    25
100
AcDbCircle
 10
946.345603
 20
176.159147
 30
0.0
 40
19.01000000000055
  0
ARC
  5
92
330
30
100
AcDbEntity
  8
LC-001-111-----0
 62
   253
370
    25
100
AcDbCircle
 10
760.836588
 20
168.15034
 30
0.0
 40
6.222024781007809
100
AcDbArc
 50
268.246912
 51
72.731329
  0
ARC
  5
93
330
30
100
AcDbEntity
  8
LC-001-111-----0
 62
   253
370
    25
100
AcDbCircle
 10
761.412387
 20
186.963179
 30
0.0
 40
25.04367341134793
100
AcDbArc
 50
239.19233
 51
268.246912
  0
LINE
  5
94
330
30
100
AcDbEntity
  8
LC-001-111-----0
 62
   253
370
    25
100
AcDbLine
 10
748.586073
 20
165.453385
 30
0.0
 11
748.586073
 21
160.350534
 31
0.0
  0
ARC
  5
95
330
30
100
AcDbEntity
  8
LC-001-111-----0
 62
   253
370
    25
100
AcDbCircle
 10
760.81067
 20
180.45076
 30
0.0
 40
23.52572762426598
100
AcDbArc
 50
238.692783
 51
274.343327
  0
ARC
  5
96
330
30
100
AcDbEntity
  8
LC-001-111-----0
 62
   253
370
    25
100
AcDbCircle
 10
1019.845603
 20
176.159147
 30
0.0
 40
20.51000000000012
100
AcDbArc
 50
71.493868
 51
288.506132
  0
ARC
  5
97
330
30
100
AcDbEntity
  8
LC-001-111-----0
 62
   253
370
    25
100
AcDbCircle
 10
761.779647
 20
167.692822
 30
0.0
 40
10.73104525444839
100
AcDbArc
 50
274.343327
 51
74.255463
  0
LINE
  5
98
330
30
100
AcDbEntity
  8
LC-001-111-----0
 62
   253
370
    25
100
AcDbLine
 10
1026.355603
 20
195.608569
 30
0.0
 11
1026.355603
 21
186.701063
 31
0.0
  0
LINE
  5
99
330
30
100
AcDbEntity
  8
LC-001-111-----0
 62
   253
370
    25
100
AcDbLine
 10
764.691502
 20
178.02125
 30
0.0
 11
757.135251
 21
180.151556
 31
0.0
  0
LINE
  5
9A
330
30
100
AcDbEntity
  8
LC-001-111-----0
 62
   253
370
    25
100
AcDbLine
 10
1024.855603
 20
189.114146
 30
0.0
 11
1024.855603
 21
194.497086
 31
0.0
  0
ARC
  5
9B
330
30
100
AcDbEntity
  8
LC-001-111-----0
 62
   253
370
    25
100
AcDbCircle
 10
758.632108
 20
185.460948
 30
0.0
 40
5.51636013010035
100
AcDbArc
 50
90.951212
 51
254.255463
  0
ARC
  5
9C
330
30
100
AcDbEntity
  8
LC-001-111-----0
 62
   253
370
    25
100
AcDbCircle
 10
758.906662
 20
168.924866
 30
0.0
 40
22.05472179307849
100
AcDbArc
 50
64.088485
 51
90.951212
  0
LINE
  5
9D
330
30
100
AcDbEntity
  8
LC-001-111-----0
 62
   253
370
    25
100
AcDbLine
 10
768.544191
 20
188.762426
 30
0.0
 11
768.544191
 21
193.015758
 31
0.0
  0
LINE
  5
9E
330
30
100
AcDbEntity
  8
LC-001-111-----0
 62
   253
370
    25
100
AcDbLine
 10
1071.855603
 20
177.513832
 30
0.0
 11
1087.818366
 21
196.669147
 31
0.0
  0
LINE
  5
9F
330
30
100
AcDbEntity
  8
LC-001-111-----0
 62
   253
370
    25
100
AcDbLine
 10
1087.818366
 20
196.669147
 30
0.0
 11
1099.299433
 21
196.669147
 31
0.0
  0
LINE
  5
A0
330
30
100
AcDbEntity
  8
LC-001-111-----0
 62
   253
370
    25
100
AcDbLine
 10
1099.299433
 20
196.669147
 30
0.0
 11
1082.207766
 21
176.159147
 31
0.0
  0
LINE
  5
A2
330
30
100
AcDbEntity
  8
LC-002-002-----0
 62
     1
370
    25
100
AcDbLine
 10
1143.855603
 20
159.963432
 30
0.0
 11
1143.855603
 21
192.354862
 31
0.0
  0
LINE
  5
A3
330
30
100
AcDbEntity
  8
LC-002-002-----0
 62
     1
370
    25
100
AcDbLine
 10
1143.855603
 20
192.354862
 30
0.0
 11
1127.659888
 21
176.159147
 31
0.0
  0
LINE
  5
A4
330
30
100
AcDbEntity
  8
LC-002-002-----0
 62
     1
370
    25
100
AcDbLine
 10
1127.659888
 20
176.159147
 30
0.0
 11
1143.855603
 21
159.963432
 31
0.0
  0
LINE
  5
A5
330
30
100
AcDbEntity
  8
LC-002-002-----0
 62
     1
370
    25
100
AcDbLine
 10
1142.355603
 20
163.584752
 30
0.0
 11
1142.355603
 21
188.733542
 31
0.0
  0
LINE
  5
A6
330
30
100
AcDbEntity
  8
LC-001-111-----0
 62
   253
370
    25
100
AcDbLine
 10
1082.207766
 20
176.159147
 30
0.0
 11
1099.299433
 21
155.649147
 31
0.0
  0
LINE
  5
A7
330
30
100
AcDbEntity
  8
LC-001-111-----0
 62
   253
370
    25
100
AcDbLine
 10
1099.299433
 20
155.649147
 30
0.0
 11
1087.818366
 21
155.649147
 31
0.0
  0
LINE
  5
A8
330
30
100
AcDbEntity
  8
LC-001-111-----0
 62
   253
370
    25
100
AcDbLine
 10
1087.818366
 20
155.649147
 30
0.0
 11
1071.855603
 21
174.804462
 31
0.0
  0
LINE
  5
A9
330
30
100
AcDbEntity
  8
LC-001-111-----0
 62
   253
370
    25
100
AcDbLine
 10
1062.335603
 20
155.649147
 30
0.0
 11
1062.335603
 21
196.669147
 31
0.0
  0
LINE
  5
AA
330
30
100
AcDbEntity
  8
LC-001-111-----0
 62
   253
370
    25
100
AcDbLine
 10
828.855603
 20
189.114146
 30
0.0
 11
828.855603
 21
194.497086
 31
0.0
  0
ARC
  5
AB
330
30
100
AcDbEntity
  8
LC-001-111-----0
 62
   253
370
    25
100
AcDbCircle
 10
758.903191
 20
174.567744
 30
0.0
 40
19.31533311668209
100
AcDbArc
 50
65.072024
 51
94.48185
  0
LINE
  5
AC
330
30
100
AcDbEntity
  8
LC-001-111-----0
 62
   253
370
    25
100
AcDbLine
 10
1063.835603
 20
157.149147
 30
0.0
 11
1070.355603
 21
157.149147
 31
0.0
  0
LINE
  5
AD
330
30
100
AcDbEntity
  8
LC-001-111-----0
 62
   253
370
    25
100
AcDbLine
 10
1070.355603
 20
157.149147
 30
0.0
 11
1070.355603
 21
195.169147
 31
0.0
  0
LINE
  5
AE
330
30
100
AcDbEntity
  8
LC-001-111-----0
 62
   253
370
    25
100
AcDbLine
 10
1070.355603
 20
195.169147
 30
0.0
 11
1063.835603
 21
195.169147
 31
0.0
  0
LINE
  5
AF
330
30
100
AcDbEntity
  8
LC-001-111-----0
 62
   253
370
    25
100
AcDbLine
 10
1065.335603
 20
193.669147
 30
0.0
 11
1065.335603
 21
158.649147
 31
0.0
  0
LINE
  5
B0
330
30
100
AcDbEntity
  8
LC-002-002-----0
 62
     1
370
    25
100
AcDbLine
 10
1142.355603
 20
188.733542
 30
0.0
 11
1129.781208
 21
176.159147
 31
0.0
  0
LINE
  5
B1
330
30
100
AcDbEntity
  8
LC-002-002-----0
 62
     1
370
    25
100
AcDbLine
 10
1129.781208
 20
176.159147
 30
0.0
 11
1142.355603
 21
163.584752
 31
0.0
  0
LINE
  5
B2
330
30
100
AcDbEntity
  8
LC-001-111-----0
 62
   253
370
    25
100
AcDbLine
 10
1062.335603
 20
196.669147
 30
0.0
 11
1071.855603
 21
196.669147
 31
0.0
  0
LINE
  5
B3
330
30
100
AcDbEntity
  8
LC-001-111-----0
 62
   253
370
    25
100
AcDbLine
 10
1071.855603
 20
196.669147
 30
0.0
 11
1071.855603
 21
155.649147
 31
0.0
  0
LINE
  5
B4
330
30
100
AcDbEntity
  8
LC-001-111-----0
 62
   253
370
    25
100
AcDbLine
 10
1071.855603
 20
155.649147
 30
0.0
 11
1062.335603
 21
155.649147
 31
0.0
  0
ARC
  5
B5
330
30
100
AcDbEntity
  8
LC-001-111-----0
 62
   253
370
    25
100
AcDbCircle
 10
758.032826
 20
185.671748
 30
0.0
 40
8.177270814709827
100
AcDbArc
 50
94.48185
 51
252.731329
  0
LINE
  5
B6
330
30
100
AcDbEntity
  8
LC-001-111-----0
 62
   253
370
    25
100
AcDbLine
 10
755.60538
 20
177.863082
 30
0.0
 11
763.128892
 21
175.524281
 31
0.0
  0
ARC
  5
B7
330
30
100
AcDbEntity
  8
LC-001-111-----0
 62
   253
370
    25
100
AcDbCircle
 10
760.836588
 20
168.15034
 30
0.0
 40
7.72202478100773
100
AcDbArc
 50
268.246912
 51
72.731329
  0
LINE
  5
B8
330
30
100
AcDbEntity
  8
LC-001-111-----0
 62
   253
370
    25
100
AcDbLine
 10
827.355603
 20
191.143539
 30
0.0
 11
827.355603
 21
193.313738
 31
0.0
  0
ARC
  5
B9
330
30
100
AcDbEntity
  8
LC-001-111-----0
 62
   253
370
    25
100
AcDbCircle
 10
823.845603
 20
176.159147
 30
0.0
 40
17.50999999999996
100
AcDbArc
 50
78.436322
 51
281.563678
  0
LINE
  5
BA
330
30
100
AcDbEntity
  8
LC-001-111-----0
 62
   253
370
    25
100
AcDbLine
 10
827.355603
 20
159.004556
 30
0.0
 11
827.355603
 21
161.174755
 31
0.0
  0
LINE
  5
BB
330
30
100
AcDbEntity
  8
LC-002-002-----0
 62
     1
370
    25
100
AcDbLine
 10
1145.355603
 20
195.976182
 30
0.0
 11
1145.355603
 21
156.342112
 31
0.0
  0
LINE
  5
BC
330
30
100
AcDbEntity
  8
LC-002-002-----0
 62
     1
370
    25
100
AcDbLine
 10
1145.355603
 20
156.342112
 30
0.0
 11
1125.538568
 21
176.159147
 31
0.0
  0
LINE
  5
BD
330
30
100
AcDbEntity
  8
LC-002-002-----0
 62
     1
370
    25
100
AcDbLine
 10
1125.538568
 20
176.159147
 30
0.0
 11
1145.355603
 21
195.976182
 31
0.0
  0
LINE
  5
BE
330
30
100
AcDbEntity
  8
LC-001-111-----0
 62
   253
370
    25
100
AcDbLine
 10
1065.335603
 20
158.649147
 30
0.0
 11
1068.855603
 21
158.649147
 31
0.0
  0
LINE
  5
BF
330
30
100
AcDbEntity
  8
LC-001-111-----0
 62
   253
370
    25
100
AcDbLine
 10
1068.855603
 20
158.649147
 30
0.0
 11
1068.855603
 21
193.669147
 31
0.0
  0
LINE
  5
C0
330
30
100
AcDbEntity
  8
LC-001-111-----0
 62
   253
370
    25
100
AcDbLine
 10
1068.855603
 20
193.669147
 30
0.0
 11
1065.335603
 21
193.669147
 31
0.0
  0
LINE
  5
C1
330
30
100
AcDbEntity
  8
LC-001-111-----0
 62
   253
370
    25
100
AcDbLine
 10
1067.095603
 20
192.169147
 30
0.0
 11
1067.095603
 21
160.149147
 31
0.0
  0
ARC
  5
C2
330
30
100
AcDbEntity
  8
LC-001-111-----0
 62
   253
370
    25
100
AcDbCircle
 10
823.845603
 20
176.159147
 30
0.0
 40
15.38999999999992
100
AcDbArc
 50
76.816519
 51
283.183481
  0
LINE
  5
C3
330
30
100
AcDbEntity
  8
LC-001-111-----0
 62
   253
370
    25
100
AcDbLine
 10
870.855603
 20
195.169147
 30
0.0
 11
864.335603
 21
195.169147
 31
0.0
  0
LINE
  5
C4
330
30
100
AcDbEntity
  8
LC-001-111-----0
 62
   253
370
    25
100
AcDbLine
 10
1096.09687
 20
195.169147
 30
0.0
 11
1088.520928
 21
195.169147
 31
0.0
  0
LINE
  5
C5
330
30
100
AcDbEntity
  8
LC-001-111-----0
 62
   253
370
    25
100
AcDbLine
 10
865.835603
 20
158.649147
 30
0.0
 11
869.355603
 21
158.649147
 31
0.0
  0
LINE
  5
C6
330
30
100
AcDbEntity
  8
LC-001-111-----0
 62
   253
370
    25
100
AcDbLine
 10
1023.355603
 20
191.143539
 30
0.0
 11
1023.355603
 21
193.313738
 31
0.0
  0
LINE
  5
C7
330
30
100
AcDbEntity
  8
LC-001-111-----0
 62
   253
370
    25
100
AcDbLine
 10
892.095603
 20
192.169147
 30
0.0
 11
892.095603
 21
160.149147
 31
0.0
  0
TEXT
  5
C8
330
30
100
AcDbEntity
  8
LC-001-111-----0
 62
     1
370
    15
100
AcDbText
 10
1036.563125
 20
21.25
 30
0.0
 40
15.0
  1
InspirationInspire-N175top
 41
0.75
  7
LCTX0-400-0-0pDIN-Schrift
 72
     1
 11
1166.0
 21
21.25
 31
0.0
100
AcDbText
  0
CIRCLE
  5
C9
330
30
100
AcDbEntity
  8
LC-001-111-----0
 62
   253
370
    25
100
AcDbCircle
 10
946.345603
 20
176.159147
 30
0.0
 40
17.51000000000047
  0
LINE
  5
CA
330
30
100
AcDbEntity
  8
LC-001-111-----0
 62
   253
370
    25
100
AcDbLine
 10
1088.520928
 20
195.169147
 30
0.0
 11
1072.679261
 21
176.159147
 31
0.0
  0
ARC
  5
CB
330
30
100
AcDbEntity
  8
LC-001-111-----0
 62
   253
370
    25
100
AcDbCircle
 10
1019.845603
 20
176.159147
 30
0.0
 40
17.50999999999996
100
AcDbArc
 50
78.436322
 51
281.563678
  0
ARC
  5
CC
330
30
100
AcDbEntity
  8
LC-001-111-----0
 62
   253
370
    25
100
AcDbCircle
 10
761.412387
 20
186.963179
 30
0.0
 40
26.54367341134783
100
AcDbArc
 50
244.741378
 51
268.246912
  0
LINE
  5
CD
330
30
100
AcDbEntity
  8
LC-001-111-----0
 62
   253
370
    25
100
AcDbLine
 10
1023.355603
 20
159.004556
 30
0.0
 11
1023.355603
 21
161.174755
 31
0.0
  0
LINE
  5
CE
330
30
100
AcDbEntity
  8
LC-002-002-----0
 62
     1
370
    25
100
AcDbLine
 10
1140.855603
 20
167.206073
 30
0.0
 11
1140.855603
 21
185.112221
 31
0.0
  0
LINE
  5
CF
330
30
100
AcDbEntity
  8
LC-002-002-----0
 62
     1
370
    25
100
AcDbLine
 10
1140.855603
 20
185.112221
 30
0.0
 11
1131.902529
 21
176.159147
 31
0.0
  0
LINE
  5
D0
330
30
100
AcDbEntity
  8
LC-002-002-----0
 62
     1
370
    25
100
AcDbLine
 10
1131.902529
 20
176.159147
 30
0.0
 11
1140.855603
 21
167.206073
 31
0.0
  0
CIRCLE
  5
D1
330
30
100
AcDbEntity
  8
LC-001-111-----0
 62
   253
370
    25
100
AcDbCircle
 10
946.345603
 20
176.159147
 30
0.0
 40
13.89000000000002
  0
LINE
  5
D2
330
30
100
AcDbEntity
  8
LC-001-111-----0
 62
   253
370
    25
100
AcDbLine
 10
890.335603
 20
158.649147
 30
0.0
 11
893.855603
 21
158.649147
 31
0.0
  0
LINE
  5
D3
330
30
100
AcDbEntity
  8
LC-001-111-----0
 62
   253
370
    25
100
AcDbLine
 10
893.855603
 20
158.649147
 30
0.0
 11
893.855603
 21
193.669147
 31
0.0
  0
ARC
  5
D4
330
30
100
AcDbEntity
  8
LC-001-111-----0
 62
   253
370
    25
100
AcDbCircle
 10
758.906662
 20
168.924866
 30
0.0
 40
20.55472179307891
100
AcDbArc
 50
57.190491
 51
90.951212
  0
ARC
  5
D5
330
30
100
AcDbEntity
  8
LC-001-111-----0
 62
   253
370
    25
100
AcDbCircle
 10
761.779647
 20
167.692822
 30
0.0
 40
12.23104525444841
100
AcDbArc
 50
274.343327
 51
74.255463
  0
LINE
  5
D6
330
30
100
AcDbEntity
  8
LC-001-111-----0
 62
   253
370
    25
100
AcDbLine
 10
893.855603
 20
193.669147
 30
0.0
 11
890.335603
 21
193.669147
 31
0.0
  0
LINE
  5
D7
330
30
100
AcDbEntity
  8
LC-001-111-----0
 62
   253
370
    25
100
AcDbLine
 10
890.335603
 20
193.669147
 30
0.0
 11
890.335603
 21
158.649147
 31
0.0
  0
LINE
  5
D8
330
30
100
AcDbEntity
  8
LC-001-111-----0
 62
   253
370
    25
100
AcDbLine
 10
890.335603
 20
176.159147
 30
0.0
 11
869.355603
 21
176.159147
 31
0.0
  0
LINE
  5
D9
330
30
100
AcDbEntity
  8
LC-001-111-----0
 62
   253
370
    25
100
AcDbLine
 10
869.355603
 20
158.649147
 30
0.0
 11
869.355603
 21
193.669147
 31
0.0
  0
LINE
  5
DA
330
30
100
AcDbEntity
  8
LC-001-111-----0
 62
   253
370
    25
100
AcDbLine
 10
869.355603
 20
193.669147
 30
0.0
 11
865.835603
 21
193.669147
 31
0.0
  0
LINE
  5
DB
330
30
100
AcDbEntity
  8
LC-001-111-----0
 62
   253
370
    25
100
AcDbLine
 10
865.835603
 20
193.669147
 30
0.0
 11
865.835603
 21
158.649147
 31
0.0
  0
LINE
  5
DC
330
30
100
AcDbEntity
  8
LC-001-111-----0
 62
   253
370
    25
100
AcDbLine
 10
867.595603
 20
192.169147
 30
0.0
 11
867.595603
 21
160.149147
 31
0.0
  0
CIRCLE
  5
DD
330
30
100
AcDbEntity
  8
LC-001-111-----0
 62
   253
370
    25
100
AcDbCircle
 10
946.345603
 20
176.159147
 30
0.0
 40
15.38999999999984
  0
LINE
  5
DE
330
30
100
AcDbEntity
  8
LC-001-111-----0
 62
   253
370
    25
100
AcDbLine
 10
1072.679261
 20
176.159147
 30
0.0
 11
1088.520928
 21
157.149147
 31
0.0
  0
LINE
  5
DF
330
30
100
AcDbEntity
  8
LC-001-111-----0
 62
   253
370
    25
100
AcDbLine
 10
1088.520928
 20
157.149147
 30
0.0
 11
1096.09687
 21
157.149147
 31
0.0
  0
LINE
  5
E0
330
30
100
AcDbEntity
  8
LC-001-111-----0
 62
   253
370
    25
100
AcDbLine
 10
1096.09687
 20
157.149147
 30
0.0
 11
1080.255204
 21
176.159147
 31
0.0
  0
LINE
  5
E1
330
30
100
AcDbEntity
  8
LC-001-111-----0
 62
   253
370
    25
100
AcDbLine
 10
770.044191
 20
186.20063
 30
0.0
 11
770.044191
 21
193.903002
 31
0.0
  0
ARC
  5
E2
330
30
100
AcDbEntity
  8
LC-001-111-----0
 62
   253
370
    25
100
AcDbCircle
 10
761.412387
 20
186.963179
 30
0.0
 40
23.54367341134796
100
AcDbArc
 50
232.518913
 51
268.246912
  0
ARC
  5
E3
330
30
100
AcDbEntity
  8
LC-001-111-----0
 62
   253
370
    25
100
AcDbCircle
 10
760.836588
 20
168.15034
 30
0.0
 40
4.722024781007908
100
AcDbArc
 50
268.246912
 51
72.731329
  0
LINE
  5
E4
330
30
100
AcDbEntity
  8
LC-001-111-----0
 62
   253
370
    25
100
AcDbLine
 10
757.542274
 20
181.595277
 30
0.0
 11
765.098525
 21
179.464972
 31
0.0
  0
ARC
  5
E5
330
30
100
AcDbEntity
  8
LC-001-111-----0
 62
   253
370
    25
100
AcDbCircle
 10
758.632108
 20
185.460948
 30
0.0
 40
4.016360130100384
100
AcDbArc
 50
90.951212
 51
254.255463
  0
ARC
  5
E6
330
30
100
AcDbEntity
  8
LC-001-111-----0
 62
   253
370
    25
100
AcDbCircle
 10
758.032826
 20
185.671748
 30
0.0
 40
11.17727081470983
100
AcDbArc
 50
94.48185
 51
252.731329
  0
LINE
  5
E7
330
30
100
AcDbEntity
  8
LC-001-111-----0
 62
   253
370
    25
100
AcDbLine
 10
762.238334
 20
172.659511
 30
0.0
 11
754.714822
 21
174.998312
 31
0.0
  0
LINE
  5
E8
330
30
100
AcDbEntity
  8
LC-001-111-----0
 62
   253
370
    25
100
AcDbLine
 10
747.086073
 20
168.279997
 30
0.0
 11
747.086073
 21
159.524163
 31
0.0
  0
ARC
  5
E9
330
30
100
AcDbEntity
  8
LC-001-111-----0
 62
   253
370
    25
100
AcDbCircle
 10
758.903191
 20
174.567744
 30
0.0
 40
22.31533311668187
100
AcDbArc
 50
60.049399
 51
94.48185
  0
ARC
  5
EA
330
30
100
AcDbEntity
  8
LC-001-111-----0
 62
   253
370
    25
100
AcDbCircle
 10
760.81067
 20
180.45076
 30
0.0
 40
25.02572762426604
100
AcDbArc
 50
236.741348
 51
274.343327
  0
LINE
  5
EB
330
30
100
AcDbEntity
  8
LC-001-111-----0
 62
   253
370
    25
100
AcDbLine
 10
1080.255204
 20
176.159147
 30
0.0
 11
1096.09687
 21
195.169147
 31
0.0
  0
LINE
  5
EC
330
30
100
AcDbEntity
  8
LC-001-111-----0
 62
   253
370
    25
100
AcDbLine
 10
750.086073
 20
162.957321
 30
0.0
 11
750.086073
 21
161.212369
 31
0.0
  0
LINE
  5
ED
330
30
100
AcDbEntity
  8
LC-001-111-----0
 62
   253
370
    25
100
AcDbLine
 10
1078.302641
 20
176.159147
 30
0.0
 11
1092.894308
 21
193.669147
 31
0.0
  0
LINE
  5
EE
330
30
100
AcDbEntity
  8
LC-002-002-----0
 62
     1
370
    25
100
AcDbLine
 10
1139.355603
 20
170.827393
 30
0.0
 11
1139.355603
 21
181.490901
 31
0.0
  0
LINE
  5
EF
330
30
100
AcDbEntity
  8
LC-002-002-----0
 62
     1
370
    25
100
AcDbLine
 10
1139.355603
 20
181.490901
 30
0.0
 11
1134.023849
 21
176.159147
 31
0.0
  0
LINE
  5
F0
330
30
100
AcDbEntity
  8
LC-002-002-----0
 62
     1
370
    25
100
AcDbLine
 10
1134.023849
 20
176.159147
 30
0.0
 11
1139.355603
 21
170.827393
 31
0.0
  0
LINE
  5
F1
330
30
100
AcDbEntity
  8
LC-002-002-----0
 62
     1
370
    25
100
AcDbLine
 10
1137.855603
 20
174.448713
 30
0.0
 11
1137.855603
 21
177.869581
 31
0.0
  0
LINE
  5
F2
330
30
100
AcDbEntity
  8
LC-002-002-----0
 62
     1
370
    25
100
AcDbLine
 10
1137.855603
 20
177.869581
 30
0.0
 11
1136.145169
 21
176.159147
 31
0.0
  0
LINE
  5
F3
330
30
100
AcDbEntity
  8
LC-002-002-----0
 62
     1
370
    25
100
AcDbLine
 10
1136.145169
 20
176.159147
 30
0.0
 11
1137.855603
 21
174.448713
 31
0.0
  0
LINE
  5
F4
330
30
100
AcDbEntity
  8
LC-001-111-----0
 62
   253
370
    25
100
AcDbLine
 10
1092.894308
 20
193.669147
 30
0.0
 11
1089.22349
 21
193.669147
 31
0.0
  0
LINE
  5
F5
330
30
100
AcDbEntity
  8
LC-001-111-----0
 62
   253
370
    25
100
AcDbLine
 10
1089.22349
 20
193.669147
 30
0.0
 11
1074.631824
 21
176.159147
 31
0.0
  0
ARC
  5
F6
330
30
100
AcDbEntity
  8
LC-001-111-----0
 62
   253
370
    25
100
AcDbCircle
 10
1019.845603
 20
176.159147
 30
0.0
 40
15.38999999999992
100
AcDbArc
 50
76.816519
 51
283.183481
  0
LINE
  5
F7
330
30
100
AcDbEntity
  8
LC-001-111-----0
 62
   253
370
    25
100
AcDbLine
 10
1074.631824
 20
176.159147
 30
0.0
 11
1089.22349
 21
158.649147
 31
0.0
  0
LINE
  5
F8
330
30
100
AcDbEntity
  8
LC-001-111-----0
 62
   253
370
    25
100
AcDbLine
 10
1089.22349
 20
158.649147
 30
0.0
 11
1092.894308
 21
158.649147
 31
0.0
  0
LINE
  5
F9
330
30
100
AcDbEntity
  8
LC-001-111-----0
 62
   253
370
    25
100
AcDbLine
 10
1092.894308
 20
158.649147
 30
0.0
 11
1078.302641
 21
176.159147
 31
0.0
  0
LINE
  5
FA
330
30
100
AcDbEntity
  8
LC-001-111-----0
 62
   253
370
    25
100
AcDbLine
 10
1076.467232
 20
176.159147
 30
0.0
 11
1090.098623
 21
192.516815
 31
0.0
  0
LINE
  5
FB
330
30
100
AcDbEntity
  8
LC-001-111-----0
 62
   253
370
    25
100
AcDbLine
 10
1076.467232
 20
176.159147
 30
0.0
 11
1090.098623
 21
159.801479
 31
0.0
  0
ARC
  5
FC
330
30
100
AcDbEntity
  8
LC-001-111-----0
 62
   253
370
    25
100
AcDbCircle
 10
760.81067
 20
180.45076
 30
0.0
 40
22.02572762426587
100
AcDbArc
 50
240.862164
 51
274.343327
  0
ARC
  5
FD
330
30
100
AcDbEntity
  8
LC-001-111-----0
 62
   253
370
    25
100
AcDbCircle
 10
761.779647
 20
167.692822
 30
0.0
 40
9.231045254448425
100
AcDbArc
 50
274.343327
 51
74.255463
  0
LINE
  5
FE
330
30
100
AcDbEntity
  8
LC-001-111-----0
 62
   253
370
    25
100
AcDbLine
 10
764.284479
 20
176.577529
 30
0.0
 11
756.728228
 21
178.707834
 31
0.0
  0
ARC
  5
FF
330
30
100
AcDbEntity
  8
LC-001-111-----0
 62
   253
370
    25
100
AcDbCircle
 10
758.632108
 20
185.460948
 30
0.0
 40
7.016360130100396
100
AcDbArc
 50
90.951212
 51
254.255463
  0
ARC
  5
100
330
30
100
AcDbEntity
  8
LC-001-111-----0
 62
   253
370
    25
100
AcDbCircle
 10
758.906662
 20
168.924866
 30
0.0
 40
23.55472179307856
100
AcDbArc
 50
69.789306
 51
90.951212
  0
LINE
  5
101
330
30
100
AcDbEntity
  8
LC-001-111-----0
 62
   253
370
    25
100
AcDbLine
 10
767.044191
 20
191.029289
 30
0.0
 11
767.044191
 21
192.083629
 31
0.0
  0
ENDBLK
  5
32
330
30
100
AcDbEntity
  8
0
100
AcDbBlockEnd
  0
BLOCK
  5
11C
330
111
100
AcDbEntity
  8
0
100
AcDbBlockBegin
  2
*D2
 70
     1
 71
     0
 10
0.0
 20
0.0
 30
0.0
  3
*D2
  1

  0
LINE
  5
112
330
111
100
AcDbEntity
  8
LC-005-003-----0
 62
     2
370
    -2
100
AcDbLine
 10
941.05967
 20
881.546084
 30
0.0
 11
941.05967
 21
732.0
 31
0.0
  0
LINE
  5
113
330
111
100
AcDbEntity
  8
LC-005-003-----0
 62
     2
370
    -2
100
AcDbLine
 10
1324.75967
 20
881.546084
 30
0.0
 11
1324.75967
 21
732.0
 31
0.0
  0
LINE
  5
114
330
111
100
AcDbEntity
  8
LC-005-003-----0
 62
     2
370
    -2
100
AcDbLine
 10
966.05967
 20
750.0
 30
0.0
 11
1081.457171
 21
750.0
 31
0.0
  0
LINE
  5
115
330
111
100
AcDbEntity
  8
LC-005-003-----0
 62
     2
370
    -2
100
AcDbLine
 10
1299.75967
 20
750.0
 30
0.0
 11
1184.362169
 21
750.0
 31
0.0
  0
SOLID
  5
116
330
111
100
AcDbEntity
  8
LC-005-003-----0
 62
     2
100
AcDbTrace
 10
966.05967
 20
754.166667
 30
0.0
 11
966.05967
 21
745.833333
 31
0.0
 12
941.05967
 22
750.0
 32
0.0
 13
941.05967
 23
750.0
 33
0.0
  0
SOLID
  5
117
330
111
100
AcDbEntity
  8
LC-005-003-----0
 62
     2
100
AcDbTrace
 10
1299.75967
 20
745.833333
 30
0.0
 11
1299.75967
 21
754.166667
 31
0.0
 12
1324.75967
 22
750.0
 32
0.0
 13
1324.75967
 23
750.0
 33
0.0
  0
MTEXT
  5
118
330
111
100
AcDbEntity
  8
LC-005-003-----0
 62
     2
100
AcDbMText
 10
1132.90967
 20
780.0
 30
0.0
 40
25.0
 41
0.0
 71
     5
 72
     1
  1
\A1;767,4
  7
LCTX0-400-0-0pDIN-Schrift
 73
     1
 44
1.0
  0
POINT
  5
119
330
111
100
AcDbEntity
  8
Defpoints
 62
     0
100
AcDbPoint
 10
941.05967
 20
881.546084
 30
0.0
  0
POINT
  5
11A
330
111
100
AcDbEntity
  8
Defpoints
 62
     0
100
AcDbPoint
 10
1324.75967
 20
881.546084
 30
0.0
  0
POINT
  5
11B
330
111
100
AcDbEntity
  8
Defpoints
 62
     0
100
AcDbPoint
 10
1324.75967
 20
750.0
 30
0.0
  0
ENDBLK
  5
11D
330
111
100
AcDbEntity
  8
0
100
AcDbBlockEnd
  0
BLOCK
  5
129
330
11F
100
AcDbEntity
  8
0
100
AcDbBlockBegin
  2
*D3
 70
     1
 71
     0
 10
0.0
 20
0.0
 30
0.0
  3
*D3
  1

  0
LINE
  5
120
330
11F
100
AcDbEntity
  8
LC-005-003-----0
 62
     2
370
    -2
100
AcDbLine
 10
946.05967
 20
1126.896084
 30
0.0
 11
782.0
 21
1126.896084
 31
0.0
  0
LINE
  5
121
330
11F
100
AcDbEntity
  8
LC-005-003-----0
 62
     2
370
    -2
100
AcDbLine
 10
946.05967
 20
876.546084
 30
0.0
 11
782.0
 21
876.546084
 31
0.0
  0
LINE
  5
122
330
11F
100
AcDbEntity
  8
LC-005-003-----0
 62
     2
370
    -2
100
AcDbLine
 10
800.0
 20
1101.896084
 30
0.0
 11
800.0
 21
901.546084
 31
0.0
  0
SOLID
  5
123
330
11F
100
AcDbEntity
  8
LC-005-003-----0
 62
     2
100
AcDbTrace
 10
804.166667
 20
1101.896084
 30
0.0
 11
795.833333
 21
1101.896084
 31
0.0
 12
800.0
 22
1126.896084
 32
0.0
 13
800.0
 23
1126.896084
 33
0.0
  0
SOLID
  5
124
330
11F
100
AcDbEntity
  8
LC-005-003-----0
 62
     2
100
AcDbTrace
 10
795.833333
 20
901.546084
 30
0.0
 11
804.166667
 21
901.546084
 31
0.0
 12
800.0
 22
876.546084
 32
0.0
 13
800.0
 23
876.546084
 33
0.0
  0
MTEXT
  5
125
330
11F
100
AcDbEntity
  8
LC-005-003-----0
 62
     2
100
AcDbMText
 10
770.0
 20
1001.721084
 30
0.0
 40
25.0
 41
0.0
 71
     5
 72
     1
  1
\A1;500,7
  7
LCTX0-400-0-0pDIN-Schrift
 11
6.123031769111886E-17
 21
1.0
 31
0.0
 73
     1
 44
1.0
  0
POINT
  5
126
330
11F
100
AcDbEntity
  8
Defpoints
 62
     0
100
AcDbPoint
 10
946.05967
 20
1126.896084
 30
0.0
  0
POINT
  5
127
330
11F
100
AcDbEntity
  8
Defpoints
 62
     0
100
AcDbPoint
 10
946.05967
 20
876.546084
 30
0.0
  0
POINT
  5
128
330
11F
100
AcDbEntity
  8
Defpoints
 62
     0
100
AcDbPoint
 10
800.0
 20
876.546084
 30
0.0
  0
ENDBLK
  5
12A
330
11F
100
AcDbEntity
  8
0
100
AcDbBlockEnd
  0
BLOCK
  5
133
330
12D
100
AcDbEntity
  8
0
100
AcDbBlockBegin
  2
*D4
 70
     1
 71
     0
 10
0.0
 20
0.0
 30
0.0
  3
*D4
  1

  0
LINE
  5
12E
330
12D
100
AcDbEntity
  8
LC-005-003-----0
 62
     2
370
    -2
100
AcDbLine
 10
988.043115
 20
918.85003
 30
0.0
 11
968.485841
 21
901.472621
 31
0.0
  0
MTEXT
  5
12F
330
12D
100
AcDbEntity
  8
LC-005-003-----0
 62
     2
100
AcDbMText
 10
1061.773697
 20
913.360133
 30
0.0
 40
25.0
 41
0.0
 71
     5
 72
     1
  1
R\A1;R10"\P(R10)
  7
LCTX0-400-0-0pDIN-Schrift
 11
0.7475390121630964
 21
0.6642179049786464
 31
0.0
 73
     1
 44
1.0
  0
SOLID
  5
130
330
12D
100
AcDbEntity
  8
LC-005-003-----0
 62
     2
100
AcDbTrace
 10
965.718266
 20
904.587367
 30
0.0
 11
971.253415
 21
898.357875
 31
0.0
 12
949.797365
 22
884.867173
 32
0.0
 13
949.797365
 23
884.867173
 33
0.0
  0
POINT
  5
131
330
12D
100
AcDbEntity
  8
Defpoints
 62
     0
100
AcDbPoint
 10
949.797365
 20
884.867173
 30
0.0
  0
POINT
  5
132
330
12D
100
AcDbEntity
  8
Defpoints
 62
     0
100
AcDbPoint
 10
946.05967
 20
881.546084
 30
0.0
  0
ENDBLK
  5
134
330
12D
100
AcDbEntity
  8
0
100
AcDbBlockEnd
  0
BLOCK
  5
1D5
330
1D4
100
AcDbEntity
  8
0
100
AcDbBlockBegin
  2
*X15
 70
     1
 71
     0
 10
0.0
 20
0.0
 30
0.0
  3
*X15
  1

  4
*X1
  0
LINE
  5
1D8
330
1D4
100
AcDbEntity
  8
LC-008-005-----0
 62
     7
370
    25
100
AcDbLine
 10
1071.147533
 20
2386.366146
 30
0.0
 11
1087.094245
 21
2402.312858
 31
0.0
  0
LINE
  5
1D9
330
1D4
100
AcDbEntity
  8
LC-008-005-----0
 62
     7
370
    25
100
AcDbLine
 10
1053.650412
 20
2383.011161
 30
0.0
 11
1063.861248
 21
2393.221996
 31
0.0
  0
LINE
  5
1DA
330
1D4
100
AcDbEntity
  8
LC-008-005-----0
 62
     7
370
    25
100
AcDbLine
 10
1080.883396
 20
2410.244144
 30
0.0
 11
1090.317847
 21
2419.678595
 31
0.0
  0
LINE
  5
1DB
330
1D4
100
AcDbEntity
  8
LC-008-005-----0
 62
     7
370
    25
100
AcDbLine
 10
1038.726128
 20
2382.229012
 30
0.0
 11
1048.236919
 21
2391.739803
 31
0.0
  0
LINE
  5
1DC
330
1D4
100
AcDbEntity
  8
LC-008-005-----0
 62
     7
370
    25
100
AcDbLine
 10
1082.98999
 20
2426.492874
 30
0.0
 11
1091.97882
 21
2435.481705
 31
0.0
  0
LINE
  5
1DD
330
1D4
100
AcDbEntity
  8
LC-008-005-----0
 62
     7
370
    25
100
AcDbLine
 10
1018.34875
 20
2375.993769
 30
0.0
 11
1020.551024
 21
2378.196044
 31
0.0
  0
LINE
  5
1DE
330
1D4
100
AcDbEntity
  8
LC-008-005-----0
 62
     7
370
    25
100
AcDbLine
 10
1023.568882
 20
2381.213902
 30
0.0
 11
1033.312634
 21
2390.957654
 31
0.0
  0
LINE
  5
1DF
330
1D4
100
AcDbEntity
  8
LC-008-005-----0
 62
     7
370
    25
100
AcDbLine
 10
1084.650964
 20
2442.295984
 30
0.0
 11
1093.639794
 21
2451.284814
 31
0.0
  0
LINE
  5
1E0
330
1D4
100
AcDbEntity
  8
LC-008-005-----0
 62
     7
370
    25
100
AcDbLine
 10
1004.102208
 20
2375.889364
 30
0.0
 11
1018.38835
 21
2390.175506
 31
0.0
  0
LINE
  5
1E1
330
1D4
100
AcDbEntity
  8
LC-008-005-----0
 62
     7
370
    25
100
AcDbLine
 10
1086.311938
 20
2458.099093
 30
0.0
 11
1095.300768
 21
2467.087923
 31
0.0
  0
LINE
  5
1E2
330
1D4
100
AcDbEntity
  8
LC-008-005-----0
 62
     7
370
    25
100
AcDbLine
 10
1087.972911
 20
2473.902202
 30
0.0
 11
1096.961742
 21
2482.891033
 31
0.0
  0
LINE
  5
1E3
330
1D4
100
AcDbEntity
  8
LC-008-005-----0
 62
     7
370
    25
100
AcDbLine
 10
1089.633885
 20
2489.705312
 30
0.0
 11
1098.622715
 21
2498.694142
 31
0.0
  0
LINE
  5
1E4
330
1D4
100
AcDbEntity
  8
LC-008-005-----0
 62
     7
370
    25
100
AcDbLine
 10
1091.294859
 20
2505.508421
 30
0.0
 11
1100.283689
 21
2514.497251
 31
0.0
  0
LINE
  5
1E5
330
1D4
100
AcDbEntity
  8
LC-008-005-----0
 62
     7
370
    25
100
AcDbLine
 10
1092.955832
 20
2521.31153
 30
0.0
 11
1101.944663
 21
2530.300361
 31
0.0
  0
LINE
  5
1E6
330
1D4
100
AcDbEntity
  8
LC-008-005-----0
 62
     7
370
    25
100
AcDbLine
 10
1094.616806
 20
2537.11464
 30
0.0
 11
1103.605636
 21
2546.10347
 31
0.0
  0
LINE
  5
1E7
330
1D4
100
AcDbEntity
  8
LC-008-005-----0
 62
     7
370
    25
100
AcDbLine
 10
1096.27778
 20
2552.917749
 30
0.0
 11
1105.26661
 21
2561.906579
 31
0.0
  0
LINE
  5
1E8
330
1D4
100
AcDbEntity
  8
LC-008-005-----0
 62
     7
370
    25
100
AcDbLine
 10
1097.938754
 20
2568.720858
 30
0.0
 11
1106.927584
 21
2577.709689
 31
0.0
  0
LINE
  5
1E9
330
1D4
100
AcDbEntity
  8
LC-008-005-----0
 62
     7
370
    25
100
AcDbLine
 10
1099.599727
 20
2584.523968
 30
0.0
 11
1108.588558
 21
2593.512798
 31
0.0
  0
LINE
  5
1EA
330
1D4
100
AcDbEntity
  8
LC-008-005-----0
 62
     7
370
    25
100
AcDbLine
 10
1124.619992
 20
2609.544233
 30
0.0
 11
1124.975401
 21
2609.899642
 31
0.0
  0
LINE
  5
1EB
330
1D4
100
AcDbEntity
  8
LC-008-005-----0
 62
     7
370
    25
100
AcDbLine
 10
1126.619992
 20
2611.544233
 30
0.0
 11
1133.619992
 21
2618.544233
 31
0.0
  0
LINE
  5
1EC
330
1D4
100
AcDbEntity
  8
LC-008-005-----0
 62
     7
370
    25
100
AcDbLine
 10
1101.260701
 20
2600.327077
 30
0.0
 11
1119.477857
 21
2618.544233
 31
0.0
  0
LINE
  5
1ED
330
1D4
100
AcDbEntity
  8
LC-008-005-----0
 62
     7
370
    25
100
AcDbLine
 10
1103.283017
 20
2616.491529
 30
0.0
 11
1104.829721
 21
2618.038233
 31
0.0
  0
ENDBLK
  5
1D6
330
1D4
100
AcDbEntity
  8
0
100
AcDbBlockEnd
  0
BLOCK
  5
1F0
330
1EF
100
AcDbEntity
  8
0
100
AcDbBlockBegin
  2
*X26
 70
     1
 71
     0
 10
0.0
 20
0.0
 30
0.0
  3
*X26
  1

  4
*X2
  0
LINE
  5
1F2
330
1EF
100
AcDbEntity
  8
LC-008-005-----0
 62
     7
370
    25
100
AcDbLine
 10
523.269597
 20
2375.889364
 30
0.0
 11
533.73945
 21
2386.359217
 31
0.0
  0
LINE
  5
1F3
330
1EF
100
AcDbEntity
  8
LC-008-005-----0
 62
     7
370
    25
100
AcDbLine
 10
514.579967
 20
2381.341869
 30
0.0
 11
523.251703
 21
2390.013605
 31
0.0
  0
LINE
  5
1F4
330
1EF
100
AcDbEntity
  8
LC-008-005-----0
 62
     7
370
    25
100
AcDbLine
 10
501.250262
 20
2382.1543
 30
0.0
 11
509.813817
 21
2390.717855
 31
0.0
  0
LINE
  5
1F5
330
1EF
100
AcDbEntity
  8
LC-008-005-----0
 62
     7
370
    25
100
AcDbLine
 10
487.812377
 20
2382.85855
 30
0.0
 11
496.375931
 21
2391.422104
 31
0.0
  0
LINE
  5
1F6
330
1EF
100
AcDbEntity
  8
LC-008-005-----0
 62
     7
370
    25
100
AcDbLine
 10
474.374491
 20
2383.5628
 30
0.0
 11
482.938045
 21
2392.126354
 31
0.0
  0
LINE
  5
1F7
330
1EF
100
AcDbEntity
  8
LC-008-005-----0
 62
     7
370
    25
100
AcDbLine
 10
460.936605
 20
2384.26705
 30
0.0
 11
469.500159
 21
2392.830604
 31
0.0
  0
LINE
  5
1F8
330
1EF
100
AcDbEntity
  8
LC-008-005-----0
 62
     7
370
    25
100
AcDbLine
 10
447.498719
 20
2384.971299
 30
0.0
 11
456.062273
 21
2393.534854
 31
0.0
  0
LINE
  5
1F9
330
1EF
100
AcDbEntity
  8
LC-008-005-----0
 62
     7
370
    25
100
AcDbLine
 10
434.060833
 20
2385.675549
 30
0.0
 11
442.624387
 21
2394.239103
 31
0.0
  0
LINE
  5
1FA
330
1EF
100
AcDbEntity
  8
LC-008-005-----0
 62
     7
370
    25
100
AcDbLine
 10
421.208174
 20
2386.965025
 30
0.0
 11
429.186501
 21
2394.943353
 31
0.0
  0
LINE
  5
1FB
330
1EF
100
AcDbEntity
  8
LC-008-005-----0
 62
     7
370
    25
100
AcDbLine
 10
411.285708
 20
2391.184695
 30
0.0
 11
417.875129
 21
2397.774116
 31
0.0
  0
LINE
  5
1FC
330
1EF
100
AcDbEntity
  8
LC-008-005-----0
 62
     7
370
    25
100
AcDbLine
 10
403.696798
 20
2397.737921
 30
0.0
 11
410.062376
 21
2404.103498
 31
0.0
  0
LINE
  5
1FD
330
1EF
100
AcDbEntity
  8
LC-008-005-----0
 62
     7
370
    25
100
AcDbLine
 10
398.511211
 20
2406.69447
 30
0.0
 11
405.252644
 21
2413.435903
 31
0.0
  0
LINE
  5
1FE
330
1EF
100
AcDbEntity
  8
LC-008-005-----0
 62
     7
370
    25
100
AcDbLine
 10
396.3395
 20
2418.664894
 30
0.0
 11
403.618511
 21
2425.943906
 31
0.0
  0
LINE
  5
1FF
330
1EF
100
AcDbEntity
  8
LC-008-005-----0
 62
     7
370
    25
100
AcDbLine
 10
394.99447
 20
2431.462
 30
0.0
 11
402.273481
 21
2438.741011
 31
0.0
  0
LINE
  5
200
330
1EF
100
AcDbEntity
  8
LC-008-005-----0
 62
     7
370
    25
100
AcDbLine
 10
393.64944
 20
2444.259105
 30
0.0
 11
400.928451
 21
2451.538117
 31
0.0
  0
LINE
  5
201
330
1EF
100
AcDbEntity
  8
LC-008-005-----0
 62
     7
370
    25
100
AcDbLine
 10
392.30441
 20
2457.056211
 30
0.0
 11
399.583421
 21
2464.335222
 31
0.0
  0
LINE
  5
202
330
1EF
100
AcDbEntity
  8
LC-008-005-----0
 62
     7
370
    25
100
AcDbLine
 10
390.95938
 20
2469.853317
 30
0.0
 11
398.238391
 21
2477.132328
 31
0.0
  0
LINE
  5
203
330
1EF
100
AcDbEntity
  8
LC-008-005-----0
 62
     7
370
    25
100
AcDbLine
 10
389.61435
 20
2482.650422
 30
0.0
 11
396.893361
 21
2489.929434
 31
0.0
  0
LINE
  5
204
330
1EF
100
AcDbEntity
  8
LC-008-005-----0
 62
     7
370
    25
100
AcDbLine
 10
388.26932
 20
2495.447528
 30
0.0
 11
395.548331
 21
2502.726539
 31
0.0
  0
LINE
  5
205
330
1EF
100
AcDbEntity
  8
LC-008-005-----0
 62
     7
370
    25
100
AcDbLine
 10
386.92429
 20
2508.244634
 30
0.0
 11
394.203301
 21
2515.523645
 31
0.0
  0
LINE
  5
206
330
1EF
100
AcDbEntity
  8
LC-008-005-----0
 62
     7
370
    25
100
AcDbLine
 10
385.57926
 20
2521.041739
 30
0.0
 11
392.858271
 21
2528.320751
 31
0.0
  0
LINE
  5
207
330
1EF
100
AcDbEntity
  8
LC-008-005-----0
 62
     7
370
    25
100
AcDbLine
 10
384.23423
 20
2533.838845
 30
0.0
 11
391.513241
 21
2541.117856
 31
0.0
  0
LINE
  5
208
330
1EF
100
AcDbEntity
  8
LC-008-005-----0
 62
     7
370
    25
100
AcDbLine
 10
382.8892
 20
2546.63595
 30
0.0
 11
390.168211
 21
2553.914962
 31
0.0
  0
LINE
  5
209
330
1EF
100
AcDbEntity
  8
LC-008-005-----0
 62
     7
370
    25
100
AcDbLine
 10
381.54417
 20
2559.433056
 30
0.0
 11
388.823181
 21
2566.712067
 31
0.0
  0
LINE
  5
20A
330
1EF
100
AcDbEntity
  8
LC-008-005-----0
 62
     7
370
    25
100
AcDbLine
 10
380.19914
 20
2572.230162
 30
0.0
 11
387.478151
 21
2579.509173
 31
0.0
  0
LINE
  5
20B
330
1EF
100
AcDbEntity
  8
LC-008-005-----0
 62
     7
370
    25
100
AcDbLine
 10
378.85411
 20
2585.027267
 30
0.0
 11
386.133121
 21
2592.306279
 31
0.0
  0
LINE
  5
20C
330
1EF
100
AcDbEntity
  8
LC-008-005-----0
 62
     7
370
    25
100
AcDbLine
 10
377.50908
 20
2597.824373
 30
0.0
 11
384.788091
 21
2605.103384
 31
0.0
  0
LINE
  5
20D
330
1EF
100
AcDbEntity
  8
LC-008-005-----0
 62
     7
370
    25
100
AcDbLine
 10
374.36429
 20
2608.821719
 30
0.0
 11
382.754388
 21
2617.211817
 31
0.0
  0
LINE
  5
20E
330
1EF
100
AcDbEntity
  8
LC-008-005-----0
 62
     7
370
    25
100
AcDbLine
 10
361.575401
 20
2610.174965
 30
0.0
 11
369.944669
 21
2618.544233
 31
0.0
  0
LINE
  5
20F
330
1EF
100
AcDbEntity
  8
LC-008-005-----0
 62
     7
370
    25
100
AcDbLine
 10
349.633509
 20
2612.375209
 30
0.0
 11
355.802533
 21
2618.544233
 31
0.0
  0
ENDBLK
  5
1F1
330
1EF
100
AcDbEntity
  8
0
100
AcDbBlockEnd
  0
BLOCK
  5
212
330
211
100
AcDbEntity
  8
0
100
AcDbBlockBegin
  2
*X37
 70
     1
 71
     0
 10
0.0
 20
0.0
 30
0.0
  3
*X37
  1

  4
*X3
  0
LINE
  5
214
330
211
100
AcDbEntity
  8
LC-008-005-----0
 62
     7
370
    25
100
AcDbLine
 10
905.107259
 20
2375.889364
 30
0.0
 11
910.475401
 21
2381.257506
 31
0.0
  0
LINE
  5
215
330
211
100
AcDbEntity
  8
LC-008-005-----0
 62
     7
370
    25
100
AcDbLine
 10
892.677157
 20
2377.601398
 30
0.0
 11
902.439952
 21
2387.364192
 31
0.0
  0
LINE
  5
216
330
211
100
AcDbEntity
  8
LC-008-005-----0
 62
     7
370
    25
100
AcDbLine
 10
882.717544
 20
2381.78392
 30
0.0
 11
891.281098
 21
2390.347474
 31
0.0
  0
LINE
  5
217
330
211
100
AcDbEntity
  8
LC-008-005-----0
 62
     7
370
    25
100
AcDbLine
 10
869.279658
 20
2382.48817
 30
0.0
 11
877.843212
 21
2391.051724
 31
0.0
  0
LINE
  5
218
330
211
100
AcDbEntity
  8
LC-008-005-----0
 62
     7
370
    25
100
AcDbLine
 10
855.841772
 20
2383.192419
 30
0.0
 11
864.405326
 21
2391.755974
 31
0.0
  0
LINE
  5
219
330
211
100
AcDbEntity
  8
LC-008-005-----0
 62
     7
370
    25
100
AcDbLine
 10
843.012991
 20
2384.505774
 30
0.0
 11
850.96744
 21
2392.460223
 31
0.0
  0
LINE
  5
21A
330
211
100
AcDbEntity
  8
LC-008-005-----0
 62
     7
370
    25
100
AcDbLine
 10
833.120291
 20
2388.75521
 30
0.0
 11
839.702688
 21
2395.337606
 31
0.0
  0
LINE
  5
21B
330
211
100
AcDbEntity
  8
LC-008-005-----0
 62
     7
370
    25
100
AcDbLine
 10
825.556478
 20
2395.333533
 30
0.0
 11
831.922949
 21
2401.700003
 31
0.0
  0
LINE
  5
21C
330
211
100
AcDbEntity
  8
LC-008-005-----0
 62
     7
370
    25
100
AcDbLine
 10
820.400851
 20
2404.32004
 30
0.0
 11
827.151157
 21
2411.070347
 31
0.0
  0
LINE
  5
21D
330
211
100
AcDbEntity
  8
LC-008-005-----0
 62
     7
370
    25
100
AcDbLine
 10
818.256497
 20
2416.317822
 30
0.0
 11
825.535508
 21
2423.596833
 31
0.0
  0
LINE
  5
21E
330
211
100
AcDbEntity
  8
LC-008-005-----0
 62
     7
370
    25
100
AcDbLine
 10
816.911467
 20
2429.114928
 30
0.0
 11
824.190478
 21
2436.393939
 31
0.0
  0
LINE
  5
21F
330
211
100
AcDbEntity
  8
LC-008-005-----0
 62
     7
370
    25
100
AcDbLine
 10
815.566437
 20
2441.912033
 30
0.0
 11
822.845448
 21
2449.191045
 31
0.0
  0
LINE
  5
220
330
211
100
AcDbEntity
  8
LC-008-005-----0
 62
     7
370
    25
100
AcDbLine
 10
746.439981
 20
2386.927714
 30
0.0
 11
771.81493
 21
2412.302663
 31
0.0
  0
LINE
  5
221
330
211
100
AcDbEntity
  8
LC-008-005-----0
 62
     7
370
    25
100
AcDbLine
 10
814.221407
 20
2454.709139
 30
0.0
 11
821.500418
 21
2461.98815
 31
0.0
  0
LINE
  5
222
330
211
100
AcDbEntity
  8
LC-008-005-----0
 62
     7
370
    25
100
AcDbLine
 10
731.098538
 20
2385.728406
 30
0.0
 11
740.609329
 21
2395.239197
 31
0.0
  0
LINE
  5
223
330
211
100
AcDbEntity
  8
LC-008-005-----0
 62
     7
370
    25
100
AcDbLine
 10
764.551176
 20
2419.181044
 30
0.0
 11
773.540007
 21
2428.169875
 31
0.0
  0
LINE
  5
224
330
211
100
AcDbEntity
  8
LC-008-005-----0
 62
     7
370
    25
100
AcDbLine
 10
812.876377
 20
2467.506245
 30
0.0
 11
820.155388
 21
2474.785256
 31
0.0
  0
LINE
  5
225
330
211
100
AcDbEntity
  8
LC-008-005-----0
 62
     7
370
    25
100
AcDbLine
 10
716.174254
 20
2384.946257
 30
0.0
 11
725.685044
 21
2394.457048
 31
0.0
  0
LINE
  5
226
330
211
100
AcDbEntity
  8
LC-008-005-----0
 62
     7
370
    25
100
AcDbLine
 10
766.21215
 20
2434.984154
 30
0.0
 11
775.20098
 21
2443.972984
 31
0.0
  0
LINE
  5
227
330
211
100
AcDbEntity
  8
LC-008-005-----0
 62
     7
370
    25
100
AcDbLine
 10
811.531347
 20
2480.30335
 30
0.0
 11
818.810358
 21
2487.582362
 31
0.0
  0
LINE
  5
228
330
211
100
AcDbEntity
  8
LC-008-005-----0
 62
     7
370
    25
100
AcDbLine
 10
701.24997
 20
2384.164109
 30
0.0
 11
710.76076
 21
2393.674899
 31
0.0
  0
LINE
  5
229
330
211
100
AcDbEntity
  8
LC-008-005-----0
 62
     7
370
    25
100
AcDbLine
 10
767.873124
 20
2450.787263
 30
0.0
 11
776.861954
 21
2459.776093
 31
0.0
  0
LINE
  5
22A
330
211
100
AcDbEntity
  8
LC-008-005-----0
 62
     7
370
    25
100
AcDbLine
 10
810.186317
 20
2493.100456
 30
0.0
 11
817.465328
 21
2500.379467
 31
0.0
  0
LINE
  5
22B
330
211
100
AcDbEntity
  8
LC-008-005-----0
 62
     7
370
    25
100
AcDbLine
 10
686.325685
 20
2383.38196
 30
0.0
 11
695.836476
 21
2392.892751
 31
0.0
  0
LINE
  5
22C
330
211
100
AcDbEntity
  8
LC-008-005-----0
 62
     7
370
    25
100
AcDbLine
 10
769.534098
 20
2466.590372
 30
0.0
 11
778.522928
 21
2475.579203
 31
0.0
  0
LINE
  5
22D
330
211
100
AcDbEntity
  8
LC-008-005-----0
 62
     7
370
    25
100
AcDbLine
 10
808.841287
 20
2505.897561
 30
0.0
 11
816.120298
 21
2513.176573
 31
0.0
  0
LINE
  5
22E
330
211
100
AcDbEntity
  8
LC-008-005-----0
 62
     7
370
    25
100
AcDbLine
 10
671.401401
 20
2382.599812
 30
0.0
 11
680.912192
 21
2392.110602
 31
0.0
  0
LINE
  5
22F
330
211
100
AcDbEntity
  8
LC-008-005-----0
 62
     7
370
    25
100
AcDbLine
 10
771.195071
 20
2482.393482
 30
0.0
 11
780.183902
 21
2491.382312
 31
0.0
  0
LINE
  5
230
330
211
100
AcDbEntity
  8
LC-008-005-----0
 62
     7
370
    25
100
AcDbLine
 10
807.496257
 20
2518.694667
 30
0.0
 11
814.775268
 21
2525.973678
 31
0.0
  0
LINE
  5
231
330
211
100
AcDbEntity
  8
LC-008-005-----0
 62
     7
370
    25
100
AcDbLine
 10
656.477117
 20
2381.817663
 30
0.0
 11
665.987907
 21
2391.328454
 31
0.0
  0
LINE
  5
232
330
211
100
AcDbEntity
  8
LC-008-005-----0
 62
     7
370
    25
100
AcDbLine
 10
772.856045
 20
2498.196591
 30
0.0
 11
781.844875
 21
2507.185421
 31
0.0
  0
LINE
  5
233
330
211
100
AcDbEntity
  8
LC-008-005-----0
 62
     7
370
    25
100
AcDbLine
 10
806.151227
 20
2531.491773
 30
0.0
 11
813.430238
 21
2538.770784
 31
0.0
  0
LINE
  5
234
330
211
100
AcDbEntity
  8
LC-008-005-----0
 62
     7
370
    25
100
AcDbLine
 10
636.406682
 20
2375.889364
 30
0.0
 11
651.063623
 21
2390.546305
 31
0.0
  0
LINE
  5
235
330
211
100
AcDbEntity
  8
LC-008-005-----0
 62
     7
370
    25
100
AcDbLine
 10
774.517019
 20
2513.9997
 30
0.0
 11
783.505849
 21
2522.988531
 31
0.0
  0
LINE
  5
236
330
211
100
AcDbEntity
  8
LC-008-005-----0
 62
     7
370
    25
100
AcDbLine
 10
804.806197
 20
2544.288878
 30
0.0
 11
812.085208
 21
2551.56789
 31
0.0
  0
LINE
  5
237
330
211
100
AcDbEntity
  8
LC-008-005-----0
 62
     7
370
    25
100
AcDbLine
 10
628.075401
 20
2381.700219
 30
0.0
 11
633.231704
 21
2386.856521
 31
0.0
  0
LINE
  5
238
330
211
100
AcDbEntity
  8
LC-008-005-----0
 62
     7
370
    25
100
AcDbLine
 10
776.177992
 20
2529.80281
 30
0.0
 11
785.166823
 21
2538.79164
 31
0.0
  0
LINE
  5
239
330
211
100
AcDbEntity
  8
LC-008-005-----0
 62
     7
370
    25
100
AcDbLine
 10
803.461167
 20
2557.085984
 30
0.0
 11
810.740178
 21
2564.364995
 31
0.0
  0
LINE
  5
23A
330
211
100
AcDbEntity
  8
LC-008-005-----0
 62
     7
370
    25
100
AcDbLine
 10
777.838966
 20
2545.605919
 30
0.0
 11
786.827797
 21
2554.594749
 31
0.0
  0
LINE
  5
23B
330
211
100
AcDbEntity
  8
LC-008-005-----0
 62
     7
370
    25
100
AcDbLine
 10
796.77728
 20
2564.544233
 30
0.0
 11
805.754116
 21
2573.521069
 31
0.0
  0
LINE
  5
23C
330
211
100
AcDbEntity
  8
LC-008-005-----0
 62
     7
370
    25
100
AcDbLine
 10
779.49994
 20
2561.409028
 30
0.0
 11
791.635144
 21
2573.544233
 31
0.0
  0
ENDBLK
  5
213
330
211
100
AcDbEntity
  8
0
100
AcDbBlockEnd
  0
BLOCK
  5
24D
330
24C
100
AcDbEntity
  8
0
100
AcDbBlockBegin
  2
*X48
 70
     1
 71
     0
 10
0.0
 20
0.0
 30
0.0
  3
*X48
  1

  4
*X4
  0
LINE
  5
24F
330
24C
100
AcDbEntity
  8
LC-008-005-----0
 62
     7
370
    25
100
AcDbLine
 10
1861.257705
 20
1507.704314
 30
0.0
 11
1868.257705
 21
1514.704314
 31
0.0
  0
LINE
  5
250
330
24C
100
AcDbEntity
  8
LC-008-005-----0
 62
     7
370
    25
100
AcDbLine
 10
1859.257705
 20
1519.84645
 30
0.0
 11
1868.257705
 21
1528.84645
 31
0.0
  0
LINE
  5
251
330
24C
100
AcDbEntity
  8
LC-008-005-----0
 62
     7
370
    25
100
AcDbLine
 10
1855.716809
 20
1530.44769
 30
0.0
 11
1863.078906
 21
1537.809787
 31
0.0
  0
LINE
  5
252
330
24C
100
AcDbEntity
  8
LC-008-005-----0
 62
     7
370
    25
100
AcDbLine
 10
1843.002789
 20
1531.875806
 30
0.0
 11
1850.281801
 21
1539.154817
 31
0.0
  0
LINE
  5
253
330
24C
100
AcDbEntity
  8
LC-008-005-----0
 62
     7
370
    25
100
AcDbLine
 10
1830.205684
 20
1533.220836
 30
0.0
 11
1837.484695
 21
1540.499847
 31
0.0
  0
LINE
  5
254
330
24C
100
AcDbEntity
  8
LC-008-005-----0
 62
     7
370
    25
100
AcDbLine
 10
1817.408578
 20
1534.565866
 30
0.0
 11
1824.687589
 21
1541.844877
 31
0.0
  0
LINE
  5
255
330
24C
100
AcDbEntity
  8
LC-008-005-----0
 62
     7
370
    25
100
AcDbLine
 10
1804.611472
 20
1535.910896
 30
0.0
 11
1811.890484
 21
1543.189907
 31
0.0
  0
LINE
  5
256
330
24C
100
AcDbEntity
  8
LC-008-005-----0
 62
     7
370
    25
100
AcDbLine
 10
1791.814367
 20
1537.255926
 30
0.0
 11
1799.093378
 21
1544.534937
 31
0.0
  0
LINE
  5
257
330
24C
100
AcDbEntity
  8
LC-008-005-----0
 62
     7
370
    25
100
AcDbLine
 10
1779.017261
 20
1538.600956
 30
0.0
 11
1786.296272
 21
1545.879967
 31
0.0
  0
LINE
  5
258
330
24C
100
AcDbEntity
  8
LC-008-005-----0
 62
     7
370
    25
100
AcDbLine
 10
1766.220156
 20
1539.945986
 30
0.0
 11
1773.499167
 21
1547.224997
 31
0.0
  0
LINE
  5
259
330
24C
100
AcDbEntity
  8
LC-008-005-----0
 62
     7
370
    25
100
AcDbLine
 10
1753.42305
 20
1541.291016
 30
0.0
 11
1760.702061
 21
1548.570027
 31
0.0
  0
LINE
  5
25A
330
24C
100
AcDbEntity
  8
LC-008-005-----0
 62
     7
370
    25
100
AcDbLine
 10
1740.625944
 20
1542.636046
 30
0.0
 11
1747.904956
 21
1549.915057
 31
0.0
  0
LINE
  5
25B
330
24C
100
AcDbEntity
  8
LC-008-005-----0
 62
     7
370
    25
100
AcDbLine
 10
1727.828839
 20
1543.981076
 30
0.0
 11
1735.10785
 21
1551.260087
 31
0.0
  0
LINE
  5
25C
330
24C
100
AcDbEntity
  8
LC-008-005-----0
 62
     7
370
    25
100
AcDbLine
 10
1715.031733
 20
1545.326106
 30
0.0
 11
1722.310744
 21
1552.605117
 31
0.0
  0
LINE
  5
25D
330
24C
100
AcDbEntity
  8
LC-008-005-----0
 62
     7
370
    25
100
AcDbLine
 10
1702.234627
 20
1546.671136
 30
0.0
 11
1709.513639
 21
1553.950147
 31
0.0
  0
LINE
  5
25E
330
24C
100
AcDbEntity
  8
LC-008-005-----0
 62
     7
370
    25
100
AcDbLine
 10
1689.437522
 20
1548.016166
 30
0.0
 11
1696.716533
 21
1555.295177
 31
0.0
  0
LINE
  5
25F
330
24C
100
AcDbEntity
  8
LC-008-005-----0
 62
     7
370
    25
100
AcDbLine
 10
1676.640416
 20
1549.361196
 30
0.0
 11
1683.919427
 21
1556.640207
 31
0.0
  0
LINE
  5
260
330
24C
100
AcDbEntity
  8
LC-008-005-----0
 62
     7
370
    25
100
AcDbLine
 10
1664.04046
 20
1550.903375
 30
0.0
 11
1671.122322
 21
1557.985237
 31
0.0
  0
LINE
  5
261
330
24C
100
AcDbEntity
  8
LC-008-005-----0
 62
     7
370
    25
100
AcDbLine
 10
1654.145337
 20
1555.150388
 30
0.0
 11
1660.564556
 21
1561.569606
 31
0.0
  0
LINE
  5
262
330
24C
100
AcDbEntity
  8
LC-008-005-----0
 62
     7
370
    25
100
AcDbLine
 10
1646.836977
 20
1561.984163
 30
0.0
 11
1653.268769
 21
1568.415956
 31
0.0
  0
LINE
  5
263
330
24C
100
AcDbEntity
  8
LC-008-005-----0
 62
     7
370
    25
100
AcDbLine
 10
1641.784159
 20
1571.073481
 30
0.0
 11
1649.082968
 21
1578.372289
 31
0.0
  0
LINE
  5
264
330
24C
100
AcDbEntity
  8
LC-008-005-----0
 62
     7
370
    25
100
AcDbLine
 10
1639.620874
 20
1583.052332
 30
0.0
 11
1648.184429
 21
1591.615886
 31
0.0
  0
LINE
  5
265
330
24C
100
AcDbEntity
  8
LC-008-005-----0
 62
     7
370
    25
100
AcDbLine
 10
1638.916625
 20
1596.490218
 30
0.0
 11
1647.480179
 21
1605.053772
 31
0.0
  0
LINE
  5
266
330
24C
100
AcDbEntity
  8
LC-008-005-----0
 62
     7
370
    25
100
AcDbLine
 10
1638.212375
 20
1609.928104
 30
0.0
 11
1646.775929
 21
1618.491658
 31
0.0
  0
LINE
  5
267
330
24C
100
AcDbEntity
  8
LC-008-005-----0
 62
     7
370
    25
100
AcDbLine
 10
1637.508125
 20
1623.36599
 30
0.0
 11
1646.071679
 21
1631.929544
 31
0.0
  0
LINE
  5
268
330
24C
100
AcDbEntity
  8
LC-008-005-----0
 62
     7
370
    25
100
AcDbLine
 10
1636.803875
 20
1636.803875
 30
0.0
 11
1645.36743
 21
1645.36743
 31
0.0
  0
LINE
  5
269
330
24C
100
AcDbEntity
  8
LC-008-005-----0
 62
     7
370
    25
100
AcDbLine
 10
1636.099626
 20
1650.241761
 30
0.0
 11
1644.66318
 21
1658.805316
 31
0.0
  0
LINE
  5
26A
330
24C
100
AcDbEntity
  8
LC-008-005-----0
 62
     7
370
    25
100
AcDbLine
 10
1635.395376
 20
1663.679647
 30
0.0
 11
1643.95893
 21
1672.243201
 31
0.0
  0
LINE
  5
26B
330
24C
100
AcDbEntity
  8
LC-008-005-----0
 62
     7
370
    25
100
AcDbLine
 10
1634.691126
 20
1677.117533
 30
0.0
 11
1643.25468
 21
1685.681087
 31
0.0
  0
LINE
  5
26C
330
24C
100
AcDbEntity
  8
LC-008-005-----0
 62
     7
370
    25
100
AcDbLine
 10
1633.986876
 20
1690.555419
 30
0.0
 11
1642.550431
 21
1699.118973
 31
0.0
  0
LINE
  5
26D
330
24C
100
AcDbEntity
  8
LC-008-005-----0
 62
     7
370
    25
100
AcDbLine
 10
1633.282627
 20
1703.993305
 30
0.0
 11
1641.846181
 21
1712.556859
 31
0.0
  0
LINE
  5
26E
330
24C
100
AcDbEntity
  8
LC-008-005-----0
 62
     7
370
    25
100
AcDbLine
 10
1632.578377
 20
1717.431191
 30
0.0
 11
1641.141931
 21
1725.994745
 31
0.0
  0
LINE
  5
26F
330
24C
100
AcDbEntity
  8
LC-008-005-----0
 62
     7
370
    25
100
AcDbLine
 10
1631.874127
 20
1730.869077
 30
0.0
 11
1640.437681
 21
1739.432631
 31
0.0
  0
LINE
  5
270
330
24C
100
AcDbEntity
  8
LC-008-005-----0
 62
     7
370
    25
100
AcDbLine
 10
1631.081777
 20
1744.218862
 30
0.0
 11
1639.733432
 21
1752.870517
 31
0.0
  0
LINE
  5
271
330
24C
100
AcDbEntity
  8
LC-008-005-----0
 62
     7
370
    25
100
AcDbLine
 10
1625.602836
 20
1752.882056
 30
0.0
 11
1636.091817
 21
1763.371038
 31
0.0
  0
ENDBLK
  5
24E
330
24C
100
AcDbEntity
  8
0
100
AcDbBlockEnd
  0
BLOCK
  5
274
330
273
100
AcDbEntity
  8
0
100
AcDbBlockBegin
  2
*X59
 70
     1
 71
     0
 10
0.0
 20
0.0
 30
0.0
  3
*X59
  1

  4
*X5
  0
LINE
  5
276
330
273
100
AcDbEntity
  8
LC-008-005-----0
 62
     7
370
    25
100
AcDbLine
 10
1864.474276
 20
1921.042819
 30
0.0
 11
1868.251539
 21
1924.820081
 31
0.0
  0
LINE
  5
277
330
273
100
AcDbEntity
  8
LC-008-005-----0
 62
     7
370
    25
100
AcDbLine
 10
1848.671167
 20
1919.381845
 30
0.0
 11
1868.257705
 21
1938.968383
 31
0.0
  0
LINE
  5
278
330
273
100
AcDbEntity
  8
LC-008-005-----0
 62
     7
370
    25
100
AcDbLine
 10
1832.868058
 20
1917.720871
 30
0.0
 11
1841.856888
 21
1926.709702
 31
0.0
  0
LINE
  5
279
330
273
100
AcDbEntity
  8
LC-008-005-----0
 62
     7
370
    25
100
AcDbLine
 10
1859.257705
 20
1944.110518
 30
0.0
 11
1868.257705
 21
1953.110518
 31
0.0
  0
LINE
  5
27A
330
273
100
AcDbEntity
  8
LC-008-005-----0
 62
     7
370
    25
100
AcDbLine
 10
1817.064948
 20
1916.059898
 30
0.0
 11
1826.053779
 21
1925.048728
 31
0.0
  0
LINE
  5
27B
330
273
100
AcDbEntity
  8
LC-008-005-----0
 62
     7
370
    25
100
AcDbLine
 10
1859.257705
 20
1958.252654
 30
0.0
 11
1868.257705
 21
1967.252654
 31
0.0
  0
LINE
  5
27C
330
273
100
AcDbEntity
  8
LC-008-005-----0
 62
     7
370
    25
100
AcDbLine
 10
1801.261839
 20
1914.398924
 30
0.0
 11
1810.250669
 21
1923.387754
 31
0.0
  0
LINE
  5
27D
330
273
100
AcDbEntity
  8
LC-008-005-----0
 62
     7
370
    25
100
AcDbLine
 10
1859.257705
 20
1972.39479
 30
0.0
 11
1868.257705
 21
1981.39479
 31
0.0
  0
LINE
  5
27E
330
273
100
AcDbEntity
  8
LC-008-005-----0
 62
     7
370
    25
100
AcDbLine
 10
1785.45873
 20
1912.73795
 30
0.0
 11
1794.44756
 21
1921.726781
 31
0.0
  0
LINE
  5
27F
330
273
100
AcDbEntity
  8
LC-008-005-----0
 62
     7
370
    25
100
AcDbLine
 10
1859.257705
 20
1986.536925
 30
0.0
 11
1868.257705
 21
1995.536925
 31
0.0
  0
LINE
  5
280
330
273
100
AcDbEntity
  8
LC-008-005-----0
 62
     7
370
    25
100
AcDbLine
 10
1769.65562
 20
1911.076977
 30
0.0
 11
1778.644451
 21
1920.065807
 31
0.0
  0
LINE
  5
281
330
273
100
AcDbEntity
  8
LC-008-005-----0
 62
     7
370
    25
100
AcDbLine
 10
1859.257705
 20
2000.679061
 30
0.0
 11
1868.257705
 21
2009.679061
 31
0.0
  0
LINE
  5
282
330
273
100
AcDbEntity
  8
LC-008-005-----0
 62
     7
370
    25
100
AcDbLine
 10
1753.852511
 20
1909.416003
 30
0.0
 11
1762.841341
 21
1918.404833
 31
0.0
  0
LINE
  5
283
330
273
100
AcDbEntity
  8
LC-008-005-----0
 62
     7
370
    25
100
AcDbLine
 10
1861.257705
 20
2016.821197
 30
0.0
 11
1867.407454
 21
2022.970946
 31
0.0
  0
LINE
  5
284
330
273
100
AcDbEntity
  8
LC-008-005-----0
 62
     7
370
    25
100
AcDbLine
 10
1738.049402
 20
1907.755029
 30
0.0
 11
1747.038232
 21
1916.743859
 31
0.0
  0
LINE
  5
285
330
273
100
AcDbEntity
  8
LC-008-005-----0
 62
     7
370
    25
100
AcDbLine
 10
1722.246292
 20
1906.094055
 30
0.0
 11
1731.235123
 21
1915.082886
 31
0.0
  0
LINE
  5
286
330
273
100
AcDbEntity
  8
LC-008-005-----0
 62
     7
370
    25
100
AcDbLine
 10
1706.443183
 20
1904.433082
 30
0.0
 11
1715.432013
 21
1913.421912
 31
0.0
  0
LINE
  5
287
330
273
100
AcDbEntity
  8
LC-008-005-----0
 62
     7
370
    25
100
AcDbLine
 10
1690.640074
 20
1902.772108
 30
0.0
 11
1699.628904
 21
1911.760938
 31
0.0
  0
LINE
  5
288
330
273
100
AcDbEntity
  8
LC-008-005-----0
 62
     7
370
    25
100
AcDbLine
 10
1631.541303
 20
1857.815473
 30
0.0
 11
1636.542674
 21
1862.816844
 31
0.0
  0
LINE
  5
289
330
273
100
AcDbEntity
  8
LC-008-005-----0
 62
     7
370
    25
100
AcDbLine
 10
1674.836964
 20
1901.111134
 30
0.0
 11
1683.825795
 21
1910.099965
 31
0.0
  0
LINE
  5
28A
330
273
100
AcDbEntity
  8
LC-008-005-----0
 62
     7
370
    25
100
AcDbLine
 10
1625.602836
 20
1866.019141
 30
0.0
 11
1640.783578
 21
1881.199884
 31
0.0
  0
LINE
  5
28B
330
273
100
AcDbEntity
  8
LC-008-005-----0
 62
     7
370
    25
100
AcDbLine
 10
1658.724921
 20
1899.141227
 30
0.0
 11
1668.022685
 21
1908.438991
 31
0.0
  0
LINE
  5
28C
330
273
100
AcDbEntity
  8
LC-008-005-----0
 62
     7
370
    25
100
AcDbLine
 10
1633.708005
 20
1888.266446
 30
0.0
 11
1650.96808
 21
1905.526521
 31
0.0
  0
ENDBLK
  5
275
330
273
100
AcDbEntity
  8
0
100
AcDbBlockEnd
  0
BLOCK
  5
2C0
330
2BF
100
AcDbEntity
  8
0
100
AcDbBlockBegin
  2
*X610
 70
     1
 71
     0
 10
0.0
 20
0.0
 30
0.0
  3
*X610
  1

  4
*X6
  0
LINE
  5
2C2
330
2BF
100
AcDbEntity
  8
LC-008-005-----0
 62
     7
370
    25
100
AcDbLine
 10
1452.501885
 20
1989.903039
 30
0.0
 11
1456.901653
 21
1994.302806
 31
0.0
  0
LINE
  5
2C3
330
2BF
100
AcDbEntity
  8
LC-008-005-----0
 62
     7
370
    25
100
AcDbLine
 10
1436.698776
 20
1988.242065
 30
0.0
 11
1456.901653
 21
2008.444942
 31
0.0
  0
LINE
  5
2C4
330
2BF
100
AcDbEntity
  8
LC-008-005-----0
 62
     7
370
    25
100
AcDbLine
 10
1420.895667
 20
1986.581092
 30
0.0
 11
1429.884497
 21
1995.569922
 31
0.0
  0
LINE
  5
2C5
330
2BF
100
AcDbEntity
  8
LC-008-005-----0
 62
     7
370
    25
100
AcDbLine
 10
1449.901653
 20
2015.587078
 30
0.0
 11
1456.568001
 21
2022.253426
 31
0.0
  0
LINE
  5
2C6
330
2BF
100
AcDbEntity
  8
LC-008-005-----0
 62
     7
370
    25
100
AcDbLine
 10
1405.092557
 20
1984.920118
 30
0.0
 11
1414.081388
 21
1993.908948
 31
0.0
  0
LINE
  5
2C7
330
2BF
100
AcDbEntity
  8
LC-008-005-----0
 62
     7
370
    25
100
AcDbLine
 10
1389.289448
 20
1983.259144
 30
0.0
 11
1398.278278
 21
1992.247975
 31
0.0
  0
LINE
  5
2C8
330
2BF
100
AcDbEntity
  8
LC-008-005-----0
 62
     7
370
    25
100
AcDbLine
 10
1373.486339
 20
1981.59817
 30
0.0
 11
1382.475169
 21
1990.587001
 31
0.0
  0
LINE
  5
2C9
330
2BF
100
AcDbEntity
  8
LC-008-005-----0
 62
     7
370
    25
100
AcDbLine
 10
1357.683229
 20
1979.937197
 30
0.0
 11
1366.67206
 21
1988.926027
 31
0.0
  0
LINE
  5
2CA
330
2BF
100
AcDbEntity
  8
LC-008-005-----0
 62
     7
370
    25
100
AcDbLine
 10
1341.88012
 20
1978.276223
 30
0.0
 11
1350.86895
 21
1987.265053
 31
0.0
  0
LINE
  5
2CB
330
2BF
100
AcDbEntity
  8
LC-008-005-----0
 62
     7
370
    25
100
AcDbLine
 10
1326.077011
 20
1976.615249
 30
0.0
 11
1335.065841
 21
1985.60408
 31
0.0
  0
LINE
  5
2CC
330
2BF
100
AcDbEntity
  8
LC-008-005-----0
 62
     7
370
    25
100
AcDbLine
 10
1310.273901
 20
1974.954276
 30
0.0
 11
1319.262732
 21
1983.943106
 31
0.0
  0
LINE
  5
2CD
330
2BF
100
AcDbEntity
  8
LC-008-005-----0
 62
     7
370
    25
100
AcDbLine
 10
1294.470792
 20
1973.293302
 30
0.0
 11
1303.459622
 21
1982.282132
 31
0.0
  0
LINE
  5
2CE
330
2BF
100
AcDbEntity
  8
LC-008-005-----0
 62
     7
370
    25
100
AcDbLine
 10
1278.667683
 20
1971.632328
 30
0.0
 11
1287.656513
 21
1980.621158
 31
0.0
  0
LINE
  5
2CF
330
2BF
100
AcDbEntity
  8
LC-008-005-----0
 62
     7
370
    25
100
AcDbLine
 10
1214.246784
 20
1921.353565
 30
0.0
 11
1228.528019
 21
1935.6348
 31
0.0
  0
LINE
  5
2D0
330
2BF
100
AcDbEntity
  8
LC-008-005-----0
 62
     7
370
    25
100
AcDbLine
 10
1262.864573
 20
1969.971354
 30
0.0
 11
1271.853404
 21
1978.960185
 31
0.0
  0
LINE
  5
2D1
330
2BF
100
AcDbEntity
  8
LC-008-005-----0
 62
     7
370
    25
100
AcDbLine
 10
1214.321732
 20
1935.570648
 30
0.0
 11
1216.719693
 21
1937.96861
 31
0.0
  0
LINE
  5
2D2
330
2BF
100
AcDbEntity
  8
LC-008-005-----0
 62
     7
370
    25
100
AcDbLine
 10
1219.51624
 20
1940.765157
 30
0.0
 11
1230.144576
 21
1951.393493
 31
0.0
  0
LINE
  5
2D3
330
2BF
100
AcDbEntity
  8
LC-008-005-----0
 62
     7
370
    25
100
AcDbLine
 10
1246.50355
 20
1967.752467
 30
0.0
 11
1256.050294
 21
1977.299211
 31
0.0
  0
LINE
  5
2D4
330
2BF
100
AcDbEntity
  8
LC-008-005-----0
 62
     7
370
    25
100
AcDbLine
 10
1223.457132
 20
1958.848184
 30
0.0
 11
1238.436631
 21
1973.827684
 31
0.0
  0
ENDBLK
  5
2C1
330
2BF
100
AcDbEntity
  8
0
100
AcDbBlockEnd
  0
BLOCK
  5
2D7
330
2D6
100
AcDbEntity
  8
0
100
AcDbBlockBegin
  2
*X711
 70
     1
 71
     0
 10
0.0
 20
0.0
 30
0.0
  3
*X711
  1

  4
*X7
  0
LINE
  5
2D9
330
2D6
100
AcDbEntity
  8
LC-008-005-----0
 62
     7
370
    25
100
AcDbLine
 10
1449.901653
 20
1506.470195
 30
0.0
 11
1456.901653
 21
1513.470195
 31
0.0
  0
LINE
  5
2DA
330
2D6
100
AcDbEntity
  8
LC-008-005-----0
 62
     7
370
    25
100
AcDbLine
 10
1447.901653
 20
1518.612331
 30
0.0
 11
1456.901653
 21
1527.612331
 31
0.0
  0
LINE
  5
2DB
330
2D6
100
AcDbEntity
  8
LC-008-005-----0
 62
     7
370
    25
100
AcDbLine
 10
1445.234784
 20
1530.087598
 30
0.0
 11
1452.839599
 21
1537.692412
 31
0.0
  0
LINE
  5
2DC
330
2D6
100
AcDbEntity
  8
LC-008-005-----0
 62
     7
370
    25
100
AcDbLine
 10
1432.763482
 20
1531.758431
 30
0.0
 11
1440.042493
 21
1539.037442
 31
0.0
  0
LINE
  5
2DD
330
2D6
100
AcDbEntity
  8
LC-008-005-----0
 62
     7
370
    25
100
AcDbLine
 10
1419.966376
 20
1533.103461
 30
0.0
 11
1427.245387
 21
1540.382472
 31
0.0
  0
LINE
  5
2DE
330
2D6
100
AcDbEntity
  8
LC-008-005-----0
 62
     7
370
    25
100
AcDbLine
 10
1407.16927
 20
1534.448491
 30
0.0
 11
1414.448282
 21
1541.727502
 31
0.0
  0
LINE
  5
2DF
330
2D6
100
AcDbEntity
  8
LC-008-005-----0
 62
     7
370
    25
100
AcDbLine
 10
1394.372165
 20
1535.793521
 30
0.0
 11
1401.651176
 21
1543.072532
 31
0.0
  0
LINE
  5
2E0
330
2D6
100
AcDbEntity
  8
LC-008-005-----0
 62
     7
370
    25
100
AcDbLine
 10
1381.575059
 20
1537.138551
 30
0.0
 11
1388.85407
 21
1544.417562
 31
0.0
  0
LINE
  5
2E1
330
2D6
100
AcDbEntity
  8
LC-008-005-----0
 62
     7
370
    25
100
AcDbLine
 10
1368.777953
 20
1538.483581
 30
0.0
 11
1376.056965
 21
1545.762592
 31
0.0
  0
LINE
  5
2E2
330
2D6
100
AcDbEntity
  8
LC-008-005-----0
 62
     7
370
    25
100
AcDbLine
 10
1355.980848
 20
1539.828611
 30
0.0
 11
1363.259859
 21
1547.107622
 31
0.0
  0
LINE
  5
2E3
330
2D6
100
AcDbEntity
  8
LC-008-005-----0
 62
     7
370
    25
100
AcDbLine
 10
1343.183742
 20
1541.173641
 30
0.0
 11
1350.462754
 21
1548.452652
 31
0.0
  0
LINE
  5
2E4
330
2D6
100
AcDbEntity
  8
LC-008-005-----0
 62
     7
370
    25
100
AcDbLine
 10
1330.386637
 20
1542.518671
 30
0.0
 11
1337.665648
 21
1549.797682
 31
0.0
  0
LINE
  5
2E5
330
2D6
100
AcDbEntity
  8
LC-008-005-----0
 62
     7
370
    25
100
AcDbLine
 10
1317.589531
 20
1543.863701
 30
0.0
 11
1324.868542
 21
1551.142712
 31
0.0
  0
LINE
  5
2E6
330
2D6
100
AcDbEntity
  8
LC-008-005-----0
 62
     7
370
    25
100
AcDbLine
 10
1304.792425
 20
1545.208731
 30
0.0
 11
1312.071437
 21
1552.487742
 31
0.0
  0
LINE
  5
2E7
330
2D6
100
AcDbEntity
  8
LC-008-005-----0
 62
     7
370
    25
100
AcDbLine
 10
1291.99532
 20
1546.553761
 30
0.0
 11
1299.274331
 21
1553.832772
 31
0.0
  0
LINE
  5
2E8
330
2D6
100
AcDbEntity
  8
LC-008-005-----0
 62
     7
370
    25
100
AcDbLine
 10
1279.198214
 20
1547.898791
 30
0.0
 11
1286.477225
 21
1555.177802
 31
0.0
  0
LINE
  5
2E9
330
2D6
100
AcDbEntity
  8
LC-008-005-----0
 62
     7
370
    25
100
AcDbLine
 10
1266.401108
 20
1549.243821
 30
0.0
 11
1273.68012
 21
1556.522832
 31
0.0
  0
LINE
  5
2EA
330
2D6
100
AcDbEntity
  8
LC-008-005-----0
 62
     7
370
    25
100
AcDbLine
 10
1254.070376
 20
1551.055224
 30
0.0
 11
1260.958657
 21
1557.943505
 31
0.0
  0
LINE
  5
2EB
330
2D6
100
AcDbEntity
  8
LC-008-005-----0
 62
     7
370
    25
100
AcDbLine
 10
1244.662957
 20
1555.789941
 30
0.0
 11
1251.047937
 21
1562.174921
 31
0.0
  0
LINE
  5
2EC
330
2D6
100
AcDbEntity
  8
LC-008-005-----0
 62
     7
370
    25
100
AcDbLine
 10
1237.738895
 20
1563.008014
 30
0.0
 11
1244.237568
 21
1569.506688
 31
0.0
  0
LINE
  5
2ED
330
2D6
100
AcDbEntity
  8
LC-008-005-----0
 62
     7
370
    25
100
AcDbLine
 10
1233.09456
 20
1572.505815
 30
0.0
 11
1240.704172
 21
1580.115427
 31
0.0
  0
LINE
  5
2EE
330
2D6
100
AcDbEntity
  8
LC-008-005-----0
 62
     7
370
    25
100
AcDbLine
 10
1231.413754
 20
1584.967144
 30
0.0
 11
1239.977308
 21
1593.530699
 31
0.0
  0
LINE
  5
2EF
330
2D6
100
AcDbEntity
  8
LC-008-005-----0
 62
     7
370
    25
100
AcDbLine
 10
1230.709504
 20
1598.40503
 30
0.0
 11
1239.273058
 21
1606.968584
 31
0.0
  0
LINE
  5
2F0
330
2D6
100
AcDbEntity
  8
LC-008-005-----0
 62
     7
370
    25
100
AcDbLine
 10
1230.005254
 20
1611.842916
 30
0.0
 11
1238.568808
 21
1620.40647
 31
0.0
  0
LINE
  5
2F1
330
2D6
100
AcDbEntity
  8
LC-008-005-----0
 62
     7
370
    25
100
AcDbLine
 10
1229.301004
 20
1625.280802
 30
0.0
 11
1237.864559
 21
1633.844356
 31
0.0
  0
LINE
  5
2F2
330
2D6
100
AcDbEntity
  8
LC-008-005-----0
 62
     7
370
    25
100
AcDbLine
 10
1228.596755
 20
1638.718688
 30
0.0
 11
1237.160309
 21
1647.282242
 31
0.0
  0
LINE
  5
2F3
330
2D6
100
AcDbEntity
  8
LC-008-005-----0
 62
     7
370
    25
100
AcDbLine
 10
1227.892505
 20
1652.156574
 30
0.0
 11
1236.456059
 21
1660.720128
 31
0.0
  0
LINE
  5
2F4
330
2D6
100
AcDbEntity
  8
LC-008-005-----0
 62
     7
370
    25
100
AcDbLine
 10
1227.188255
 20
1665.594459
 30
0.0
 11
1235.751809
 21
1674.158014
 31
0.0
  0
LINE
  5
2F5
330
2D6
100
AcDbEntity
  8
LC-008-005-----0
 62
     7
370
    25
100
AcDbLine
 10
1226.484005
 20
1679.032345
 30
0.0
 11
1235.04756
 21
1687.5959
 31
0.0
  0
LINE
  5
2F6
330
2D6
100
AcDbEntity
  8
LC-008-005-----0
 62
     7
370
    25
100
AcDbLine
 10
1225.779756
 20
1692.470231
 30
0.0
 11
1234.34331
 21
1701.033785
 31
0.0
  0
LINE
  5
2F7
330
2D6
100
AcDbEntity
  8
LC-008-005-----0
 62
     7
370
    25
100
AcDbLine
 10
1225.075506
 20
1705.908117
 30
0.0
 11
1233.63906
 21
1714.471671
 31
0.0
  0
LINE
  5
2F8
330
2D6
100
AcDbEntity
  8
LC-008-005-----0
 62
     7
370
    25
100
AcDbLine
 10
1224.371256
 20
1719.346003
 30
0.0
 11
1232.93481
 21
1727.909557
 31
0.0
  0
LINE
  5
2F9
330
2D6
100
AcDbEntity
  8
LC-008-005-----0
 62
     7
370
    25
100
AcDbLine
 10
1223.667006
 20
1732.783889
 30
0.0
 11
1232.230561
 21
1741.347443
 31
0.0
  0
LINE
  5
2FA
330
2D6
100
AcDbEntity
  8
LC-008-005-----0
 62
     7
370
    25
100
AcDbLine
 10
1222.962757
 20
1746.221775
 30
0.0
 11
1231.526311
 21
1754.785329
 31
0.0
  0
LINE
  5
2FB
330
2D6
100
AcDbEntity
  8
LC-008-005-----0
 62
     7
370
    25
100
AcDbLine
 10
1222.258507
 20
1759.659661
 30
0.0
 11
1230.822061
 21
1768.223215
 31
0.0
  0
LINE
  5
2FC
330
2D6
100
AcDbEntity
  8
LC-008-005-----0
 62
     7
370
    25
100
AcDbLine
 10
1221.554257
 20
1773.097546
 30
0.0
 11
1230.117811
 21
1781.661101
 31
0.0
  0
LINE
  5
2FD
330
2D6
100
AcDbEntity
  8
LC-008-005-----0
 62
     7
370
    25
100
AcDbLine
 10
1220.850007
 20
1786.535432
 30
0.0
 11
1229.413562
 21
1795.098987
 31
0.0
  0
LINE
  5
2FE
330
2D6
100
AcDbEntity
  8
LC-008-005-----0
 62
     7
370
    25
100
AcDbLine
 10
1220.145758
 20
1799.973318
 30
0.0
 11
1228.709312
 21
1808.536872
 31
0.0
  0
LINE
  5
2FF
330
2D6
100
AcDbEntity
  8
LC-008-005-----0
 62
     7
370
    25
100
AcDbLine
 10
1216.019258
 20
1809.988955
 30
0.0
 11
1225.73491
 21
1819.704606
 31
0.0
  0
LINE
  5
300
330
2D6
100
AcDbEntity
  8
LC-008-005-----0
 62
     7
370
    25
100
AcDbLine
 10
1214.246784
 20
1822.358616
 30
0.0
 11
1219.703641
 21
1827.815473
 31
0.0
  0
ENDBLK
  5
2D8
330
2D6
100
AcDbEntity
  8
0
100
AcDbBlockEnd
  0
BLOCK
  5
30E
330
303
100
AcDbEntity
  8
0
100
AcDbBlockBegin
  2
*D12
 70
     1
 71
     0
 10
0.0
 20
0.0
 30
0.0
  3
*D12
  1

  0
LINE
  5
304
330
303
100
AcDbEntity
  8
LC-005-003-----0
 62
     2
370
    -2
100
AcDbLine
 10
349.575401
 20
1515.465473
 30
0.0
 11
349.575401
 21
1382.0
 31
0.0
  0
LINE
  5
305
330
303
100
AcDbEntity
  8
LC-005-003-----0
 62
     2
370
    -2
100
AcDbLine
 10
1136.975401
 20
1515.465473
 30
0.0
 11
1136.975401
 21
1382.0
 31
0.0
  0
LINE
  5
306
330
303
100
AcDbEntity
  8
LC-005-003-----0
 62
     2
370
    -2
100
AcDbLine
 10
374.575401
 20
1400.0
 30
0.0
 11
691.822902
 21
1400.0
 31
0.0
  0
LINE
  5
307
330
303
100
AcDbEntity
  8
LC-005-003-----0
 62
     2
370
    -2
100
AcDbLine
 10
1111.975401
 20
1400.0
 30
0.0
 11
794.7279
 21
1400.0
 31
0.0
  0
SOLID
  5
308
330
303
100
AcDbEntity
  8
LC-005-003-----0
 62
     2
100
AcDbTrace
 10
374.575401
 20
1404.166667
 30
0.0
 11
374.575401
 21
1395.833333
 31
0.0
 12
349.575401
 22
1400.0
 32
0.0
 13
349.575401
 23
1400.0
 33
0.0
  0
SOLID
  5
309
330
303
100
AcDbEntity
  8
LC-005-003-----0
 62
     2
100
AcDbTrace
 10
1111.975401
 20
1395.833333
 30
0.0
 11
1111.975401
 21
1404.166667
 31
0.0
 12
1136.975401
 22
1400.0
 32
0.0
 13
1136.975401
 23
1400.0
 33
0.0
  0
MTEXT
  5
30A
330
303
100
AcDbEntity
  8
LC-005-003-----0
 62
     2
100
AcDbMText
 10
743.275401
 20
1430.0
 30
0.0
 40
25.0
 41
0.0
 71
     5
 72
     1
  1
\A1;787,4
  7
LCTX0-400-0-0pDIN-Schrift
 73
     1
 44
1.0
  0
POINT
  5
30B
330
303
100
AcDbEntity
  8
Defpoints
 62
     0
100
AcDbPoint
 10
349.575401
 20
1515.465473
 30
0.0
  0
POINT
  5
30C
330
303
100
AcDbEntity
  8
Defpoints
 62
     0
100
AcDbPoint
 10
1136.975401
 20
1515.465473
 30
0.0
  0
POINT
  5
30D
330
303
100
AcDbEntity
  8
Defpoints
 62
     0
100
AcDbPoint
 10
1136.975401
 20
1400.0
 30
0.0
  0
ENDBLK
  5
30F
330
303
100
AcDbEntity
  8
0
100
AcDbBlockEnd
  0
BLOCK
  5
31B
330
311
100
AcDbEntity
  8
0
100
AcDbBlockBegin
  2
*D13
 70
     1
 71
     0
 10
0.0
 20
0.0
 30
0.0
  3
*D13
  1

  0
LINE
  5
312
330
311
100
AcDbEntity
  8
LC-005-003-----0
 62
     2
370
    -2
100
AcDbLine
 10
361.575401
 20
2024.165473
 30
0.0
 11
232.0
 21
2024.165473
 31
0.0
  0
LINE
  5
313
330
311
100
AcDbEntity
  8
LC-005-003-----0
 62
     2
370
    -2
100
AcDbLine
 10
361.575401
 20
1503.465473
 30
0.0
 11
232.0
 21
1503.465473
 31
0.0
  0
LINE
  5
314
330
311
100
AcDbEntity
  8
LC-005-003-----0
 62
     2
370
    -2
100
AcDbLine
 10
250.0
 20
1999.165473
 30
0.0
 11
250.0
 21
1528.465473
 31
0.0
  0
SOLID
  5
315
330
311
100
AcDbEntity
  8
LC-005-003-----0
 62
     2
100
AcDbTrace
 10
254.166667
 20
1999.165473
 30
0.0
 11
245.833333
 21
1999.165473
 31
0.0
 12
250.0
 22
2024.165473
 32
0.0
 13
250.0
 23
2024.165473
 33
0.0
  0
SOLID
  5
316
330
311
100
AcDbEntity
  8
LC-005-003-----0
 62
     2
100
AcDbTrace
 10
245.833333
 20
1528.465473
 30
0.0
 11
254.166667
 21
1528.465473
 31
0.0
 12
250.0
 22
1503.465473
 32
0.0
 13
250.0
 23
1503.465473
 33
0.0
  0
MTEXT
  5
317
330
311
100
AcDbEntity
  8
LC-005-003-----0
 62
     2
100
AcDbMText
 10
220.0
 20
1763.815473
 30
0.0
 40
25.0
 41
0.0
 71
     5
 72
     1
  1
\A1;520,7
  7
LCTX0-400-0-0pDIN-Schrift
 11
6.123031769111886E-17
 21
1.0
 31
0.0
 73
     1
 44
1.0
  0
POINT
  5
318
330
311
100
AcDbEntity
  8
Defpoints
 62
     0
100
AcDbPoint
 10
361.575401
 20
2024.165473
 30
0.0
  0
POINT
  5
319
330
311
100
AcDbEntity
  8
Defpoints
 62
     0
100
AcDbPoint
 10
361.575401
 20
1503.465473
 30
0.0
  0
POINT
  5
31A
330
311
100
AcDbEntity
  8
Defpoints
 62
     0
100
AcDbPoint
 10
250.0
 20
1503.465473
 30
0.0
  0
ENDBLK
  5
31C
330
311
100
AcDbEntity
  8
0
100
AcDbBlockEnd
  0
BLOCK
  5
329
330
31E
100
AcDbEntity
  8
0
100
AcDbBlockBegin
  2
*D14
 70
     1
 71
     0
 10
0.0
 20
0.0
 30
0.0
  3
*D14
  1

  0
LINE
  5
31F
330
31E
100
AcDbEntity
  8
LC-005-003-----0
 62
     2
370
    -2
100
AcDbLine
 10
1456.901653
 20
1537.265473
 30
0.0
 11
1568.0
 21
1537.265473
 31
0.0
  0
LINE
  5
320
330
31E
100
AcDbEntity
  8
LC-005-003-----0
 62
     2
370
    -2
100
AcDbLine
 10
1456.901653
 20
1990.365473
 30
0.0
 11
1568.0
 21
1990.365473
 31
0.0
  0
LINE
  5
321
330
31E
100
AcDbEntity
  8
LC-005-003-----0
 62
     2
370
    -2
100
AcDbLine
 10
1550.0
 20
1562.265473
 30
0.0
 11
1550.0
 21
1715.075474
 31
0.0
  0
LINE
  5
322
330
31E
100
AcDbEntity
  8
LC-005-003-----0
 62
     2
370
    -2
100
AcDbLine
 10
1550.0
 20
1965.365473
 30
0.0
 11
1550.0
 21
1812.555472
 31
0.0
  0
SOLID
  5
323
330
31E
100
AcDbEntity
  8
LC-005-003-----0
 62
     2
100
AcDbTrace
 10
1545.833333
 20
1562.265473
 30
0.0
 11
1554.166667
 21
1562.265473
 31
0.0
 12
1550.0
 22
1537.265473
 32
0.0
 13
1550.0
 23
1537.265473
 33
0.0
  0
SOLID
  5
324
330
31E
100
AcDbEntity
  8
LC-005-003-----0
 62
     2
100
AcDbTrace
 10
1554.166667
 20
1965.365473
 30
0.0
 11
1545.833333
 21
1965.365473
 31
0.0
 12
1550.0
 22
1990.365473
 32
0.0
 13
1550.0
 23
1990.365473
 33
0.0
  0
MTEXT
  5
325
330
31E
100
AcDbEntity
  8
LC-005-003-----0
 62
     2
100
AcDbMText
 10
1520.0
 20
1763.815473
 30
0.0
 40
25.0
 41
0.0
 71
     5
 72
     1
  1
\A1;453,1
  7
LCTX0-400-0-0pDIN-Schrift
 11
6.123031769111886E-17
 21
1.0
 31
0.0
 73
     1
 44
1.0
  0
POINT
  5
326
330
31E
100
AcDbEntity
  8
Defpoints
 62
     0
100
AcDbPoint
 10
1456.901653
 20
1537.265473
 30
0.0
  0
POINT
  5
327
330
31E
100
AcDbEntity
  8
Defpoints
 62
     0
100
AcDbPoint
 10
1456.901653
 20
1990.365473
 30
0.0
  0
POINT
  5
328
330
31E
100
AcDbEntity
  8
Defpoints
 62
     0
100
AcDbPoint
 10
1550.0
 20
1990.365473
 30
0.0
  0
ENDBLK
  5
32A
330
31E
100
AcDbEntity
  8
0
100
AcDbBlockEnd
  0
BLOCK
  5
337
330
32C
100
AcDbEntity
  8
0
100
AcDbBlockBegin
  2
*D15
 70
     1
 71
     0
 10
0.0
 20
0.0
 30
0.0
  3
*D15
  1

  0
LINE
  5
32D
330
32C
100
AcDbEntity
  8
LC-005-003-----0
 62
     2
370
    -2
100
AcDbLine
 10
1868.257705
 20
1537.265473
 30
0.0
 11
1968.0
 21
1537.265473
 31
0.0
  0
LINE
  5
32E
330
32C
100
AcDbEntity
  8
LC-005-003-----0
 62
     2
370
    -2
100
AcDbLine
 10
1868.257705
 20
1921.440473
 30
0.0
 11
1968.0
 21
1921.440473
 31
0.0
  0
LINE
  5
32F
330
32C
100
AcDbEntity
  8
LC-005-003-----0
 62
     2
370
    -2
100
AcDbLine
 10
1950.0
 20
1562.265473
 30
0.0
 11
1950.0
 21
1671.836724
 31
0.0
  0
LINE
  5
330
330
32C
100
AcDbEntity
  8
LC-005-003-----0
 62
     2
370
    -2
100
AcDbLine
 10
1950.0
 20
1896.440473
 30
0.0
 11
1950.0
 21
1786.869222
 31
0.0
  0
SOLID
  5
331
330
32C
100
AcDbEntity
  8
LC-005-003-----0
 62
     2
100
AcDbTrace
 10
1945.833333
 20
1562.265473
 30
0.0
 11
1954.166667
 21
1562.265473
 31
0.0
 12
1950.0
 22
1537.265473
 32
0.0
 13
1950.0
 23
1537.265473
 33
0.0
  0
SOLID
  5
332
330
32C
100
AcDbEntity
  8
LC-005-003-----0
 62
     2
100
AcDbTrace
 10
1954.166667
 20
1896.440473
 30
0.0
 11
1945.833333
 21
1896.440473
 31
0.0
 12
1950.0
 22
1921.440473
 32
0.0
 13
1950.0
 23
1921.440473
 33
0.0
  0
MTEXT
  5
333
330
32C
100
AcDbEntity
  8
LC-005-003-----0
 62
     2
100
AcDbMText
 10
1920.0
 20
1729.352973
 30
0.0
 40
25.0
 41
0.0
 71
     5
 72
     1
  1
\A1;384,17
  7
LCTX0-400-0-0pDIN-Schrift
 11
6.123031769111886E-17
 21
1.0
 31
0.0
 73
     1
 44
1.0
  0
POINT
  5
334
330
32C
100
AcDbEntity
  8
Defpoints
 62
     0
100
AcDbPoint
 10
1868.257705
 20
1537.265473
 30
0.0
  0
POINT
  5
335
330
32C
100
AcDbEntity
  8
Defpoints
 62
     0
100
AcDbPoint
 10
1868.257705
 20
1921.440473
 30
0.0
  0
POINT
  5
336
330
32C
100
AcDbEntity
  8
Defpoints
 62
     0
100
AcDbPoint
 10
1950.0
 20
1921.440473
 30
0.0
  0
ENDBLK
  5
338
330
32C
100
AcDbEntity
  8
0
100
AcDbBlockEnd
  0
BLOCK
  5
346
330
33A
100
AcDbEntity
  8
0
100
AcDbBlockBegin
  2
*D16
 70
     1
 71
     0
 10
0.0
 20
0.0
 30
0.0
  3
*D16
  1

  0
LINE
  5
33B
330
33A
100
AcDbEntity
  8
LC-005-003-----0
 62
     2
370
    -2
100
AcDbLine
 10
780.775401
 20
2593.544233
 30
0.0
 11
780.775401
 21
2718.0
 31
0.0
  0
LINE
  5
33C
330
33A
100
AcDbEntity
  8
LC-005-003-----0
 62
     2
370
    -2
100
AcDbLine
 10
809.775401
 20
2593.544233
 30
0.0
 11
809.775401
 21
2718.0
 31
0.0
  0
LINE
  5
33D
330
33A
100
AcDbEntity
  8
LC-005-003-----0
 62
     2
370
    -2
100
AcDbLine
 10
755.775401
 20
2700.0
 30
0.0
 11
730.775401
 21
2700.0
 31
0.0
  0
LINE
  5
33E
330
33A
100
AcDbEntity
  8
LC-005-003-----0
 62
     2
370
    -2
100
AcDbLine
 10
834.775401
 20
2700.0
 30
0.0
 11
859.775401
 21
2700.0
 31
0.0
  0
LINE
  5
33F
330
33A
100
AcDbEntity
  8
LC-005-003-----0
 62
     2
370
    -2
100
AcDbLine
 10
780.775401
 20
2700.0
 30
0.0
 11
809.775401
 21
2700.0
 31
0.0
  0
SOLID
  5
340
330
33A
100
AcDbEntity
  8
LC-005-003-----0
 62
     2
100
AcDbTrace
 10
755.775401
 20
2695.833333
 30
0.0
 11
755.775401
 21
2704.166667
 31
0.0
 12
780.775401
 22
2700.0
 32
0.0
 13
780.775401
 23
2700.0
 33
0.0
  0
SOLID
  5
341
330
33A
100
AcDbEntity
  8
LC-005-003-----0
 62
     2
100
AcDbTrace
 10
834.775401
 20
2704.166667
 30
0.0
 11
834.775401
 21
2695.833333
 31
0.0
 12
809.775401
 22
2700.0
 32
0.0
 13
809.775401
 23
2700.0
 33
0.0
  0
MTEXT
  5
342
330
33A
100
AcDbEntity
  8
LC-005-003-----0
 62
     2
100
AcDbMText
 10
795.275401
 20
2730.0
 30
0.0
 40
25.0
 41
0.0
 71
     5
 72
     1
  1
\A1;29
  7
LCTX0-400-0-0pDIN-Schrift
 73
     1
 44
1.0
  0
POINT
  5
343
330
33A
100
AcDbEntity
  8
Defpoints
 62
     0
100
AcDbPoint
 10
780.775401
 20
2593.544233
 30
0.0
  0
POINT
  5
344
330
33A
100
AcDbEntity
  8
Defpoints
 62
     0
100
AcDbPoint
 10
809.775401
 20
2593.544233
 30
0.0
  0
POINT
  5
345
330
33A
100
AcDbEntity
  8
Defpoints
 62
     0
100
AcDbPoint
 10
809.775401
 20
2700.0
 30
0.0
  0
ENDBLK
  5
347
330
33A
100
AcDbEntity
  8
0
100
AcDbBlockEnd
  0
BLOCK
  5
354
330
349
100
AcDbEntity
  8
0
100
AcDbBlockBegin
  2
*D17
 70
     1
 71
     0
 10
0.0
 20
0.0
 30
0.0
  3
*D17
  1

  0
LINE
  5
34A
330
349
100
AcDbEntity
  8
LC-005-003-----0
 62
     2
370
    -2
100
AcDbLine
 10
809.775401
 20
2593.544233
 30
0.0
 11
809.775401
 21
2818.0
 31
0.0
  0
LINE
  5
34B
330
349
100
AcDbEntity
  8
LC-005-003-----0
 62
     2
370
    -2
100
AcDbLine
 10
1103.175401
 20
2618.544233
 30
0.0
 11
1103.175401
 21
2818.0
 31
0.0
  0
LINE
  5
34C
330
349
100
AcDbEntity
  8
LC-005-003-----0
 62
     2
370
    -2
100
AcDbLine
 10
834.775401
 20
2800.0
 30
0.0
 11
904.926652
 21
2800.0
 31
0.0
  0
LINE
  5
34D
330
349
100
AcDbEntity
  8
LC-005-003-----0
 62
     2
370
    -2
100
AcDbLine
 10
1078.175401
 20
2800.0
 30
0.0
 11
1008.02415
 21
2800.0
 31
0.0
  0
SOLID
  5
34E
330
349
100
AcDbEntity
  8
LC-005-003-----0
 62
     2
100
AcDbTrace
 10
834.775401
 20
2804.166667
 30
0.0
 11
834.775401
 21
2795.833333
 31
0.0
 12
809.775401
 22
2800.0
 32
0.0
 13
809.775401
 23
2800.0
 33
0.0
  0
SOLID
  5
34F
330
349
100
AcDbEntity
  8
LC-005-003-----0
 62
     2
100
AcDbTrace
 10
1078.175401
 20
2795.833333
 30
0.0
 11
1078.175401
 21
2804.166667
 31
0.0
 12
1103.175401
 22
2800.0
 32
0.0
 13
1103.175401
 23
2800.0
 33
0.0
  0
MTEXT
  5
350
330
349
100
AcDbEntity
  8
LC-005-003-----0
 62
     2
100
AcDbMText
 10
956.475401
 20
2830.0
 30
0.0
 40
25.0
 41
0.0
 71
     5
 72
     1
  1
\A1;293,4
  7
LCTX0-400-0-0pDIN-Schrift
 73
     1
 44
1.0
  0
POINT
  5
351
330
349
100
AcDbEntity
  8
Defpoints
 62
     0
100
AcDbPoint
 10
809.775401
 20
2593.544233
 30
0.0
  0
POINT
  5
352
330
349
100
AcDbEntity
  8
Defpoints
 62
     0
100
AcDbPoint
 10
1103.175401
 20
2618.544233
 30
0.0
  0
POINT
  5
353
330
349
100
AcDbEntity
  8
Defpoints
 62
     0
100
AcDbPoint
 10
1103.175401
 20
2800.0
 30
0.0
  0
ENDBLK
  5
355
330
349
100
AcDbEntity
  8
0
100
AcDbBlockEnd
  0
BLOCK
  5
362
330
357
100
AcDbEntity
  8
0
100
AcDbBlockBegin
  2
*D18
 70
     1
 71
     0
 10
0.0
 20
0.0
 30
0.0
  3
*D18
  1

  0
LINE
  5
358
330
357
100
AcDbEntity
  8
LC-005-003-----0
 62
     2
370
    -2
100
AcDbLine
 10
780.775401
 20
2593.544233
 30
0.0
 11
780.775401
 21
2818.0
 31
0.0
  0
LINE
  5
359
330
357
100
AcDbEntity
  8
LC-005-003-----0
 62
     2
370
    -2
100
AcDbLine
 10
383.375401
 20
2618.544233
 30
0.0
 11
383.375401
 21
2818.0
 31
0.0
  0
LINE
  5
35A
330
357
100
AcDbEntity
  8
LC-005-003-----0
 62
     2
370
    -2
100
AcDbLine
 10
755.775401
 20
2800.0
 30
0.0
 11
633.5979
 21
2800.0
 31
0.0
  0
LINE
  5
35B
330
357
100
AcDbEntity
  8
LC-005-003-----0
 62
     2
370
    -2
100
AcDbLine
 10
408.375401
 20
2800.0
 30
0.0
 11
530.552902
 21
2800.0
 31
0.0
  0
SOLID
  5
35C
330
357
100
AcDbEntity
  8
LC-005-003-----0
 62
     2
100
AcDbTrace
 10
755.775401
 20
2795.833333
 30
0.0
 11
755.775401
 21
2804.166667
 31
0.0
 12
780.775401
 22
2800.0
 32
0.0
 13
780.775401
 23
2800.0
 33
0.0
  0
SOLID
  5
35D
330
357
100
AcDbEntity
  8
LC-005-003-----0
 62
     2
100
AcDbTrace
 10
408.375401
 20
2804.166667
 30
0.0
 11
408.375401
 21
2795.833333
 31
0.0
 12
383.375401
 22
2800.0
 32
0.0
 13
383.375401
 23
2800.0
 33
0.0
  0
MTEXT
  5
35E
330
357
100
AcDbEntity
  8
LC-005-003-----0
 62
     2
100
AcDbMText
 10
582.075401
 20
2830.0
 30
0.0
 40
25.0
 41
0.0
 71
     5
 72
     1
  1
\A1;397,4
  7
LCTX0-400-0-0pDIN-Schrift
 73
     1
 44
1.0
  0
POINT
  5
35F
330
357
100
AcDbEntity
  8
Defpoints
 62
     0
100
AcDbPoint
 10
780.775401
 20
2593.544233
 30
0.0
  0
POINT
  5
360
330
357
100
AcDbEntity
  8
Defpoints
 62
     0
100
AcDbPoint
 10
383.375401
 20
2618.544233
 30
0.0
  0
POINT
  5
361
330
357
100
AcDbEntity
  8
Defpoints
 62
     0
100
AcDbPoint
 10
383.375401
 20
2800.0
 30
0.0
  0
ENDBLK
  5
363
330
357
100
AcDbEntity
  8
0
100
AcDbBlockEnd
  0
BLOCK
  5
36E
330
366
100
AcDbEntity
  8
0
100
AcDbBlockBegin
  2
*D19
 70
     1
 71
     0
 10
0.0
 20
0.0
 30
0.0
  3
*D19
  1

  0
LINE
  5
367
330
366
100
AcDbEntity
  8
LC-005-003-----0
 62
     2
370
    -2
100
AcDbLine
 10
950.0
 20
2593.544233
 30
0.0
 11
950.0
 21
2414.944231
 31
0.0
  0
SOLID
  5
368
330
366
100
AcDbEntity
  8
LC-005-003-----0
 62
     2
100
AcDbTrace
 10
954.166667
 20
2593.544233
 30
0.0
 11
945.833333
 21
2593.544233
 31
0.0
 12
950.0
 22
2618.544233
 32
0.0
 13
950.0
 23
2618.544233
 33
0.0
  0
SOLID
  5
369
330
366
100
AcDbEntity
  8
LC-005-003-----0
 62
     2
100
AcDbTrace
 10
945.833333
 20
2414.944231
 30
0.0
 11
954.166667
 21
2414.944231
 31
0.0
 12
950.0
 22
2389.944231
 32
0.0
 13
950.0
 23
2389.944231
 33
0.0
  0
MTEXT
  5
36A
330
366
100
AcDbEntity
  8
LC-005-003-----0
 62
     2
100
AcDbMText
 10
920.0
 20
2504.244232
 30
0.0
 40
25.0
 41
0.0
 71
     5
 72
     1
  1
\A1;228,6
  7
LCTX0-400-0-0pDIN-Schrift
 11
6.123031769111886E-17
 21
1.0
 31
0.0
 73
     1
 44
1.0
  0
POINT
  5
36B
330
366
100
AcDbEntity
  8
Defpoints
 62
     0
100
AcDbPoint
 10
1106.777017
 20
2618.544233
 30
0.0
  0
POINT
  5
36C
330
366
100
AcDbEntity
  8
Defpoints
 62
     0
100
AcDbPoint
 10
956.475401
 20
2389.944231
 30
0.0
  0
POINT
  5
36D
330
366
100
AcDbEntity
  8
Defpoints
 62
     0
100
AcDbPoint
 10
950.0
 20
2389.944231
 30
0.0
  0
ENDBLK
  5
36F
330
366
100
AcDbEntity
  8
0
100
AcDbBlockEnd
  0
BLOCK
  5
379
330
371
100
AcDbEntity
  8
0
100
AcDbBlockBegin
  2
*D20
 70
     1
 71
     0
 10
0.0
 20
0.0
 30
0.0
  3
*D20
  1

  0
LINE
  5
372
330
371
100
AcDbEntity
  8
LC-005-003-----0
 62
     2
370
    -2
100
AcDbLine
 10
550.0
 20
2593.544233
 30
0.0
 11
550.0
 21
2414.944231
 31
0.0
  0
SOLID
  5
373
330
371
100
AcDbEntity
  8
LC-005-003-----0
 62
     2
100
AcDbTrace
 10
554.166667
 20
2593.544233
 30
0.0
 11
545.833333
 21
2593.544233
 31
0.0
 12
550.0
 22
2618.544233
 32
0.0
 13
550.0
 23
2618.544233
 33
0.0
  0
SOLID
  5
374
330
371
100
AcDbEntity
  8
LC-005-003-----0
 62
     2
100
AcDbTrace
 10
545.833333
 20
2414.944231
 30
0.0
 11
554.166667
 21
2414.944231
 31
0.0
 12
550.0
 22
2389.944231
 32
0.0
 13
550.0
 23
2389.944231
 33
0.0
  0
MTEXT
  5
375
330
371
100
AcDbEntity
  8
LC-005-003-----0
 62
     2
100
AcDbMText
 10
520.0
 20
2504.244232
 30
0.0
 40
25.0
 41
0.0
 71
     5
 72
     1
  1
\A1;228,6
  7
LCTX0-400-0-0pDIN-Schrift
 11
6.123031769111886E-17
 21
1.0
 31
0.0
 73
     1
 44
1.0
  0
POINT
  5
376
330
371
100
AcDbEntity
  8
Defpoints
 62
     0
100
AcDbPoint
 10
379.773785
 20
2618.544233
 30
0.0
  0
POINT
  5
377
330
371
100
AcDbEntity
  8
Defpoints
 62
     0
100
AcDbPoint
 10
582.075401
 20
2389.944231
 30
0.0
  0
POINT
  5
378
330
371
100
AcDbEntity
  8
Defpoints
 62
     0
100
AcDbPoint
 10
550.0
 20
2389.944231
 30
0.0
  0
ENDBLK
  5
37A
330
371
100
AcDbEntity
  8
0
100
AcDbBlockEnd
  0
BLOCK
  5
386
330
37C
100
AcDbEntity
  8
0
100
AcDbBlockBegin
  2
*D21
 70
     1
 71
     0
 10
0.0
 20
0.0
 30
0.0
  3
*D21
  1

  0
LINE
  5
37D
330
37C
100
AcDbEntity
  8
LC-005-003-----0
 62
     2
370
    -2
100
AcDbLine
 10
1136.975401
 20
2012.165473
 30
0.0
 11
1136.975401
 21
2218.0
 31
0.0
  0
LINE
  5
37E
330
37C
100
AcDbEntity
  8
LC-005-003-----0
 62
     2
370
    -2
100
AcDbLine
 10
813.275401
 20
1987.715473
 30
0.0
 11
813.275401
 21
2218.0
 31
0.0
  0
LINE
  5
37F
330
37C
100
AcDbEntity
  8
LC-005-003-----0
 62
     2
370
    -2
100
AcDbLine
 10
1111.975401
 20
2200.0
 30
0.0
 11
838.275401
 21
2200.0
 31
0.0
  0
SOLID
  5
380
330
37C
100
AcDbEntity
  8
LC-005-003-----0
 62
     2
100
AcDbTrace
 10
1111.975401
 20
2195.833333
 30
0.0
 11
1111.975401
 21
2204.166667
 31
0.0
 12
1136.975401
 22
2200.0
 32
0.0
 13
1136.975401
 23
2200.0
 33
0.0
  0
SOLID
  5
381
330
37C
100
AcDbEntity
  8
LC-005-003-----0
 62
     2
100
AcDbTrace
 10
838.275401
 20
2204.166667
 30
0.0
 11
838.275401
 21
2195.833333
 31
0.0
 12
813.275401
 22
2200.0
 32
0.0
 13
813.275401
 23
2200.0
 33
0.0
  0
MTEXT
  5
382
330
37C
100
AcDbEntity
  8
LC-005-003-----0
 62
     2
100
AcDbMText
 10
975.125401
 20
2230.0
 30
0.0
 40
25.0
 41
0.0
 71
     5
 72
     1
  1
\A1;323,7
  7
LCTX0-400-0-0pDIN-Schrift
 73
     1
 44
1.0
  0
POINT
  5
383
330
37C
100
AcDbEntity
  8
Defpoints
 62
     0
100
AcDbPoint
 10
1136.975401
 20
2012.165473
 30
0.0
  0
POINT
  5
384
330
37C
100
AcDbEntity
  8
Defpoints
 62
     0
100
AcDbPoint
 10
813.275401
 20
1987.715473
 30
0.0
  0
POINT
  5
385
330
37C
100
AcDbEntity
  8
Defpoints
 62
     0
100
AcDbPoint
 10
813.275401
 20
2200.0
 30
0.0
  0
ENDBLK
  5
387
330
37C
100
AcDbEntity
  8
0
100
AcDbBlockEnd
  0
BLOCK
  5
395
330
389
100
AcDbEntity
  8
0
100
AcDbBlockBegin
  2
*D22
 70
     1
 71
     0
 10
0.0
 20
0.0
 30
0.0
  3
*D22
  1

  0
LINE
  5
38A
330
389
100
AcDbEntity
  8
LC-005-003-----0
 62
     2
370
    -2
100
AcDbLine
 10
743.275401
 20
2024.165473
 30
0.0
 11
682.0
 21
2024.165473
 31
0.0
  0
LINE
  5
38B
330
389
100
AcDbEntity
  8
LC-005-003-----0
 62
     2
370
    -2
100
AcDbLine
 10
794.225401
 20
1968.665473
 30
0.0
 11
682.0
 21
1968.665473
 31
0.0
  0
LINE
  5
38C
330
389
100
AcDbEntity
  8
LC-005-003-----0
 62
     2
370
    -2
100
AcDbLine
 10
700.0
 20
1943.665473
 30
0.0
 11
700.0
 21
1918.665473
 31
0.0
  0
LINE
  5
38D
330
389
100
AcDbEntity
  8
LC-005-003-----0
 62
     2
370
    -2
100
AcDbLine
 10
700.0
 20
2049.165473
 30
0.0
 11
700.0
 21
2096.500682
 31
0.0
  0
LINE
  5
38E
330
389
100
AcDbEntity
  8
LC-005-003-----0
 62
     2
370
    -2
100
AcDbLine
 10
700.0
 20
2024.165473
 30
0.0
 11
700.0
 21
1968.665473
 31
0.0
  0
SOLID
  5
38F
330
389
100
AcDbEntity
  8
LC-005-003-----0
 62
     2
100
AcDbTrace
 10
695.833333
 20
2049.165473
 30
0.0
 11
704.166667
 21
2049.165473
 31
0.0
 12
700.0
 22
2024.165473
 32
0.0
 13
700.0
 23
2024.165473
 33
0.0
  0
SOLID
  5
390
330
389
100
AcDbEntity
  8
LC-005-003-----0
 62
     2
100
AcDbTrace
 10
704.166667
 20
1943.665473
 30
0.0
 11
695.833333
 21
1943.665473
 31
0.0
 12
700.0
 22
1968.665473
 32
0.0
 13
700.0
 23
1968.665473
 33
0.0
  0
MTEXT
  5
391
330
389
100
AcDbEntity
  8
LC-005-003-----0
 62
     2
100
AcDbMText
 10
670.0
 20
2053.605682
 30
0.0
 40
25.0
 41
0.0
 71
     5
 72
     1
  1
\A1;55,5
  7
LCTX0-400-0-0pDIN-Schrift
 11
6.123031769111886E-17
 21
1.0
 31
0.0
 73
     1
 44
1.0
  0
POINT
  5
392
330
389
100
AcDbEntity
  8
Defpoints
 62
     0
100
AcDbPoint
 10
743.275401
 20
2024.165473
 30
0.0
  0
POINT
  5
393
330
389
100
AcDbEntity
  8
Defpoints
 62
     0
100
AcDbPoint
 10
794.225401
 20
1968.665473
 30
0.0
  0
POINT
  5
394
330
389
100
AcDbEntity
  8
Defpoints
 62
     0
100
AcDbPoint
 10
700.0
 20
1968.665473
 30
0.0
  0
ENDBLK
  5
396
330
389
100
AcDbEntity
  8
0
100
AcDbBlockEnd
  0
BLOCK
  5
3A4
330
398
100
AcDbEntity
  8
0
100
AcDbBlockBegin
  2
*D23
 70
     1
 71
     0
 10
0.0
 20
0.0
 30
0.0
  3
*D23
  1

  0
LINE
  5
399
330
398
100
AcDbEntity
  8
LC-005-003-----0
 62
     2
370
    -2
100
AcDbLine
 10
743.275401
 20
2618.544233
 30
0.0
 11
632.0
 21
2618.544233
 31
0.0
  0
LINE
  5
39A
330
398
100
AcDbEntity
  8
LC-005-003-----0
 62
     2
370
    -2
100
AcDbLine
 10
785.277421
 20
2573.544233
 30
0.0
 11
632.0
 21
2573.544233
 31
0.0
  0
LINE
  5
39B
330
398
100
AcDbEntity
  8
LC-005-003-----0
 62
     2
370
    -2
100
AcDbLine
 10
650.0
 20
2643.544233
 30
0.0
 11
650.0
 21
2668.544233
 31
0.0
  0
LINE
  5
39C
330
398
100
AcDbEntity
  8
LC-005-003-----0
 62
     2
370
    -2
100
AcDbLine
 10
650.0
 20
2548.544233
 30
0.0
 11
650.0
 21
2523.544233
 31
0.0
  0
LINE
  5
39D
330
398
100
AcDbEntity
  8
LC-005-003-----0
 62
     2
370
    -2
100
AcDbLine
 10
650.0
 20
2618.544233
 30
0.0
 11
650.0
 21
2573.544233
 31
0.0
  0
SOLID
  5
39E
330
398
100
AcDbEntity
  8
LC-005-003-----0
 62
     2
100
AcDbTrace
 10
645.833333
 20
2643.544233
 30
0.0
 11
654.166667
 21
2643.544233
 31
0.0
 12
650.0
 22
2618.544233
 32
0.0
 13
650.0
 23
2618.544233
 33
0.0
  0
SOLID
  5
39F
330
398
100
AcDbEntity
  8
LC-005-003-----0
 62
     2
100
AcDbTrace
 10
654.166667
 20
2548.544233
 30
0.0
 11
645.833333
 21
2548.544233
 31
0.0
 12
650.0
 22
2573.544233
 32
0.0
 13
650.0
 23
2573.544233
 33
0.0
  0
MTEXT
  5
3A0
330
398
100
AcDbEntity
  8
LC-005-003-----0
 62
     2
100
AcDbMText
 10
620.0
 20
2596.044233
 30
0.0
 40
25.0
 41
0.0
 71
     5
 72
     1
  1
\A1;45
  7
LCTX0-400-0-0pDIN-Schrift
 11
6.123031769111886E-17
 21
1.0
 31
0.0
 73
     1
 44
1.0
  0
POINT
  5
3A1
330
398
100
AcDbEntity
  8
Defpoints
 62
     0
100
AcDbPoint
 10
743.275401
 20
2618.544233
 30
0.0
  0
POINT
  5
3A2
330
398
100
AcDbEntity
  8
Defpoints
 62
     0
100
AcDbPoint
 10
785.277421
 20
2573.544233
 30
0.0
  0
POINT
  5
3A3
330
398
100
AcDbEntity
  8
Defpoints
 62
     0
100
AcDbPoint
 10
650.0
 20
2573.544233
 30
0.0
  0
ENDBLK
  5
3A5
330
398
100
AcDbEntity
  8
0
100
AcDbBlockEnd
  0
BLOCK
  5
3AE
330
3AD
100
AcDbEntity
  8
0
100
AcDbBlockBegin
  2
*X824
 70
     1
 71
     0
 10
0.0
 20
0.0
 30
0.0
  3
*X824
  1

  4
*X8
  0
LINE
  5
3B0
330
3AD
100
AcDbEntity
  8
LC-008-005-----0
 62
     7
370
    25
100
AcDbLine
 10
339.161341
 20
2571.544233
 30
0.0
 11
339.768346
 21
2575.631886
 31
0.0
  0
LINE
  5
3B1
330
3AD
100
AcDbEntity
  8
LC-008-005-----0
 62
     7
370
    25
100
AcDbLine
 10
339.768346
 20
2575.631886
 30
0.0
 11
336.030545
 21
2583.128413
 31
0.0
  0
LINE
  5
3B2
330
3AD
100
AcDbEntity
  8
LC-008-005-----0
 62
     7
370
    25
100
AcDbLine
 10
359.575401
 20
2602.464867
 30
0.0
 11
354.022962
 21
2602.346498
 31
0.0
  0
LINE
  5
3B3
330
3AD
100
AcDbEntity
  8
LC-008-005-----0
 62
     7
370
    25
100
AcDbLine
 10
336.030545
 20
2583.128413
 30
0.0
 11
333.963159
 21
2590.742226
 31
0.0
  0
LINE
  5
3B4
330
3AD
100
AcDbEntity
  8
LC-008-005-----0
 62
     7
370
    25
100
AcDbLine
 10
354.022962
 20
2602.346498
 30
0.0
 11
346.875674
 21
2606.615275
 31
0.0
  0
LINE
  5
3B5
330
3AD
100
AcDbEntity
  8
LC-008-005-----0
 62
     7
370
    25
100
AcDbLine
 10
318.979489
 20
2571.544233
 30
0.0
 11
315.20916
 21
2573.80312
 31
0.0
  0
LINE
  5
3B6
330
3AD
100
AcDbEntity
  8
LC-008-005-----0
 62
     7
370
    25
100
AcDbLine
 10
338.80653
 20
2593.424219
 30
0.0
 11
333.963159
 21
2590.742226
 31
0.0
  0
LINE
  5
3B7
330
3AD
100
AcDbEntity
  8
LC-008-005-----0
 62
     7
370
    25
100
AcDbLine
 10
338.80653
 20
2593.424219
 30
0.0
 11
336.518462
 21
2595.810048
 31
0.0
  0
LINE
  5
3B8
330
3AD
100
AcDbEntity
  8
LC-008-005-----0
 62
     7
370
    25
100
AcDbLine
 10
315.20916
 20
2573.80312
 30
0.0
 11
310.076165
 21
2574.363748
 31
0.0
  0
LINE
  5
3B9
330
3AD
100
AcDbEntity
  8
LC-008-005-----0
 62
     7
370
    25
100
AcDbLine
 10
336.518462
 20
2595.810048
 30
0.0
 11
338.693805
 21
2604.003111
 31
0.0
  0
LINE
  5
3BA
330
3AD
100
AcDbEntity
  8
LC-008-005-----0
 62
     7
370
    25
100
AcDbLine
 10
346.875674
 20
2606.615275
 30
0.0
 11
341.995061
 21
2602.15275
 31
0.0
  0
LINE
  5
3BB
330
3AD
100
AcDbEntity
  8
LC-008-005-----0
 62
     7
370
    25
100
AcDbLine
 10
341.995061
 20
2602.15275
 30
0.0
 11
332.432127
 21
2608.0307
 31
0.0
  0
LINE
  5
3BC
330
3AD
100
AcDbEntity
  8
LC-008-005-----0
 62
     7
370
    25
100
AcDbLine
 10
308.072386
 20
2571.544233
 30
0.0
 11
306.60078
 21
2575.515707
 31
0.0
  0
LINE
  5
3BD
330
3AD
100
AcDbEntity
  8
LC-008-005-----0
 62
     7
370
    25
100
AcDbLine
 10
310.076165
 20
2574.363748
 30
0.0
 11
306.169613
 21
2574.838697
 31
0.0
  0
LINE
  5
3BE
330
3AD
100
AcDbEntity
  8
LC-008-005-----0
 62
     7
370
    25
100
AcDbLine
 10
338.693805
 20
2604.003111
 30
0.0
 11
333.25068
 21
2609.906222
 31
0.0
  0
LINE
  5
3BF
330
3AD
100
AcDbEntity
  8
LC-008-005-----0
 62
     7
370
    25
100
AcDbLine
 10
306.169613
 20
2574.838697
 30
0.0
 11
301.748099
 21
2578.642833
 31
0.0
  0
LINE
  5
3C0
330
3AD
100
AcDbEntity
  8
LC-008-005-----0
 62
     7
370
    25
100
AcDbLine
 10
306.60078
 20
2575.515707
 30
0.0
 11
309.832206
 21
2580.704566
 31
0.0
  0
LINE
  5
3C1
330
3AD
100
AcDbEntity
  8
LC-008-005-----0
 62
     7
370
    25
100
AcDbLine
 10
309.832206
 20
2580.704566
 30
0.0
 11
307.286214
 21
2585.327254
 31
0.0
  0
LINE
  5
3C2
330
3AD
100
AcDbEntity
  8
LC-008-005-----0
 62
     7
370
    25
100
AcDbLine
 10
332.432127
 20
2608.0307
 30
0.0
 11
325.993549
 21
2603.600762
 31
0.0
  0
LINE
  5
3C3
330
3AD
100
AcDbEntity
  8
LC-008-005-----0
 62
     7
370
    25
100
AcDbLine
 10
301.748099
 20
2578.642833
 30
0.0
 11
296.710093
 21
2579.984772
 31
0.0
  0
LINE
  5
3C4
330
3AD
100
AcDbEntity
  8
LC-008-005-----0
 62
     7
370
    25
100
AcDbLine
 10
325.993549
 20
2603.600762
 30
0.0
 11
316.119599
 21
2605.254604
 31
0.0
  0
LINE
  5
3C5
330
3AD
100
AcDbEntity
  8
LC-008-005-----0
 62
     7
370
    25
100
AcDbLine
 10
299.58707
 20
2590.204506
 30
0.0
 11
299.093546
 21
2593.699003
 31
0.0
  0
LINE
  5
3C6
330
3AD
100
AcDbEntity
  8
LC-008-005-----0
 62
     7
370
    25
100
AcDbLine
 10
277.451355
 20
2571.544233
 30
0.0
 11
280.110711
 21
2575.184296
 31
0.0
  0
LINE
  5
3C7
330
3AD
100
AcDbEntity
  8
LC-008-005-----0
 62
     7
370
    25
100
AcDbLine
 10
269.23743
 20
2571.544233
 30
0.0
 11
268.37055
 21
2572.266768
 31
0.0
  0
LINE
  5
3C8
330
3AD
100
AcDbEntity
  8
LC-008-005-----0
 62
     7
370
    25
100
AcDbLine
 10
299.093546
 20
2593.699003
 30
0.0
 11
301.965902
 21
2598.888912
 31
0.0
  0
LINE
  5
3C9
330
3AD
100
AcDbEntity
  8
LC-008-005-----0
 62
     7
370
    25
100
AcDbLine
 10
280.110711
 20
2575.184296
 30
0.0
 11
276.020719
 21
2579.106698
 31
0.0
  0
LINE
  5
3CA
330
3AD
100
AcDbEntity
  8
LC-008-005-----0
 62
     7
370
    25
100
AcDbLine
 10
301.965902
 20
2598.888912
 30
0.0
 11
305.508746
 21
2603.213922
 31
0.0
  0
LINE
  5
3CB
330
3AD
100
AcDbEntity
  8
LC-008-005-----0
 62
     7
370
    25
100
AcDbLine
 10
305.508746
 20
2603.213922
 30
0.0
 11
303.871902
 21
2610.520718
 31
0.0
  0
LINE
  5
3CC
330
3AD
100
AcDbEntity
  8
LC-008-005-----0
 62
     7
370
    25
100
AcDbLine
 10
281.155599
 20
2583.77871
 30
0.0
 11
276.020719
 21
2579.106698
 31
0.0
  0
LINE
  5
3CD
330
3AD
100
AcDbEntity
  8
LC-008-005-----0
 62
     7
370
    25
100
AcDbLine
 10
281.155599
 20
2583.77871
 30
0.0
 11
283.860868
 21
2587.509248
 31
0.0
  0
LINE
  5
3CE
330
3AD
100
AcDbEntity
  8
LC-008-005-----0
 62
     7
370
    25
100
AcDbLine
 10
283.860868
 20
2587.509248
 30
0.0
 11
279.817429
 21
2589.205985
 31
0.0
  0
LINE
  5
3CF
330
3AD
100
AcDbEntity
  8
LC-008-005-----0
 62
     7
370
    25
100
AcDbLine
 10
268.37055
 20
2572.266768
 30
0.0
 11
262.242988
 21
2572.472598
 31
0.0
  0
LINE
  5
3D0
330
3AD
100
AcDbEntity
  8
LC-008-005-----0
 62
     7
370
    25
100
AcDbLine
 10
285.297796
 20
2593.328564
 30
0.0
 11
280.34547
 21
2595.896946
 31
0.0
  0
LINE
  5
3D1
330
3AD
100
AcDbEntity
  8
LC-008-005-----0
 62
     7
370
    25
100
AcDbLine
 10
262.242988
 20
2572.472598
 30
0.0
 11
257.362375
 21
2576.935123
 31
0.0
  0
LINE
  5
3D2
330
3AD
100
AcDbEntity
  8
LC-008-005-----0
 62
     7
370
    25
100
AcDbLine
 10
280.34547
 20
2595.896946
 30
0.0
 11
275.516065
 21
2597.91124
 31
0.0
  0
LINE
  5
3D3
330
3AD
100
AcDbEntity
  8
LC-008-005-----0
 62
     7
370
    25
100
AcDbLine
 10
266.589131
 20
2582.917373
 30
0.0
 11
262.984285
 21
2579.613347
 31
0.0
  0
LINE
  5
3D4
330
3AD
100
AcDbEntity
  8
LC-008-005-----0
 62
     7
370
    25
100
AcDbLine
 10
266.589131
 20
2582.917373
 30
0.0
 11
266.419657
 21
2585.697127
 31
0.0
  0
LINE
  5
3D5
330
3AD
100
AcDbEntity
  8
LC-008-005-----0
 62
     7
370
    25
100
AcDbLine
 10
271.895369
 20
2590.042272
 30
0.0
 11
266.419657
 21
2585.697127
 31
0.0
  0
LINE
  5
3D6
330
3AD
100
AcDbEntity
  8
LC-008-005-----0
 62
     7
370
    25
100
AcDbLine
 10
271.895369
 20
2590.042272
 30
0.0
 11
271.992243
 21
2596.056223
 31
0.0
  0
LINE
  5
3D7
330
3AD
100
AcDbEntity
  8
LC-008-005-----0
 62
     7
370
    25
100
AcDbLine
 10
257.362375
 20
2576.935123
 30
0.0
 11
251.798212
 21
2576.818741
 31
0.0
  0
LINE
  5
3D8
330
3AD
100
AcDbEntity
  8
LC-008-005-----0
 62
     7
370
    25
100
AcDbLine
 10
275.516065
 20
2597.91124
 30
0.0
 11
270.860789
 21
2596.923213
 31
0.0
  0
LINE
  5
3D9
330
3AD
100
AcDbEntity
  8
LC-008-005-----0
 62
     7
370
    25
100
AcDbLine
 10
271.992243
 20
2596.056223
 30
0.0
 11
274.76457
 21
2601.903471
 31
0.0
  0
LINE
  5
3DA
330
3AD
100
AcDbEntity
  8
LC-008-005-----0
 62
     7
370
    25
100
AcDbLine
 10
270.860789
 20
2596.923213
 30
0.0
 11
265.189556
 21
2601.925861
 31
0.0
  0
LINE
  5
3DB
330
3AD
100
AcDbEntity
  8
LC-008-005-----0
 62
     7
370
    25
100
AcDbLine
 10
274.76457
 20
2601.903471
 30
0.0
 11
272.654401
 21
2606.980603
 31
0.0
  0
LINE
  5
3DC
330
3AD
100
AcDbEntity
  8
LC-008-005-----0
 62
     7
370
    25
100
AcDbLine
 10
239.911853
 20
2575.568134
 30
0.0
 11
242.271635
 21
2579.848106
 31
0.0
  0
LINE
  5
3DD
330
3AD
100
AcDbEntity
  8
LC-008-005-----0
 62
     7
370
    25
100
AcDbLine
 10
265.189556
 20
2601.925861
 30
0.0
 11
260.23069
 21
2599.484169
 31
0.0
  0
LINE
  5
3DE
330
3AD
100
AcDbEntity
  8
LC-008-005-----0
 62
     7
370
    25
100
AcDbLine
 10
242.271635
 20
2579.848106
 30
0.0
 11
240.416618
 21
2583.371928
 31
0.0
  0
LINE
  5
3DF
330
3AD
100
AcDbEntity
  8
LC-008-005-----0
 62
     7
370
    25
100
AcDbLine
 10
260.23069
 20
2599.484169
 30
0.0
 11
257.239564
 21
2604.097547
 31
0.0
  0
LINE
  5
3E0
330
3AD
100
AcDbEntity
  8
LC-008-005-----0
 62
     7
370
    25
100
AcDbLine
 10
244.466597
 20
2586.685265
 30
0.0
 11
240.416618
 21
2583.371928
 31
0.0
  0
LINE
  5
3E1
330
3AD
100
AcDbEntity
  8
LC-008-005-----0
 62
     7
370
    25
100
AcDbLine
 10
244.466597
 20
2586.685265
 30
0.0
 11
244.292468
 21
2589.687585
 31
0.0
  0
LINE
  5
3E2
330
3AD
100
AcDbEntity
  8
LC-008-005-----0
 62
     7
370
    25
100
AcDbLine
 10
244.292468
 20
2589.687585
 30
0.0
 11
248.096603
 21
2594.109099
 31
0.0
  0
LINE
  5
3E3
330
3AD
100
AcDbEntity
  8
LC-008-005-----0
 62
     7
370
    25
100
AcDbLine
 10
248.096603
 20
2594.109099
 30
0.0
 11
248.033314
 21
2602.45767
 31
0.0
  0
LINE
  5
3E4
330
3AD
100
AcDbEntity
  8
LC-008-005-----0
 62
     7
370
    25
100
AcDbLine
 10
257.239564
 20
2604.097547
 30
0.0
 11
252.394309
 21
2601.546899
 31
0.0
  0
LINE
  5
3E5
330
3AD
100
AcDbEntity
  8
LC-008-005-----0
 62
     7
370
    25
100
AcDbLine
 10
252.394309
 20
2601.546899
 30
0.0
 11
245.83281
 21
2606.530926
 31
0.0
  0
LINE
  5
3E6
330
3AD
100
AcDbEntity
  8
LC-008-005-----0
 62
     7
370
    25
100
AcDbLine
 10
248.033314
 20
2602.45767
 30
0.0
 11
251.510583
 21
2606.538352
 31
0.0
  0
LINE
  5
3E7
330
3AD
100
AcDbEntity
  8
LC-008-005-----0
 62
     7
370
    25
100
AcDbLine
 10
245.83281
 20
2606.530926
 30
0.0
 11
242.617233
 21
2605.907008
 31
0.0
  0
LINE
  5
3E8
330
3AD
100
AcDbEntity
  8
LC-008-005-----0
 62
     7
370
    25
100
AcDbLine
 10
333.25068
 20
2609.906222
 30
0.0
 11
334.499305
 21
2611.544233
 31
0.0
  0
LINE
  5
3E9
330
3AD
100
AcDbEntity
  8
LC-008-005-----0
 62
     7
370
    25
100
AcDbLine
 10
303.871902
 20
2610.520718
 30
0.0
 11
303.953617
 21
2611.544233
 31
0.0
  0
LINE
  5
3EA
330
3AD
100
AcDbEntity
  8
LC-008-005-----0
 62
     7
370
    25
100
AcDbLine
 10
272.654401
 20
2606.980603
 30
0.0
 11
274.127995
 21
2611.544233
 31
0.0
  0
LINE
  5
3EB
330
3AD
100
AcDbEntity
  8
LC-008-005-----0
 62
     7
370
    25
100
AcDbLine
 10
251.510583
 20
2606.538352
 30
0.0
 11
251.299276
 21
2611.544233
 31
0.0
  0
ENDBLK
  5
3AF
330
3AD
100
AcDbEntity
  8
0
100
AcDbBlockEnd
  0
BLOCK
  5
3F1
330
3F0
100
AcDbEntity
  8
0
100
AcDbBlockBegin
  2
*X925
 70
     1
 71
     0
 10
0.0
 20
0.0
 30
0.0
  3
*X925
  1

  4
*X9
  0
LINE
  5
3F3
330
3F0
100
AcDbEntity
  8
LC-008-005-----0
 62
     7
370
    25
100
AcDbLine
 10
1227.02074
 20
2571.544233
 30
0.0
 11
1227.568346
 21
2575.231886
 31
0.0
  0
LINE
  5
3F4
330
3F0
100
AcDbEntity
  8
LC-008-005-----0
 62
     7
370
    25
100
AcDbLine
 10
1227.568346
 20
2575.231886
 30
0.0
 11
1223.830545
 21
2582.728413
 31
0.0
  0
LINE
  5
3F5
330
3F0
100
AcDbEntity
  8
LC-008-005-----0
 62
     7
370
    25
100
AcDbLine
 10
1247.775401
 20
2602.073394
 30
0.0
 11
1241.822962
 21
2601.946498
 31
0.0
  0
LINE
  5
3F6
330
3F0
100
AcDbEntity
  8
LC-008-005-----0
 62
     7
370
    25
100
AcDbLine
 10
1223.830545
 20
2582.728413
 30
0.0
 11
1221.763159
 21
2590.342226
 31
0.0
  0
LINE
  5
3F7
330
3F0
100
AcDbEntity
  8
LC-008-005-----0
 62
     7
370
    25
100
AcDbLine
 10
1241.822962
 20
2601.946498
 30
0.0
 11
1234.675674
 21
2606.215275
 31
0.0
  0
LINE
  5
3F8
330
3F0
100
AcDbEntity
  8
LC-008-005-----0
 62
     7
370
    25
100
AcDbLine
 10
1206.111845
 20
2571.544233
 30
0.0
 11
1203.00916
 21
2573.40312
 31
0.0
  0
LINE
  5
3F9
330
3F0
100
AcDbEntity
  8
LC-008-005-----0
 62
     7
370
    25
100
AcDbLine
 10
1226.60653
 20
2593.024219
 30
0.0
 11
1221.763159
 21
2590.342226
 31
0.0
  0
LINE
  5
3FA
330
3F0
100
AcDbEntity
  8
LC-008-005-----0
 62
     7
370
    25
100
AcDbLine
 10
1226.60653
 20
2593.024219
 30
0.0
 11
1224.318462
 21
2595.410048
 31
0.0
  0
LINE
  5
3FB
330
3F0
100
AcDbEntity
  8
LC-008-005-----0
 62
     7
370
    25
100
AcDbLine
 10
1203.00916
 20
2573.40312
 30
0.0
 11
1197.876165
 21
2573.963748
 31
0.0
  0
LINE
  5
3FC
330
3F0
100
AcDbEntity
  8
LC-008-005-----0
 62
     7
370
    25
100
AcDbLine
 10
1224.318462
 20
2595.410048
 30
0.0
 11
1226.493805
 21
2603.603111
 31
0.0
  0
LINE
  5
3FD
330
3F0
100
AcDbEntity
  8
LC-008-005-----0
 62
     7
370
    25
100
AcDbLine
 10
1234.675674
 20
2606.215275
 30
0.0
 11
1229.795061
 21
2601.75275
 31
0.0
  0
LINE
  5
3FE
330
3F0
100
AcDbEntity
  8
LC-008-005-----0
 62
     7
370
    25
100
AcDbLine
 10
1229.795061
 20
2601.75275
 30
0.0
 11
1220.232127
 21
2607.6307
 31
0.0
  0
LINE
  5
3FF
330
3F0
100
AcDbEntity
  8
LC-008-005-----0
 62
     7
370
    25
100
AcDbLine
 10
1195.724168
 20
2571.544233
 30
0.0
 11
1194.40078
 21
2575.115707
 31
0.0
  0
LINE
  5
400
330
3F0
100
AcDbEntity
  8
LC-008-005-----0
 62
     7
370
    25
100
AcDbLine
 10
1197.876165
 20
2573.963748
 30
0.0
 11
1193.969613
 21
2574.438697
 31
0.0
  0
LINE
  5
401
330
3F0
100
AcDbEntity
  8
LC-008-005-----0
 62
     7
370
    25
100
AcDbLine
 10
1226.493805
 20
2603.603111
 30
0.0
 11
1221.05068
 21
2609.506222
 31
0.0
  0
LINE
  5
402
330
3F0
100
AcDbEntity
  8
LC-008-005-----0
 62
     7
370
    25
100
AcDbLine
 10
1193.969613
 20
2574.438697
 30
0.0
 11
1189.548099
 21
2578.242833
 31
0.0
  0
LINE
  5
403
330
3F0
100
AcDbEntity
  8
LC-008-005-----0
 62
     7
370
    25
100
AcDbLine
 10
1194.40078
 20
2575.115707
 30
0.0
 11
1197.632206
 21
2580.304566
 31
0.0
  0
LINE
  5
404
330
3F0
100
AcDbEntity
  8
LC-008-005-----0
 62
     7
370
    25
100
AcDbLine
 10
1197.632206
 20
2580.304566
 30
0.0
 11
1195.086214
 21
2584.927254
 31
0.0
  0
LINE
  5
405
330
3F0
100
AcDbEntity
  8
LC-008-005-----0
 62
     7
370
    25
100
AcDbLine
 10
1220.232127
 20
2607.6307
 30
0.0
 11
1213.793549
 21
2603.200762
 31
0.0
  0
LINE
  5
406
330
3F0
100
AcDbEntity
  8
LC-008-005-----0
 62
     7
370
    25
100
AcDbLine
 10
1189.548099
 20
2578.242833
 30
0.0
 11
1184.510093
 21
2579.584772
 31
0.0
  0
LINE
  5
407
330
3F0
100
AcDbEntity
  8
LC-008-005-----0
 62
     7
370
    25
100
AcDbLine
 10
1213.793549
 20
2603.200762
 30
0.0
 11
1203.919599
 21
2604.854604
 31
0.0
  0
LINE
  5
408
330
3F0
100
AcDbEntity
  8
LC-008-005-----0
 62
     7
370
    25
100
AcDbLine
 10
1187.38707
 20
2589.804506
 30
0.0
 11
1186.893546
 21
2593.299003
 31
0.0
  0
LINE
  5
409
330
3F0
100
AcDbEntity
  8
LC-008-005-----0
 62
     7
370
    25
100
AcDbLine
 10
1165.543587
 20
2571.544233
 30
0.0
 11
1167.910711
 21
2574.784296
 31
0.0
  0
LINE
  5
40A
330
3F0
100
AcDbEntity
  8
LC-008-005-----0
 62
     7
370
    25
100
AcDbLine
 10
1156.55752
 20
2571.544233
 30
0.0
 11
1156.17055
 21
2571.866768
 31
0.0
  0
LINE
  5
40B
330
3F0
100
AcDbEntity
  8
LC-008-005-----0
 62
     7
370
    25
100
AcDbLine
 10
1186.893546
 20
2593.299003
 30
0.0
 11
1189.765902
 21
2598.488912
 31
0.0
  0
LINE
  5
40C
330
3F0
100
AcDbEntity
  8
LC-008-005-----0
 62
     7
370
    25
100
AcDbLine
 10
1167.910711
 20
2574.784296
 30
0.0
 11
1163.820719
 21
2578.706698
 31
0.0
  0
LINE
  5
40D
330
3F0
100
AcDbEntity
  8
LC-008-005-----0
 62
     7
370
    25
100
AcDbLine
 10
1189.765902
 20
2598.488912
 30
0.0
 11
1193.308746
 21
2602.813922
 31
0.0
  0
LINE
  5
40E
330
3F0
100
AcDbEntity
  8
LC-008-005-----0
 62
     7
370
    25
100
AcDbLine
 10
1193.308746
 20
2602.813922
 30
0.0
 11
1191.671902
 21
2610.120718
 31
0.0
  0
LINE
  5
40F
330
3F0
100
AcDbEntity
  8
LC-008-005-----0
 62
     7
370
    25
100
AcDbLine
 10
1168.955599
 20
2583.37871
 30
0.0
 11
1163.820719
 21
2578.706698
 31
0.0
  0
LINE
  5
410
330
3F0
100
AcDbEntity
  8
LC-008-005-----0
 62
     7
370
    25
100
AcDbLine
 10
1168.955599
 20
2583.37871
 30
0.0
 11
1171.660868
 21
2587.109248
 31
0.0
  0
LINE
  5
411
330
3F0
100
AcDbEntity
  8
LC-008-005-----0
 62
     7
370
    25
100
AcDbLine
 10
1171.660868
 20
2587.109248
 30
0.0
 11
1167.617429
 21
2588.805985
 31
0.0
  0
LINE
  5
412
330
3F0
100
AcDbEntity
  8
LC-008-005-----0
 62
     7
370
    25
100
AcDbLine
 10
1156.17055
 20
2571.866768
 30
0.0
 11
1150.042988
 21
2572.072598
 31
0.0
  0
LINE
  5
413
330
3F0
100
AcDbEntity
  8
LC-008-005-----0
 62
     7
370
    25
100
AcDbLine
 10
1173.097796
 20
2592.928564
 30
0.0
 11
1168.14547
 21
2595.496946
 31
0.0
  0
LINE
  5
414
330
3F0
100
AcDbEntity
  8
LC-008-005-----0
 62
     7
370
    25
100
AcDbLine
 10
1150.042988
 20
2572.072598
 30
0.0
 11
1145.162375
 21
2576.535123
 31
0.0
  0
LINE
  5
415
330
3F0
100
AcDbEntity
  8
LC-008-005-----0
 62
     7
370
    25
100
AcDbLine
 10
1168.14547
 20
2595.496946
 30
0.0
 11
1163.316065
 21
2597.51124
 31
0.0
  0
LINE
  5
416
330
3F0
100
AcDbEntity
  8
LC-008-005-----0
 62
     7
370
    25
100
AcDbLine
 10
1154.389131
 20
2582.517373
 30
0.0
 11
1150.784285
 21
2579.213347
 31
0.0
  0
LINE
  5
417
330
3F0
100
AcDbEntity
  8
LC-008-005-----0
 62
     7
370
    25
100
AcDbLine
 10
1154.389131
 20
2582.517373
 30
0.0
 11
1154.219657
 21
2585.297127
 31
0.0
  0
LINE
  5
418
330
3F0
100
AcDbEntity
  8
LC-008-005-----0
 62
     7
370
    25
100
AcDbLine
 10
1159.695369
 20
2589.642272
 30
0.0
 11
1154.219657
 21
2585.297127
 31
0.0
  0
LINE
  5
419
330
3F0
100
AcDbEntity
  8
LC-008-005-----0
 62
     7
370
    25
100
AcDbLine
 10
1159.695369
 20
2589.642272
 30
0.0
 11
1159.792243
 21
2595.656223
 31
0.0
  0
LINE
  5
41A
330
3F0
100
AcDbEntity
  8
LC-008-005-----0
 62
     7
370
    25
100
AcDbLine
 10
1145.162375
 20
2576.535123
 30
0.0
 11
1139.598212
 21
2576.418741
 31
0.0
  0
LINE
  5
41B
330
3F0
100
AcDbEntity
  8
LC-008-005-----0
 62
     7
370
    25
100
AcDbLine
 10
1163.316065
 20
2597.51124
 30
0.0
 11
1158.660789
 21
2596.523213
 31
0.0
  0
LINE
  5
41C
330
3F0
100
AcDbEntity
  8
LC-008-005-----0
 62
     7
370
    25
100
AcDbLine
 10
1159.792243
 20
2595.656223
 30
0.0
 11
1162.56457
 21
2601.503471
 31
0.0
  0
LINE
  5
41D
330
3F0
100
AcDbEntity
  8
LC-008-005-----0
 62
     7
370
    25
100
AcDbLine
 10
1158.660789
 20
2596.523213
 30
0.0
 11
1152.989556
 21
2601.525861
 31
0.0
  0
LINE
  5
41E
330
3F0
100
AcDbEntity
  8
LC-008-005-----0
 62
     7
370
    25
100
AcDbLine
 10
1162.56457
 20
2601.503471
 30
0.0
 11
1160.454401
 21
2606.580603
 31
0.0
  0
LINE
  5
41F
330
3F0
100
AcDbEntity
  8
LC-008-005-----0
 62
     7
370
    25
100
AcDbLine
 10
1127.711853
 20
2575.168134
 30
0.0
 11
1130.071635
 21
2579.448106
 31
0.0
  0
LINE
  5
420
330
3F0
100
AcDbEntity
  8
LC-008-005-----0
 62
     7
370
    25
100
AcDbLine
 10
1152.989556
 20
2601.525861
 30
0.0
 11
1148.03069
 21
2599.084169
 31
0.0
  0
LINE
  5
421
330
3F0
100
AcDbEntity
  8
LC-008-005-----0
 62
     7
370
    25
100
AcDbLine
 10
1130.071635
 20
2579.448106
 30
0.0
 11
1128.216618
 21
2582.971928
 31
0.0
  0
LINE
  5
422
330
3F0
100
AcDbEntity
  8
LC-008-005-----0
 62
     7
370
    25
100
AcDbLine
 10
1148.03069
 20
2599.084169
 30
0.0
 11
1145.039564
 21
2603.697547
 31
0.0
  0
LINE
  5
423
330
3F0
100
AcDbEntity
  8
LC-008-005-----0
 62
     7
370
    25
100
AcDbLine
 10
1132.266597
 20
2586.285265
 30
0.0
 11
1128.216618
 21
2582.971928
 31
0.0
  0
LINE
  5
424
330
3F0
100
AcDbEntity
  8
LC-008-005-----0
 62
     7
370
    25
100
AcDbLine
 10
1132.266597
 20
2586.285265
 30
0.0
 11
1132.092468
 21
2589.287585
 31
0.0
  0
LINE
  5
425
330
3F0
100
AcDbEntity
  8
LC-008-005-----0
 62
     7
370
    25
100
AcDbLine
 10
1132.092468
 20
2589.287585
 30
0.0
 11
1135.896603
 21
2593.709099
 31
0.0
  0
LINE
  5
426
330
3F0
100
AcDbEntity
  8
LC-008-005-----0
 62
     7
370
    25
100
AcDbLine
 10
1135.896603
 20
2593.709099
 30
0.0
 11
1135.833314
 21
2602.05767
 31
0.0
  0
LINE
  5
427
330
3F0
100
AcDbEntity
  8
LC-008-005-----0
 62
     7
370
    25
100
AcDbLine
 10
1145.039564
 20
2603.697547
 30
0.0
 11
1140.194309
 21
2601.146899
 31
0.0
  0
LINE
  5
428
330
3F0
100
AcDbEntity
  8
LC-008-005-----0
 62
     7
370
    25
100
AcDbLine
 10
1140.194309
 20
2601.146899
 30
0.0
 11
1133.63281
 21
2606.130926
 31
0.0
  0
LINE
  5
429
330
3F0
100
AcDbEntity
  8
LC-008-005-----0
 62
     7
370
    25
100
AcDbLine
 10
1135.833314
 20
2602.05767
 30
0.0
 11
1139.310583
 21
2606.138352
 31
0.0
  0
LINE
  5
42A
330
3F0
100
AcDbEntity
  8
LC-008-005-----0
 62
     7
370
    25
100
AcDbLine
 10
1139.310583
 20
2606.138352
 30
0.0
 11
1139.089901
 21
2611.366337
 31
0.0
  0
LINE
  5
42B
330
3F0
100
AcDbEntity
  8
LC-008-005-----0
 62
     7
370
    25
100
AcDbLine
 10
1133.63281
 20
2606.130926
 30
0.0
 11
1130.417233
 21
2605.507008
 31
0.0
  0
LINE
  5
42C
330
3F0
100
AcDbEntity
  8
LC-008-005-----0
 62
     7
370
    25
100
AcDbLine
 10
1221.05068
 20
2609.506222
 30
0.0
 11
1222.604217
 21
2611.544233
 31
0.0
  0
LINE
  5
42D
330
3F0
100
AcDbEntity
  8
LC-008-005-----0
 62
     7
370
    25
100
AcDbLine
 10
1191.671902
 20
2610.120718
 30
0.0
 11
1191.785552
 21
2611.544233
 31
0.0
  0
LINE
  5
42E
330
3F0
100
AcDbEntity
  8
LC-008-005-----0
 62
     7
370
    25
100
AcDbLine
 10
1160.454401
 20
2606.580603
 30
0.0
 11
1162.057155
 21
2611.544233
 31
0.0
  0
ENDBLK
  5
3F2
330
3F0
100
AcDbEntity
  8
0
100
AcDbBlockEnd
  0
BLOCK
  5
432
330
431
100
AcDbEntity
  8
0
100
AcDbBlockBegin
  2
*X1026
 70
     1
 71
     0
 10
0.0
 20
0.0
 30
0.0
  3
*X1026
  1

  4
*X10
  0
LINE
  5
434
330
431
100
AcDbEntity
  8
LC-008-005-----0
 62
     7
370
    25
100
AcDbLine
 10
1162.375401
 20
2383.480517
 30
0.0
 11
1158.492559
 21
2385.909941
 31
0.0
  0
LINE
  5
435
330
431
100
AcDbEntity
  8
LC-008-005-----0
 62
     7
370
    25
100
AcDbLine
 10
1156.496887
 20
2380.19027
 30
0.0
 11
1152.727222
 21
2379.443431
 31
0.0
  0
LINE
  5
436
330
431
100
AcDbEntity
  8
LC-008-005-----0
 62
     7
370
    25
100
AcDbLine
 10
1156.496887
 20
2380.19027
 30
0.0
 11
1159.927603
 21
2386.496616
 31
0.0
  0
LINE
  5
437
330
431
100
AcDbEntity
  8
LC-008-005-----0
 62
     7
370
    25
100
AcDbLine
 10
1162.375401
 20
2387.625093
 30
0.0
 11
1159.927603
 21
2386.496616
 31
0.0
  0
LINE
  5
438
330
431
100
AcDbEntity
  8
LC-008-005-----0
 62
     7
370
    25
100
AcDbLine
 10
1150.784642
 20
2376.508169
 30
0.0
 11
1152.727222
 21
2379.443431
 31
0.0
  0
LINE
  5
439
330
431
100
AcDbEntity
  8
LC-008-005-----0
 62
     7
370
    25
100
AcDbLine
 10
1158.492559
 20
2385.909941
 30
0.0
 11
1153.957434
 21
2389.823032
 31
0.0
  0
LINE
  5
43A
330
431
100
AcDbEntity
  8
LC-008-005-----0
 62
     7
370
    25
100
AcDbLine
 10
1153.957434
 20
2389.823032
 30
0.0
 11
1146.633245
 21
2394.011783
 31
0.0
  0
LINE
  5
43B
330
431
100
AcDbEntity
  8
LC-008-005-----0
 62
     7
370
    25
100
AcDbLine
 10
1147.186447
 20
2404.822551
 30
0.0
 11
1150.631129
 21
2410.461198
 31
0.0
  0
LINE
  5
43C
330
431
100
AcDbEntity
  8
LC-008-005-----0
 62
     7
370
    25
100
AcDbLine
 10
1150.631129
 20
2410.461198
 30
0.0
 11
1153.681886
 21
2413.642303
 31
0.0
  0
LINE
  5
43D
330
431
100
AcDbEntity
  8
LC-008-005-----0
 62
     7
370
    25
100
AcDbLine
 10
1153.681886
 20
2413.642303
 30
0.0
 11
1157.495333
 21
2417.618684
 31
0.0
  0
LINE
  5
43E
330
431
100
AcDbEntity
  8
LC-008-005-----0
 62
     7
370
    25
100
AcDbLine
 10
1157.495333
 20
2417.618684
 30
0.0
 11
1156.739183
 21
2421.833482
 31
0.0
  0
LINE
  5
43F
330
431
100
AcDbEntity
  8
LC-008-005-----0
 62
     7
370
    25
100
AcDbLine
 10
1161.906649
 20
2424.947529
 30
0.0
 11
1156.739183
 21
2421.833482
 31
0.0
  0
LINE
  5
440
330
431
100
AcDbEntity
  8
LC-008-005-----0
 62
     7
370
    25
100
AcDbLine
 10
1161.906649
 20
2424.947529
 30
0.0
 11
1159.90078
 21
2430.360838
 31
0.0
  0
LINE
  5
441
330
431
100
AcDbEntity
  8
LC-008-005-----0
 62
     7
370
    25
100
AcDbLine
 10
1162.375401
 20
2429.33055
 30
0.0
 11
1159.469613
 21
2429.683828
 31
0.0
  0
LINE
  5
442
330
431
100
AcDbEntity
  8
LC-008-005-----0
 62
     7
370
    25
100
AcDbLine
 10
1159.469613
 20
2429.683828
 30
0.0
 11
1155.048099
 21
2433.487964
 31
0.0
  0
LINE
  5
443
330
431
100
AcDbEntity
  8
LC-008-005-----0
 62
     7
370
    25
100
AcDbLine
 10
1162.375401
 20
2436.923807
 30
0.0
 11
1160.586214
 21
2440.172385
 31
0.0
  0
LINE
  5
444
330
431
100
AcDbEntity
  8
LC-008-005-----0
 62
     7
370
    25
100
AcDbLine
 10
1155.048099
 20
2433.487964
 30
0.0
 11
1150.010093
 21
2434.829903
 31
0.0
  0
LINE
  5
445
330
431
100
AcDbEntity
  8
LC-008-005-----0
 62
     7
370
    25
100
AcDbLine
 10
1152.88707
 20
2445.049637
 30
0.0
 11
1152.393546
 21
2448.544134
 31
0.0
  0
LINE
  5
446
330
431
100
AcDbEntity
  8
LC-008-005-----0
 62
     7
370
    25
100
AcDbLine
 10
1152.393546
 20
2448.544134
 30
0.0
 11
1155.265902
 21
2453.734043
 31
0.0
  0
LINE
  5
447
330
431
100
AcDbEntity
  8
LC-008-005-----0
 62
     7
370
    25
100
AcDbLine
 10
1155.265902
 20
2453.734043
 30
0.0
 11
1158.808746
 21
2458.059053
 31
0.0
  0
LINE
  5
448
330
431
100
AcDbEntity
  8
LC-008-005-----0
 62
     7
370
    25
100
AcDbLine
 10
1158.808746
 20
2458.059053
 30
0.0
 11
1157.171902
 21
2465.365849
 31
0.0
  0
LINE
  5
449
330
431
100
AcDbEntity
  8
LC-008-005-----0
 62
     7
370
    25
100
AcDbLine
 10
1157.171902
 20
2465.365849
 30
0.0
 11
1157.926167
 21
2474.813287
 31
0.0
  0
LINE
  5
44A
330
431
100
AcDbEntity
  8
LC-008-005-----0
 62
     7
370
    25
100
AcDbLine
 10
1157.926167
 20
2474.813287
 30
0.0
 11
1157.057293
 21
2481.177381
 31
0.0
  0
LINE
  5
44B
330
431
100
AcDbEntity
  8
LC-008-005-----0
 62
     7
370
    25
100
AcDbLine
 10
1157.057293
 20
2481.177381
 30
0.0
 11
1157.277976
 21
2486.405367
 31
0.0
  0
LINE
  5
44C
330
431
100
AcDbEntity
  8
LC-008-005-----0
 62
     7
370
    25
100
AcDbLine
 10
1157.277976
 20
2486.405367
 30
0.0
 11
1150.144653
 21
2491.341843
 31
0.0
  0
LINE
  5
44D
330
431
100
AcDbEntity
  8
LC-008-005-----0
 62
     7
370
    25
100
AcDbLine
 10
1162.375401
 20
2494.683889
 30
0.0
 11
1151.192311
 21
2488.202635
 31
0.0
  0
LINE
  5
44E
330
431
100
AcDbEntity
  8
LC-008-005-----0
 62
     7
370
    25
100
AcDbLine
 10
1150.144653
 20
2491.341843
 30
0.0
 11
1150.576707
 21
2501.35268
 31
0.0
  0
LINE
  5
44F
330
431
100
AcDbEntity
  8
LC-008-005-----0
 62
     7
370
    25
100
AcDbLine
 10
1154.343489
 20
2521.758969
 30
0.0
 11
1147.46532
 21
2528.248756
 31
0.0
  0
LINE
  5
450
330
431
100
AcDbEntity
  8
LC-008-005-----0
 62
     7
370
    25
100
AcDbLine
 10
1159.90078
 20
2430.360838
 30
0.0
 11
1162.375401
 21
2434.334458
 31
0.0
  0
LINE
  5
451
330
431
100
AcDbEntity
  8
LC-008-005-----0
 62
     7
370
    25
100
AcDbLine
 10
1146.633245
 20
2394.011783
 30
0.0
 11
1143.375401
 21
2395.504905
 31
0.0
  0
LINE
  5
452
330
431
100
AcDbEntity
  8
LC-008-005-----0
 62
     7
370
    25
100
AcDbLine
 10
1147.186447
 20
2404.822551
 30
0.0
 11
1143.375401
 21
2402.265577
 31
0.0
  0
LINE
  5
453
330
431
100
AcDbEntity
  8
LC-008-005-----0
 62
     7
370
    25
100
AcDbLine
 10
1151.192311
 20
2488.202635
 30
0.0
 11
1143.375401
 21
2491.994127
 31
0.0
  0
LINE
  5
454
330
431
100
AcDbEntity
  8
LC-008-005-----0
 62
     7
370
    25
100
AcDbLine
 10
1150.576707
 20
2501.35268
 30
0.0
 11
1143.375401
 21
2506.727394
 31
0.0
  0
LINE
  5
455
330
431
100
AcDbEntity
  8
LC-008-005-----0
 62
     7
370
    25
100
AcDbLine
 10
1147.46532
 20
2528.248756
 30
0.0
 11
1143.375401
 21
2527.224711
 31
0.0
  0
LINE
  5
456
330
431
100
AcDbEntity
  8
LC-008-005-----0
 62
     7
370
    25
100
AcDbLine
 10
1161.521098
 20
2530.299908
 30
0.0
 11
1158.713413
 21
2531.465833
 31
0.0
  0
LINE
  5
457
330
431
100
AcDbEntity
  8
LC-008-005-----0
 62
     7
370
    25
100
AcDbLine
 10
1158.713413
 20
2531.465833
 30
0.0
 11
1155.049933
 21
2536.287812
 31
0.0
  0
LINE
  5
458
330
431
100
AcDbEntity
  8
LC-008-005-----0
 62
     7
370
    25
100
AcDbLine
 10
1151.823162
 20
2530.876387
 30
0.0
 11
1154.0414
 21
2536.600713
 31
0.0
  0
LINE
  5
459
330
431
100
AcDbEntity
  8
LC-008-005-----0
 62
     7
370
    25
100
AcDbLine
 10
1151.823162
 20
2530.876387
 30
0.0
 11
1149.394109
 21
2528.81332
 31
0.0
  0
LINE
  5
45A
330
431
100
AcDbEntity
  8
LC-008-005-----0
 62
     7
370
    25
100
AcDbLine
 10
1155.049933
 20
2536.287812
 30
0.0
 11
1150.429128
 21
2538.97446
 31
0.0
  0
LINE
  5
45B
330
431
100
AcDbEntity
  8
LC-008-005-----0
 62
     7
370
    25
100
AcDbLine
 10
1154.0414
 20
2536.600713
 30
0.0
 11
1151.72263
 21
2541.00549
 31
0.0
  0
LINE
  5
45C
330
431
100
AcDbEntity
  8
LC-008-005-----0
 62
     7
370
    25
100
AcDbLine
 10
1150.429128
 20
2538.97446
 30
0.0
 11
1146.216215
 21
2543.450951
 31
0.0
  0
LINE
  5
45D
330
431
100
AcDbEntity
  8
LC-008-005-----0
 62
     7
370
    25
100
AcDbLine
 10
1151.72263
 20
2541.00549
 30
0.0
 11
1155.839667
 21
2546.435536
 31
0.0
  0
LINE
  5
45E
330
431
100
AcDbEntity
  8
LC-008-005-----0
 62
     7
370
    25
100
AcDbLine
 10
1155.839667
 20
2546.435536
 30
0.0
 11
1154.819053
 21
2552.648777
 31
0.0
  0
LINE
  5
45F
330
431
100
AcDbEntity
  8
LC-008-005-----0
 62
     7
370
    25
100
AcDbLine
 10
1146.216215
 20
2543.450951
 30
0.0
 11
1144.013826
 21
2542.291565
 31
0.0
  0
LINE
  5
460
330
431
100
AcDbEntity
  8
LC-008-005-----0
 62
     7
370
    25
100
AcDbLine
 10
1162.375401
 20
2563.012797
 30
0.0
 11
1159.369141
 21
2563.988474
 31
0.0
  0
LINE
  5
461
330
431
100
AcDbEntity
  8
LC-008-005-----0
 62
     7
370
    25
100
AcDbLine
 10
1154.819053
 20
2552.648777
 30
0.0
 11
1156.339776
 21
2554.461896
 31
0.0
  0
LINE
  5
462
330
431
100
AcDbEntity
  8
LC-008-005-----0
 62
     7
370
    25
100
AcDbLine
 10
1159.369141
 20
2563.988474
 30
0.0
 11
1155.859285
 21
2561.465758
 31
0.0
  0
LINE
  5
463
330
431
100
AcDbEntity
  8
LC-008-005-----0
 62
     7
370
    25
100
AcDbLine
 10
1155.859285
 20
2561.465758
 30
0.0
 11
1150.675082
 21
2564.474618
 31
0.0
  0
LINE
  5
464
330
431
100
AcDbEntity
  8
LC-008-005-----0
 62
     7
370
    25
100
AcDbLine
 10
1150.675082
 20
2564.474618
 30
0.0
 11
1145.720871
 21
2561.810359
 31
0.0
  0
LINE
  5
465
330
431
100
AcDbEntity
  8
LC-008-005-----0
 62
     7
370
    25
100
AcDbLine
 10
1144.013826
 20
2542.291565
 30
0.0
 11
1143.375401
 21
2543.173729
 31
0.0
  0
LINE
  5
466
330
431
100
AcDbEntity
  8
LC-008-005-----0
 62
     7
370
    25
100
AcDbLine
 10
1150.408069
 20
2571.198055
 30
0.0
 11
1150.365981
 21
2571.544233
 31
0.0
  0
ENDBLK
  5
433
330
431
100
AcDbEntity
  8
0
100
AcDbBlockEnd
  0
BLOCK
  5
46B
330
46A
100
AcDbEntity
  8
0
100
AcDbBlockBegin
  2
*X1127
 70
     1
 71
     0
 10
0.0
 20
0.0
 30
0.0
  3
*X1127
  1

  4
*X11
  0
LINE
  5
46D
330
46A
100
AcDbEntity
  8
LC-008-005-----0
 62
     7
370
    25
100
AcDbLine
 10
343.175401
 20
2383.480517
 30
0.0
 11
339.292559
 21
2385.909941
 31
0.0
  0
LINE
  5
46E
330
46A
100
AcDbEntity
  8
LC-008-005-----0
 62
     7
370
    25
100
AcDbLine
 10
337.296887
 20
2380.19027
 30
0.0
 11
333.527222
 21
2379.443431
 31
0.0
  0
LINE
  5
46F
330
46A
100
AcDbEntity
  8
LC-008-005-----0
 62
     7
370
    25
100
AcDbLine
 10
337.296887
 20
2380.19027
 30
0.0
 11
340.727603
 21
2386.496616
 31
0.0
  0
LINE
  5
470
330
46A
100
AcDbEntity
  8
LC-008-005-----0
 62
     7
370
    25
100
AcDbLine
 10
343.175401
 20
2387.625093
 30
0.0
 11
340.727603
 21
2386.496616
 31
0.0
  0
LINE
  5
471
330
46A
100
AcDbEntity
  8
LC-008-005-----0
 62
     7
370
    25
100
AcDbLine
 10
331.584642
 20
2376.508169
 30
0.0
 11
333.527222
 21
2379.443431
 31
0.0
  0
LINE
  5
472
330
46A
100
AcDbEntity
  8
LC-008-005-----0
 62
     7
370
    25
100
AcDbLine
 10
339.292559
 20
2385.909941
 30
0.0
 11
334.757434
 21
2389.823032
 31
0.0
  0
LINE
  5
473
330
46A
100
AcDbEntity
  8
LC-008-005-----0
 62
     7
370
    25
100
AcDbLine
 10
334.757434
 20
2389.823032
 30
0.0
 11
327.433245
 21
2394.011783
 31
0.0
  0
LINE
  5
474
330
46A
100
AcDbEntity
  8
LC-008-005-----0
 62
     7
370
    25
100
AcDbLine
 10
327.986447
 20
2404.822551
 30
0.0
 11
331.431129
 21
2410.461198
 31
0.0
  0
LINE
  5
475
330
46A
100
AcDbEntity
  8
LC-008-005-----0
 62
     7
370
    25
100
AcDbLine
 10
331.431129
 20
2410.461198
 30
0.0
 11
334.481886
 21
2413.642303
 31
0.0
  0
LINE
  5
476
330
46A
100
AcDbEntity
  8
LC-008-005-----0
 62
     7
370
    25
100
AcDbLine
 10
334.481886
 20
2413.642303
 30
0.0
 11
338.295333
 21
2417.618684
 31
0.0
  0
LINE
  5
477
330
46A
100
AcDbEntity
  8
LC-008-005-----0
 62
     7
370
    25
100
AcDbLine
 10
338.295333
 20
2417.618684
 30
0.0
 11
337.539183
 21
2421.833482
 31
0.0
  0
LINE
  5
478
330
46A
100
AcDbEntity
  8
LC-008-005-----0
 62
     7
370
    25
100
AcDbLine
 10
342.706649
 20
2424.947529
 30
0.0
 11
337.539183
 21
2421.833482
 31
0.0
  0
LINE
  5
479
330
46A
100
AcDbEntity
  8
LC-008-005-----0
 62
     7
370
    25
100
AcDbLine
 10
342.706649
 20
2424.947529
 30
0.0
 11
340.70078
 21
2430.360838
 31
0.0
  0
LINE
  5
47A
330
46A
100
AcDbEntity
  8
LC-008-005-----0
 62
     7
370
    25
100
AcDbLine
 10
343.175401
 20
2429.33055
 30
0.0
 11
340.269613
 21
2429.683828
 31
0.0
  0
LINE
  5
47B
330
46A
100
AcDbEntity
  8
LC-008-005-----0
 62
     7
370
    25
100
AcDbLine
 10
340.269613
 20
2429.683828
 30
0.0
 11
335.848099
 21
2433.487964
 31
0.0
  0
LINE
  5
47C
330
46A
100
AcDbEntity
  8
LC-008-005-----0
 62
     7
370
    25
100
AcDbLine
 10
343.175401
 20
2436.923807
 30
0.0
 11
341.386214
 21
2440.172385
 31
0.0
  0
LINE
  5
47D
330
46A
100
AcDbEntity
  8
LC-008-005-----0
 62
     7
370
    25
100
AcDbLine
 10
335.848099
 20
2433.487964
 30
0.0
 11
330.810093
 21
2434.829903
 31
0.0
  0
LINE
  5
47E
330
46A
100
AcDbEntity
  8
LC-008-005-----0
 62
     7
370
    25
100
AcDbLine
 10
333.68707
 20
2445.049637
 30
0.0
 11
333.193546
 21
2448.544134
 31
0.0
  0
LINE
  5
47F
330
46A
100
AcDbEntity
  8
LC-008-005-----0
 62
     7
370
    25
100
AcDbLine
 10
333.193546
 20
2448.544134
 30
0.0
 11
336.065902
 21
2453.734043
 31
0.0
  0
LINE
  5
480
330
46A
100
AcDbEntity
  8
LC-008-005-----0
 62
     7
370
    25
100
AcDbLine
 10
336.065902
 20
2453.734043
 30
0.0
 11
339.608746
 21
2458.059053
 31
0.0
  0
LINE
  5
481
330
46A
100
AcDbEntity
  8
LC-008-005-----0
 62
     7
370
    25
100
AcDbLine
 10
339.608746
 20
2458.059053
 30
0.0
 11
337.971902
 21
2465.365849
 31
0.0
  0
LINE
  5
482
330
46A
100
AcDbEntity
  8
LC-008-005-----0
 62
     7
370
    25
100
AcDbLine
 10
337.971902
 20
2465.365849
 30
0.0
 11
338.726167
 21
2474.813287
 31
0.0
  0
LINE
  5
483
330
46A
100
AcDbEntity
  8
LC-008-005-----0
 62
     7
370
    25
100
AcDbLine
 10
338.726167
 20
2474.813287
 30
0.0
 11
337.857293
 21
2481.177381
 31
0.0
  0
LINE
  5
484
330
46A
100
AcDbEntity
  8
LC-008-005-----0
 62
     7
370
    25
100
AcDbLine
 10
337.857293
 20
2481.177381
 30
0.0
 11
338.077976
 21
2486.405367
 31
0.0
  0
LINE
  5
485
330
46A
100
AcDbEntity
  8
LC-008-005-----0
 62
     7
370
    25
100
AcDbLine
 10
338.077976
 20
2486.405367
 30
0.0
 11
330.944653
 21
2491.341843
 31
0.0
  0
LINE
  5
486
330
46A
100
AcDbEntity
  8
LC-008-005-----0
 62
     7
370
    25
100
AcDbLine
 10
343.175401
 20
2494.683889
 30
0.0
 11
331.992311
 21
2488.202635
 31
0.0
  0
LINE
  5
487
330
46A
100
AcDbEntity
  8
LC-008-005-----0
 62
     7
370
    25
100
AcDbLine
 10
330.944653
 20
2491.341843
 30
0.0
 11
331.376707
 21
2501.35268
 31
0.0
  0
LINE
  5
488
330
46A
100
AcDbEntity
  8
LC-008-005-----0
 62
     7
370
    25
100
AcDbLine
 10
335.143489
 20
2521.758969
 30
0.0
 11
328.26532
 21
2528.248756
 31
0.0
  0
LINE
  5
489
330
46A
100
AcDbEntity
  8
LC-008-005-----0
 62
     7
370
    25
100
AcDbLine
 10
340.70078
 20
2430.360838
 30
0.0
 11
343.175401
 21
2434.334458
 31
0.0
  0
LINE
  5
48A
330
46A
100
AcDbEntity
  8
LC-008-005-----0
 62
     7
370
    25
100
AcDbLine
 10
327.433245
 20
2394.011783
 30
0.0
 11
324.175401
 21
2395.504905
 31
0.0
  0
LINE
  5
48B
330
46A
100
AcDbEntity
  8
LC-008-005-----0
 62
     7
370
    25
100
AcDbLine
 10
327.986447
 20
2404.822551
 30
0.0
 11
324.175401
 21
2402.265577
 31
0.0
  0
LINE
  5
48C
330
46A
100
AcDbEntity
  8
LC-008-005-----0
 62
     7
370
    25
100
AcDbLine
 10
331.992311
 20
2488.202635
 30
0.0
 11
324.175401
 21
2491.994127
 31
0.0
  0
LINE
  5
48D
330
46A
100
AcDbEntity
  8
LC-008-005-----0
 62
     7
370
    25
100
AcDbLine
 10
331.376707
 20
2501.35268
 30
0.0
 11
324.175401
 21
2506.727394
 31
0.0
  0
LINE
  5
48E
330
46A
100
AcDbEntity
  8
LC-008-005-----0
 62
     7
370
    25
100
AcDbLine
 10
328.26532
 20
2528.248756
 30
0.0
 11
324.175401
 21
2527.224711
 31
0.0
  0
LINE
  5
48F
330
46A
100
AcDbEntity
  8
LC-008-005-----0
 62
     7
370
    25
100
AcDbLine
 10
342.321098
 20
2530.299908
 30
0.0
 11
339.513413
 21
2531.465833
 31
0.0
  0
LINE
  5
490
330
46A
100
AcDbEntity
  8
LC-008-005-----0
 62
     7
370
    25
100
AcDbLine
 10
339.513413
 20
2531.465833
 30
0.0
 11
335.849933
 21
2536.287812
 31
0.0
  0
LINE
  5
491
330
46A
100
AcDbEntity
  8
LC-008-005-----0
 62
     7
370
    25
100
AcDbLine
 10
332.623162
 20
2530.876387
 30
0.0
 11
334.8414
 21
2536.600713
 31
0.0
  0
LINE
  5
492
330
46A
100
AcDbEntity
  8
LC-008-005-----0
 62
     7
370
    25
100
AcDbLine
 10
332.623162
 20
2530.876387
 30
0.0
 11
330.194109
 21
2528.81332
 31
0.0
  0
LINE
  5
493
330
46A
100
AcDbEntity
  8
LC-008-005-----0
 62
     7
370
    25
100
AcDbLine
 10
335.849933
 20
2536.287812
 30
0.0
 11
331.229128
 21
2538.97446
 31
0.0
  0
LINE
  5
494
330
46A
100
AcDbEntity
  8
LC-008-005-----0
 62
     7
370
    25
100
AcDbLine
 10
334.8414
 20
2536.600713
 30
0.0
 11
332.52263
 21
2541.00549
 31
0.0
  0
LINE
  5
495
330
46A
100
AcDbEntity
  8
LC-008-005-----0
 62
     7
370
    25
100
AcDbLine
 10
331.229128
 20
2538.97446
 30
0.0
 11
327.016215
 21
2543.450951
 31
0.0
  0
LINE
  5
496
330
46A
100
AcDbEntity
  8
LC-008-005-----0
 62
     7
370
    25
100
AcDbLine
 10
332.52263
 20
2541.00549
 30
0.0
 11
336.639667
 21
2546.435536
 31
0.0
  0
LINE
  5
497
330
46A
100
AcDbEntity
  8
LC-008-005-----0
 62
     7
370
    25
100
AcDbLine
 10
336.639667
 20
2546.435536
 30
0.0
 11
335.619053
 21
2552.648777
 31
0.0
  0
LINE
  5
498
330
46A
100
AcDbEntity
  8
LC-008-005-----0
 62
     7
370
    25
100
AcDbLine
 10
327.016215
 20
2543.450951
 30
0.0
 11
324.813826
 21
2542.291565
 31
0.0
  0
LINE
  5
499
330
46A
100
AcDbEntity
  8
LC-008-005-----0
 62
     7
370
    25
100
AcDbLine
 10
343.175401
 20
2563.012797
 30
0.0
 11
340.169141
 21
2563.988474
 31
0.0
  0
LINE
  5
49A
330
46A
100
AcDbEntity
  8
LC-008-005-----0
 62
     7
370
    25
100
AcDbLine
 10
335.619053
 20
2552.648777
 30
0.0
 11
337.139776
 21
2554.461896
 31
0.0
  0
LINE
  5
49B
330
46A
100
AcDbEntity
  8
LC-008-005-----0
 62
     7
370
    25
100
AcDbLine
 10
340.169141
 20
2563.988474
 30
0.0
 11
336.659285
 21
2561.465758
 31
0.0
  0
LINE
  5
49C
330
46A
100
AcDbEntity
  8
LC-008-005-----0
 62
     7
370
    25
100
AcDbLine
 10
336.659285
 20
2561.465758
 30
0.0
 11
331.475082
 21
2564.474618
 31
0.0
  0
LINE
  5
49D
330
46A
100
AcDbEntity
  8
LC-008-005-----0
 62
     7
370
    25
100
AcDbLine
 10
331.475082
 20
2564.474618
 30
0.0
 11
326.520871
 21
2561.810359
 31
0.0
  0
LINE
  5
49E
330
46A
100
AcDbEntity
  8
LC-008-005-----0
 62
     7
370
    25
100
AcDbLine
 10
324.813826
 20
2542.291565
 30
0.0
 11
324.175401
 21
2543.173729
 31
0.0
  0
LINE
  5
49F
330
46A
100
AcDbEntity
  8
LC-008-005-----0
 62
     7
370
    25
100
AcDbLine
 10
331.208069
 20
2571.198055
 30
0.0
 11
331.165981
 21
2571.544233
 31
0.0
  0
ENDBLK
  5
46C
330
46A
100
AcDbEntity
  8
0
100
AcDbBlockEnd
  0
BLOCK
  5
4AC
330
4A2
100
AcDbEntity
  8
0
100
AcDbBlockBegin
  2
*D28
 70
     1
 71
     0
 10
0.0
 20
0.0
 30
0.0
  3
*D28
  1

  0
LINE
  5
4A3
330
4A2
100
AcDbEntity
  8
LC-005-003-----0
 62
     2
370
    -2
100
AcDbLine
 10
324.175401
 20
2375.889364
 30
0.0
 11
324.175401
 21
2282.0
 31
0.0
  0
LINE
  5
4A4
330
4A2
100
AcDbEntity
  8
LC-005-003-----0
 62
     2
370
    -2
100
AcDbLine
 10
1162.375401
 20
2375.889364
 30
0.0
 11
1162.375401
 21
2282.0
 31
0.0
  0
LINE
  5
4A5
330
4A2
100
AcDbEntity
  8
LC-005-003-----0
 62
     2
370
    -2
100
AcDbLine
 10
349.175401
 20
2300.0
 30
0.0
 11
1137.375401
 21
2300.0
 31
0.0
  0
SOLID
  5
4A6
330
4A2
100
AcDbEntity
  8
LC-005-003-----0
 62
     2
100
AcDbTrace
 10
349.175401
 20
2304.166667
 30
0.0
 11
349.175401
 21
2295.833333
 31
0.0
 12
324.175401
 22
2300.0
 32
0.0
 13
324.175401
 23
2300.0
 33
0.0
  0
SOLID
  5
4A7
330
4A2
100
AcDbEntity
  8
LC-005-003-----0
 62
     2
100
AcDbTrace
 10
1137.375401
 20
2295.833333
 30
0.0
 11
1137.375401
 21
2304.166667
 31
0.0
 12
1162.375401
 22
2300.0
 32
0.0
 13
1162.375401
 23
2300.0
 33
0.0
  0
MTEXT
  5
4A8
330
4A2
100
AcDbEntity
  8
LC-005-003-----0
 62
     2
100
AcDbMText
 10
743.275401
 20
2330.0
 30
0.0
 40
25.0
 41
0.0
 71
     5
 72
     1
  1
\A1;838,2
  7
LCTX0-400-0-0pDIN-Schrift
 73
     1
 44
1.0
  0
POINT
  5
4A9
330
4A2
100
AcDbEntity
  8
Defpoints
 62
     0
100
AcDbPoint
 10
324.175401
 20
2375.889364
 30
0.0
  0
POINT
  5
4AA
330
4A2
100
AcDbEntity
  8
Defpoints
 62
     0
100
AcDbPoint
 10
1162.375401
 20
2375.889364
 30
0.0
  0
POINT
  5
4AB
330
4A2
100
AcDbEntity
  8
Defpoints
 62
     0
100
AcDbPoint
 10
1162.375401
 20
2300.0
 30
0.0
  0
ENDBLK
  5
4AD
330
4A2
100
AcDbEntity
  8
0
100
AcDbBlockEnd
  0
BLOCK
  5
4C5
330
4B9
100
AcDbEntity
  8
0
100
AcDbBlockBegin
  2
*D29
 70
     1
 71
     0
 10
0.0
 20
0.0
 30
0.0
  3
*D29
  1

  0
LINE
  5
4BA
330
4B9
100
AcDbEntity
  8
LC-005-003-----0
 62
     2
370
    -2
100
AcDbLine
 10
349.575401
 20
2012.165473
 30
0.0
 11
349.575401
 21
2118.0
 31
0.0
  0
LINE
  5
4BB
330
4B9
100
AcDbEntity
  8
LC-005-003-----0
 62
     2
370
    -2
100
AcDbLine
 10
395.075401
 20
1997.715473
 30
0.0
 11
395.075401
 21
2118.0
 31
0.0
  0
LINE
  5
4BC
330
4B9
100
AcDbEntity
  8
LC-005-003-----0
 62
     2
370
    -2
100
AcDbLine
 10
420.075401
 20
2100.0
 30
0.0
 11
445.075401
 21
2100.0
 31
0.0
  0
LINE
  5
4BD
330
4B9
100
AcDbEntity
  8
LC-005-003-----0
 62
     2
370
    -2
100
AcDbLine
 10
324.575401
 20
2100.0
 30
0.0
 11
297.262108
 21
2100.0
 31
0.0
  0
LINE
  5
4BE
330
4B9
100
AcDbEntity
  8
LC-005-003-----0
 62
     2
370
    -2
100
AcDbLine
 10
349.575401
 20
2100.0
 30
0.0
 11
395.075401
 21
2100.0
 31
0.0
  0
SOLID
  5
4BF
330
4B9
100
AcDbEntity
  8
LC-005-003-----0
 62
     2
100
AcDbTrace
 10
324.575401
 20
2095.833333
 30
0.0
 11
324.575401
 21
2104.166667
 31
0.0
 12
349.575401
 22
2100.0
 32
0.0
 13
349.575401
 23
2100.0
 33
0.0
  0
SOLID
  5
4C0
330
4B9
100
AcDbEntity
  8
LC-005-003-----0
 62
     2
100
AcDbTrace
 10
420.075401
 20
2104.166667
 30
0.0
 11
420.075401
 21
2095.833333
 31
0.0
 12
395.075401
 22
2100.0
 32
0.0
 13
395.075401
 23
2100.0
 33
0.0
  0
MTEXT
  5
4C1
330
4B9
100
AcDbEntity
  8
LC-005-003-----0
 62
     2
100
AcDbMText
 10
340.262107
 20
2130.0
 30
0.0
 40
25.0
 41
0.0
 71
     5
 72
     1
  1
\A1;45,5
  7
LCTX0-400-0-0pDIN-Schrift
 73
     1
 44
1.0
  0
POINT
  5
4C2
330
4B9
100
AcDbEntity
  8
Defpoints
 62
     0
100
AcDbPoint
 10
349.575401
 20
2012.165473
 30
0.0
  0
POINT
  5
4C3
330
4B9
100
AcDbEntity
  8
Defpoints
 62
     0
100
AcDbPoint
 10
395.075401
 20
1997.715473
 30
0.0
  0
POINT
  5
4C4
330
4B9
100
AcDbEntity
  8
Defpoints
 62
     0
100
AcDbPoint
 10
395.075401
 20
2100.0
 30
0.0
  0
ENDBLK
  5
4C6
330
4B9
100
AcDbEntity
  8
0
100
AcDbBlockEnd
  0
BLOCK
  5
4D4
330
4C8
100
AcDbEntity
  8
0
100
AcDbBlockBegin
  2
*D30
 70
     1
 71
     0
 10
0.0
 20
0.0
 30
0.0
  3
*D30
  1

  0
LINE
  5
4C9
330
4C8
100
AcDbEntity
  8
LC-005-003-----0
 62
     2
370
    -2
100
AcDbLine
 10
361.575401
 20
2024.165473
 30
0.0
 11
518.0
 21
2024.165473
 31
0.0
  0
LINE
  5
4CA
330
4C8
100
AcDbEntity
  8
LC-005-003-----0
 62
     2
370
    -2
100
AcDbLine
 10
376.025401
 20
1978.665473
 30
0.0
 11
518.0
 21
1978.665473
 31
0.0
  0
LINE
  5
4CB
330
4C8
100
AcDbEntity
  8
LC-005-003-----0
 62
     2
370
    -2
100
AcDbLine
 10
500.0
 20
1953.665473
 30
0.0
 11
500.0
 21
1928.665473
 31
0.0
  0
LINE
  5
4CC
330
4C8
100
AcDbEntity
  8
LC-005-003-----0
 62
     2
370
    -2
100
AcDbLine
 10
500.0
 20
2049.165473
 30
0.0
 11
500.0
 21
2117.828558
 31
0.0
  0
LINE
  5
4CD
330
4C8
100
AcDbEntity
  8
LC-005-003-----0
 62
     2
370
    -2
100
AcDbLine
 10
500.0
 20
2024.165473
 30
0.0
 11
500.0
 21
1978.665473
 31
0.0
  0
SOLID
  5
4CE
330
4C8
100
AcDbEntity
  8
LC-005-003-----0
 62
     2
100
AcDbTrace
 10
495.833333
 20
2049.165473
 30
0.0
 11
504.166667
 21
2049.165473
 31
0.0
 12
500.0
 22
2024.165473
 32
0.0
 13
500.0
 23
2024.165473
 33
0.0
  0
SOLID
  5
4CF
330
4C8
100
AcDbEntity
  8
LC-005-003-----0
 62
     2
100
AcDbTrace
 10
504.166667
 20
1953.665473
 30
0.0
 11
495.833333
 21
1953.665473
 31
0.0
 12
500.0
 22
1978.665473
 32
0.0
 13
500.0
 23
1978.665473
 33
0.0
  0
MTEXT
  5
4D0
330
4C8
100
AcDbEntity
  8
LC-005-003-----0
 62
     2
100
AcDbMText
 10
470.0
 20
2074.828559
 30
0.0
 40
25.0
 41
0.0
 71
     5
 72
     1
  1
\A1;45,5
  7
LCTX0-400-0-0pDIN-Schrift
 11
6.123031769111886E-17
 21
1.0
 31
0.0
 73
     1
 44
1.0
  0
POINT
  5
4D1
330
4C8
100
AcDbEntity
  8
Defpoints
 62
     0
100
AcDbPoint
 10
361.575401
 20
2024.165473
 30
0.0
  0
POINT
  5
4D2
330
4C8
100
AcDbEntity
  8
Defpoints
 62
     0
100
AcDbPoint
 10
376.025401
 20
1978.665473
 30
0.0
  0
POINT
  5
4D3
330
4C8
100
AcDbEntity
  8
Defpoints
 62
     0
100
AcDbPoint
 10
500.0
 20
1978.665473
 30
0.0
  0
ENDBLK
  5
4D5
330
4C8
100
AcDbEntity
  8
0
100
AcDbBlockEnd
  0
BLOCK
  5
4E1
330
4D7
100
AcDbEntity
  8
0
100
AcDbBlockBegin
  2
*D31
 70
     1
 71
     0
 10
0.0
 20
0.0
 30
0.0
  3
*D31
  1

  0
LINE
  5
4D8
330
4D7
100
AcDbEntity
  8
LC-005-003-----0
 62
     2
370
    -2
100
AcDbLine
 10
813.275401
 20
1987.715473
 30
0.0
 11
813.275401
 21
2118.0
 31
0.0
  0
LINE
  5
4D9
330
4D7
100
AcDbEntity
  8
LC-005-003-----0
 62
     2
370
    -2
100
AcDbLine
 10
914.875401
 20
1987.715473
 30
0.0
 11
914.875401
 21
2118.0
 31
0.0
  0
LINE
  5
4DA
330
4D7
100
AcDbEntity
  8
LC-005-003-----0
 62
     2
370
    -2
100
AcDbLine
 10
838.275401
 20
2100.0
 30
0.0
 11
889.875401
 21
2100.0
 31
0.0
  0
SOLID
  5
4DB
330
4D7
100
AcDbEntity
  8
LC-005-003-----0
 62
     2
100
AcDbTrace
 10
838.275401
 20
2104.166667
 30
0.0
 11
838.275401
 21
2095.833333
 31
0.0
 12
813.275401
 22
2100.0
 32
0.0
 13
813.275401
 23
2100.0
 33
0.0
  0
SOLID
  5
4DC
330
4D7
100
AcDbEntity
  8
LC-005-003-----0
 62
     2
100
AcDbTrace
 10
889.875401
 20
2095.833333
 30
0.0
 11
889.875401
 21
2104.166667
 31
0.0
 12
914.875401
 22
2100.0
 32
0.0
 13
914.875401
 23
2100.0
 33
0.0
  0
MTEXT
  5
4DD
330
4D7
100
AcDbEntity
  8
LC-005-003-----0
 62
     2
100
AcDbMText
 10
864.075401
 20
2130.0
 30
0.0
 40
25.0
 41
0.0
 71
     5
 72
     1
  1
\A1;101,6
  7
LCTX0-400-0-0pDIN-Schrift
 73
     1
 44
1.0
  0
POINT
  5
4DE
330
4D7
100
AcDbEntity
  8
Defpoints
 62
     0
100
AcDbPoint
 10
813.275401
 20
1987.715473
 30
0.0
  0
POINT
  5
4DF
330
4D7
100
AcDbEntity
  8
Defpoints
 62
     0
100
AcDbPoint
 10
914.875401
 20
1987.715473
 30
0.0
  0
POINT
  5
4E0
330
4D7
100
AcDbEntity
  8
Defpoints
 62
     0
100
AcDbPoint
 10
914.875401
 20
2100.0
 30
0.0
  0
ENDBLK
  5
4E2
330
4D7
100
AcDbEntity
  8
0
100
AcDbBlockEnd
  0
BLOCK
  5
4EE
330
4E4
100
AcDbEntity
  8
0
100
AcDbBlockBegin
  2
*D32
 70
     1
 71
     0
 10
0.0
 20
0.0
 30
0.0
  3
*D32
  1

  0
LINE
  5
4E5
330
4E4
100
AcDbEntity
  8
LC-005-003-----0
 62
     2
370
    -2
100
AcDbLine
 10
914.875401
 20
1987.715473
 30
0.0
 11
914.875401
 21
2118.0
 31
0.0
  0
LINE
  5
4E6
330
4E4
100
AcDbEntity
  8
LC-005-003-----0
 62
     2
370
    -2
100
AcDbLine
 10
1016.475401
 20
1987.715473
 30
0.0
 11
1016.475401
 21
2118.0
 31
0.0
  0
LINE
  5
4E7
330
4E4
100
AcDbEntity
  8
LC-005-003-----0
 62
     2
370
    -2
100
AcDbLine
 10
939.875401
 20
2100.0
 30
0.0
 11
991.475401
 21
2100.0
 31
0.0
  0
SOLID
  5
4E8
330
4E4
100
AcDbEntity
  8
LC-005-003-----0
 62
     2
100
AcDbTrace
 10
939.875401
 20
2104.166667
 30
0.0
 11
939.875401
 21
2095.833333
 31
0.0
 12
914.875401
 22
2100.0
 32
0.0
 13
914.875401
 23
2100.0
 33
0.0
  0
SOLID
  5
4E9
330
4E4
100
AcDbEntity
  8
LC-005-003-----0
 62
     2
100
AcDbTrace
 10
991.475401
 20
2095.833333
 30
0.0
 11
991.475401
 21
2104.166667
 31
0.0
 12
1016.475401
 22
2100.0
 32
0.0
 13
1016.475401
 23
2100.0
 33
0.0
  0
MTEXT
  5
4EA
330
4E4
100
AcDbEntity
  8
LC-005-003-----0
 62
     2
100
AcDbMText
 10
965.675401
 20
2130.0
 30
0.0
 40
25.0
 41
0.0
 71
     5
 72
     1
  1
\A1;101,6
  7
LCTX0-400-0-0pDIN-Schrift
 73
     1
 44
1.0
  0
POINT
  5
4EB
330
4E4
100
AcDbEntity
  8
Defpoints
 62
     0
100
AcDbPoint
 10
914.875401
 20
1987.715473
 30
0.0
  0
POINT
  5
4EC
330
4E4
100
AcDbEntity
  8
Defpoints
 62
     0
100
AcDbPoint
 10
1016.475401
 20
1987.715473
 30
0.0
  0
POINT
  5
4ED
330
4E4
100
AcDbEntity
  8
Defpoints
 62
     0
100
AcDbPoint
 10
1016.475401
 20
2100.0
 30
0.0
  0
ENDBLK
  5
4EF
330
4E4
100
AcDbEntity
  8
0
100
AcDbBlockEnd
  0
ENDSEC
  0
SECTION
  2
ENTITIES
  0
INSERT
  5
103
330
1F
100
AcDbEntity
  8
LC-003-230-ZVN-0
 62
     7
370
    25
100
AcDbBlockReference
  2
SYM1
 10
0.0
 20
0.0
 30
0.0
  0
ARC
  5
105
102
{ACAD_REACTORS
330
4F0
102
}
330
1F
100
AcDbEntity
  8
LC-004-002-RND-0
 62
     7
370
    50
100
AcDbCircle
 10
946.05967
 20
1121.896084
 30
0.0
 40
5.0
100
AcDbArc
 50
90.0
 51
180.0
  0
ARC
  5
106
102
{ACAD_REACTORS
330
4F0
102
}
330
1F
100
AcDbEntity
  8
LC-004-002-RND-0
 62
     7
370
    50
100
AcDbCircle
 10
946.05967
 20
881.546084
 30
0.0
 40
5.0
100
AcDbArc
 50
180.0
 51
270.0
  0
ARC
  5
107
102
{ACAD_REACTORS
330
4F0
102
}
330
1F
100
AcDbEntity
  8
LC-004-002-RND-0
 62
     7
370
    50
100
AcDbCircle
 10
1319.75967
 20
881.546084
 30
0.0
 40
5.0
100
AcDbArc
 50
270.0
 51
0.0
  0
ARC
  5
108
102
{ACAD_REACTORS
330
4F0
102
}
330
1F
100
AcDbEntity
  8
LC-004-002-RND-0
 62
     7
370
    50
100
AcDbCircle
 10
1319.75967
 20
1121.896084
 30
0.0
 40
5.0
100
AcDbArc
 50
0.0
 51
90.0
  0
LINE
  5
109
102
{ACAD_REACTORS
330
4F0
102
}
330
1F
100
AcDbEntity
  8
LC-002-002-----0
 62
     7
370
    50
100
AcDbLine
 10
946.05967
 20
876.546084
 30
0.0
 11
1319.75967
 21
876.546084
 31
0.0
  0
LINE
  5
10A
102
{ACAD_REACTORS
330
4F0
102
}
330
1F
100
AcDbEntity
  8
LC-002-002-----0
 62
     7
370
    50
100
AcDbLine
 10
1324.75967
 20
881.546084
 30
0.0
 11
1324.75967
 21
1121.896084
 31
0.0
  0
LINE
  5
10B
102
{ACAD_REACTORS
330
4F0
102
}
330
1F
100
AcDbEntity
  8
LC-002-002-----0
 62
     7
370
    50
100
AcDbLine
 10
1319.75967
 20
1126.896084
 30
0.0
 11
946.05967
 21
1126.896084
 31
0.0
  0
LINE
  5
10C
102
{ACAD_REACTORS
330
4F0
102
}
330
1F
100
AcDbEntity
  8
LC-002-002-----0
 62
     7
370
    50
100
AcDbLine
 10
941.05967
 20
1121.896084
 30
0.0
 11
941.05967
 21
881.546084
 31
0.0
  0
DIMENSION
  5
10F
330
1F
100
AcDbEntity
  8
LC-005-003-----0
 62
     7
370
    25
100
AcDbDimension
  2
*D2
 10
1324.75967
 20
750.0
 30
0.0
 11
1132.90967
 21
780.0
 31
0.0
 70
   160
 71
     5
 42
767.4
  3
LC-DIM-L-0025-02-02
100
AcDbAlignedDimension
 13
941.05967
 23
881.546084
 33
0.0
 14
1324.75967
 24
881.546084
 34
0.0
100
AcDbRotatedDimension
1001
ACAD
1000
DSTYLE
1002
{
1070
   144
1040
2.0
1002
}
  0
DIMENSION
  5
11E
330
1F
100
AcDbEntity
  8
LC-005-003-----0
 62
     7
370
    25
100
AcDbDimension
  2
*D3
 10
800.0
 20
876.546084
 30
0.0
 11
770.0
 21
1001.721084
 31
0.0
 70
   160
 71
     5
 42
500.7
 53
90.0
  3
LC-DIM-L-0025-02-02
100
AcDbAlignedDimension
 13
946.05967
 23
1126.896084
 33
0.0
 14
946.05967
 24
876.546084
 34
0.0
 50
90.0
100
AcDbRotatedDimension
1001
ACAD
1000
DSTYLE
1002
{
1070
   144
1040
2.0
1002
}
  0
DIMENSION
  5
12C
330
1F
100
AcDbEntity
  8
LC-005-003-----0
 62
     7
370
    25
100
AcDbDimension
  2
*D4
 10
946.05967
 20
881.546084
 30
0.0
 11
1061.773697
 21
913.360133
 31
0.0
 70
   164
  1
R<>"\P(R10)
 71
     5
 42
10.0
  3
LC-DIM-R-0025-02-02
100
AcDbRadialDimension
 15
949.797365
 25
884.867173
 35
0.0
 40
1.0
1001
ACAD
1000
DSTYLE
1002
{
1070
   144
1040
2.0
1002
}
  0
TEXT
  5
136
330
1F
100
AcDbEntity
  8
LC-006-004-----0
 62
     7
370
    35
100
AcDbText
 10
902.19317
 20
1209.396084
 30
0.0
 40
35.0
  1
cutout topmount 1:20
 41
0.7
  7
LCTX0-400-0-0pDIN-Schrift
 72
     1
 11
1132.90967
 21
1209.396084
 31
0.0
100
AcDbText
  0
CIRCLE
  5
137
102
{ACAD_REACTORS
330
4F4
102
}
330
1F
100
AcDbEntity
  8
LC-002-002-----0
 62
     7
370
    50
100
AcDbCircle
 10
582.075401
 20
1873.815473
 30
0.0
 40
46.0
  0
ARC
  5
138
102
{ACAD_REACTORS
330
4F3
102
}
330
1F
100
AcDbEntity
  8
LC-004-002-RND-0
 62
     7
370
    50
100
AcDbCircle
 10
848.609506
 20
2414.531395
 30
0.0
 40
29.9999999999999
100
AcDbArc
 50
186.0
 51
227.409622
  0
CIRCLE
  5
139
102
{ACAD_REACTORS
330
4F4
102
}
330
1F
100
AcDbEntity
  8
LC-002-002-----0
 62
     7
370
    50
100
AcDbCircle
 10
582.075401
 20
1873.815473
 30
0.0
 40
57.5
  0
CIRCLE
  5
13A
102
{ACAD_REACTORS
330
4F4
102
}
330
1F
100
AcDbEntity
  8
LC-002-002-----0
 62
     7
370
    50
100
AcDbCircle
 10
956.475401
 20
1811.815473
 30
0.0
 40
46.0
  0
LINE
  5
13D
102
{ACAD_REACTORS
330
4F3
102
}
330
1F
100
AcDbEntity
  8
LC-007-006-MLN-0
 62
     7
370
    25
100
AcDbLine
 10
582.075401
 20
2372.889364
 30
0.0
 11
582.075401
 21
2392.944231
 31
0.0
  0
CIRCLE
  5
13E
102
{ACAD_REACTORS
330
4F4
102
}
330
1F
100
AcDbEntity
  8
LC-002-002-----0
 62
     7
370
    50
100
AcDbCircle
 10
956.475401
 20
1811.815473
 30
0.0
 40
57.5
  0
LINE
  5
13F
102
{ACAD_REACTORS
330
4F3
102
}
330
1F
100
AcDbEntity
  8
LC-007-006-MLN-0
 62
     7
370
    25
100
AcDbLine
 10
956.475401
 20
2372.889364
 30
0.0
 11
956.475401
 21
2392.944231
 31
0.0
  0
LINE
  5
140
102
{ACAD_REACTORS
330
4F4
102
}
330
1F
100
AcDbEntity
  8
LC-002-002-----0
 62
     7
370
    50
100
AcDbLine
 10
809.775401
 20
1894.175246
 30
0.0
 11
809.775401
 21
1560.735095
 31
0.0
  0
LINE
  5
141
102
{ACAD_REACTORS
330
4F4
102
}
330
1F
100
AcDbEntity
  8
LC-002-002-----0
 62
     7
370
    50
100
AcDbLine
 10
780.775401
 20
1912.29577
 30
0.0
 11
780.775401
 21
1560.744347
 31
0.0
  0
ARC
  5
142
102
{ACAD_REACTORS
330
4F4
102
}
330
1F
100
AcDbEntity
  8
LC-002-002-----0
 62
     7
370
    50
100
AcDbCircle
 10
828.499447
 20
1560.735095
 30
0.0
 40
18.72404627643232
100
AcDbArc
 50
180.0
 51
267.952099
  0
ARC
  5
143
102
{ACAD_REACTORS
330
4F4
102
}
330
1F
100
AcDbEntity
  8
LC-002-002-----0
 62
     7
370
    50
100
AcDbCircle
 10
762.041764
 20
1560.744347
 30
0.0
 40
18.73363674036412
100
AcDbArc
 50
272.07617
 51
360.0
  0
ARC
  5
144
102
{ACAD_REACTORS
330
4F4
102
}
330
1F
100
AcDbEntity
  8
LC-002-002-----0
 62
     7
370
    50
100
AcDbCircle
 10
828.552517
 20
1894.175246
 30
0.0
 40
18.77711555161816
100
AcDbArc
 50
93.03537
 51
180.0
  0
ARC
  5
145
102
{ACAD_REACTORS
330
4F4
102
}
330
1F
100
AcDbEntity
  8
LC-002-002-----0
 62
     7
370
    50
100
AcDbCircle
 10
762.09213
 20
1912.29577
 30
0.0
 40
18.68327125956921
100
AcDbArc
 50
0.0
 51
57.318423
  0
LINE
  5
146
102
{ACAD_REACTORS
330
4F3
102
}
330
1F
100
AcDbEntity
  8
LC-002-002-----0
 62
     7
370
    25
100
AcDbLine
 10
524.575401
 20
2389.944232
 30
0.0
 11
639.575401
 21
2389.944231
 31
0.0
  0
LINE
  5
147
102
{ACAD_REACTORS
330
4F5
102
}
330
1F
100
AcDbEntity
  8
LC-002-002-----0
 62
     7
370
    50
100
AcDbLine
 10
1635.660798
 20
1857.815473
 30
0.0
 11
1635.660798
 21
1765.815473
 31
0.0
  0
ARC
  5
148
102
{ACAD_REACTORS
330
4F5
102
}
330
1F
100
AcDbEntity
  8
LC-004-002-RND-0
 62
     7
370
    50
100
AcDbCircle
 10
1626.41642
 20
1880.711743
 30
0.0
 40
4.999999999999977
100
AcDbArc
 50
295.0
 51
351.486549
  0
LINE
  5
149
102
{ACAD_REACTORS
330
4F5
102
}
330
1F
100
AcDbEntity
  8
LC-007-006-MLN-0
 62
     7
370
    25
100
AcDbLine
 10
1622.602836
 20
1811.815473
 30
0.0
 11
1642.657705
 21
1811.815473
 31
0.0
  0
ARC
  5
14A
102
{ACAD_REACTORS
330
4F5
102
}
330
1F
100
AcDbEntity
  8
LC-004-002-RND-0
 62
     7
370
    50
100
AcDbCircle
 10
1670.733067
 20
1580.147331
 30
0.0
 40
30.00000000000019
100
AcDbArc
 50
222.590376
 51
264.0
  0
ARC
  5
14B
102
{ACAD_REACTORS
330
4F5
102
}
330
1F
100
AcDbEntity
  8
LC-002-002-----0
 62
     7
370
    50
100
AcDbCircle
 10
1673.677911
 20
1582.854341
 30
0.0
 40
33.99999999999979
100
AcDbArc
 50
183.0
 51
222.590376
  0
LINE
  5
14C
102
{ACAD_REACTORS
330
4F5
102
}
330
1F
100
AcDbEntity
  8
LC-002-002-----0
 62
     7
370
    25
100
AcDbLine
 10
1639.657705
 20
1754.315473
 30
0.0
 11
1639.657705
 21
1869.315473
 31
0.0
  0
ARC
  5
14D
102
{ACAD_REACTORS
330
4F5
102
}
330
1F
100
AcDbEntity
  8
LC-004-002-RND-0
 62
     7
370
    50
100
AcDbCircle
 10
1673.677911
 20
1582.854341
 30
0.0
 40
24.99999999999986
100
AcDbArc
 50
183.0
 51
264.0
  0
LINE
  5
14E
102
{ACAD_REACTORS
330
4F4
102
}
330
1F
100
AcDbEntity
  8
LC-002-002-----0
 62
     7
370
    50
100
AcDbLine
 10
361.575401
 20
1503.465473
 30
0.0
 11
1124.975401
 21
1503.465473
 31
0.0
  0
LINE
  5
14F
102
{ACAD_REACTORS
330
4F4
102
}
330
1F
100
AcDbEntity
  8
LC-002-002-----0
 62
     7
370
    50
100
AcDbLine
 10
349.575401
 20
2012.165473
 30
0.0
 11
349.575401
 21
1515.465473
 31
0.0
  0
LINE
  5
150
102
{ACAD_REACTORS
330
4F4
102
}
330
1F
100
AcDbEntity
  8
LC-002-002-----0
 62
     7
370
    50
100
AcDbLine
 10
1124.975401
 20
2024.165473
 30
0.0
 11
361.575401
 21
2024.165473
 31
0.0
  0
LINE
  5
151
102
{ACAD_REACTORS
330
4F4
102
}
330
1F
100
AcDbEntity
  8
LC-002-002-----0
 62
     7
370
    50
100
AcDbLine
 10
1136.975401
 20
1515.465473
 30
0.0
 11
1136.975401
 21
2012.165473
 31
0.0
  0
ARC
  5
152
102
{ACAD_REACTORS
330
4F4
102
}
330
1F
100
AcDbEntity
  8
LC-002-002-----0
 62
     7
370
    50
100
AcDbCircle
 10
1124.975401
 20
1515.465473
 30
0.0
 40
12.0
100
AcDbArc
 50
270.0
 51
0.0
  0
ARC
  5
153
102
{ACAD_REACTORS
330
4F4
102
}
330
1F
100
AcDbEntity
  8
LC-002-002-----0
 62
     7
370
    50
100
AcDbCircle
 10
361.575401
 20
1515.465473
 30
0.0
 40
12.0
100
AcDbArc
 50
180.0
 51
270.0
  0
ARC
  5
154
102
{ACAD_REACTORS
330
4F4
102
}
330
1F
100
AcDbEntity
  8
LC-002-002-----0
 62
     7
370
    50
100
AcDbCircle
 10
361.575401
 20
2012.165473
 30
0.0
 40
12.0
100
AcDbArc
 50
90.0
 51
180.0
  0
ARC
  5
155
102
{ACAD_REACTORS
330
4F4
102
}
330
1F
100
AcDbEntity
  8
LC-002-002-----0
 62
     7
370
    50
100
AcDbCircle
 10
1124.975401
 20
2012.165473
 30
0.0
 40
11.99999999999977
100
AcDbArc
 50
0.0
 51
90.0
  0
LINE
  5
156
102
{ACAD_REACTORS
330
4F4
102
}
330
1F
100
AcDbEntity
  8
LC-002-002-----0
 62
     7
370
    50
100
AcDbLine
 10
1103.175401
 20
1553.265473
 30
0.0
 11
1103.175401
 21
1902.465065
 31
0.0
  0
ARC
  5
157
102
{ACAD_REACTORS
330
4F4
102
}
330
1F
100
AcDbEntity
  8
LC-002-002-----0
 62
     7
370
    50
100
AcDbCircle
 10
965.631273
 20
-578.559527
 30
0.0
 40
2500.000000000001
100
AcDbArc
 50
87.195351
 51
93.085845
  0
LINE
  5
158
102
{ACAD_REACTORS
330
4F4
102
}
330
1F
100
AcDbEntity
  8
LC-002-002-----0
 62
     7
370
    50
100
AcDbLine
 10
399.375401
 20
1537.265473
 30
0.0
 11
1087.175401
 21
1537.265473
 31
0.0
  0
LINE
  5
159
102
{ACAD_REACTORS
330
4F4
102
}
330
1F
100
AcDbEntity
  8
LC-002-002-----0
 62
     7
370
    50
100
AcDbLine
 10
383.375401
 20
1907.612261
 30
0.0
 11
383.375401
 21
1553.265473
 31
0.0
  0
ARC
  5
15A
102
{ACAD_REACTORS
330
4F4
102
}
330
1F
100
AcDbEntity
  8
LC-002-002-----0
 62
     7
370
    50
100
AcDbCircle
 10
588.375401
 20
1664.365473
 30
0.0
 40
326.0000000000002
100
AcDbArc
 50
55.950726
 51
127.105079
  0
ARC
  5
15B
102
{ACAD_REACTORS
330
4F4
102
}
330
1F
100
AcDbEntity
  8
LC-002-002-----0
 62
     7
370
    50
100
AcDbCircle
 10
404.375401
 20
1907.612261
 30
0.0
 40
20.99999999999987
100
AcDbArc
 50
127.105079
 51
180.0
  0
ARC
  5
15C
102
{ACAD_REACTORS
330
4F4
102
}
330
1F
100
AcDbEntity
  8
LC-002-002-----0
 62
     7
370
    50
100
AcDbCircle
 10
399.375401
 20
1553.265473
 30
0.0
 40
16.0
100
AcDbArc
 50
180.0
 51
270.0
  0
ARC
  5
15D
102
{ACAD_REACTORS
330
4F4
102
}
330
1F
100
AcDbEntity
  8
LC-002-002-----0
 62
     7
370
    50
100
AcDbCircle
 10
1087.175401
 20
1553.265473
 30
0.0
 40
16.0
100
AcDbArc
 50
270.0
 51
0.0
  0
ARC
  5
15E
102
{ACAD_REACTORS
330
4F4
102
}
330
1F
100
AcDbEntity
  8
LC-002-002-----0
 62
     7
370
    50
100
AcDbCircle
 10
1087.175401
 20
1902.465065
 30
0.0
 40
15.99999999999977
100
AcDbArc
 50
0.0
 51
87.195351
  0
ARC
  5
15F
102
{ACAD_REACTORS
330
4F4
102
}
330
1F
100
AcDbEntity
  8
LC-002-002-----0
 62
     7
370
    50
100
AcDbCircle
 10
825.775401
 20
2015.673372
 30
0.0
 40
98.00000000000004
100
AcDbArc
 50
235.950726
 51
273.085845
  0
LINE
  5
160
102
{ACAD_REACTORS
330
4F5
102
}
330
1F
100
AcDbEntity
  8
LC-002-002-----0
 62
     7
370
    50
100
AcDbLine
 10
1868.257705
 20
1506.752506
 30
0.0
 11
1868.257705
 21
2020.87844
 31
0.0
  0
LINE
  5
161
102
{ACAD_REACTORS
330
4F5
102
}
330
1F
100
AcDbEntity
  8
LC-002-002-----0
 62
     7
370
    50
100
AcDbLine
 10
1864.675819
 20
1537.641945
 30
0.0
 11
1671.064699
 21
1557.991293
 31
0.0
  0
LINE
  5
162
102
{ACAD_REACTORS
330
4F5
102
}
330
1F
100
AcDbEntity
  8
LC-002-002-----0
 62
     7
370
    50
100
AcDbLine
 10
1861.257705
 20
1503.465473
 30
0.0
 11
1865.466974
 21
1503.759814
 31
0.0
  0
LINE
  5
163
102
{ACAD_REACTORS
330
4F5
102
}
330
1F
100
AcDbEntity
  8
LC-002-002-----0
 62
     7
370
    50
100
AcDbLine
 10
1861.257705
 20
2024.165473
 30
0.0
 11
1865.466974
 21
2023.871132
 31
0.0
  0
LINE
  5
164
102
{ACAD_REACTORS
330
4F5
102
}
330
1F
100
AcDbEntity
  8
LC-002-002-----0
 62
     7
370
    50
100
AcDbLine
 10
1859.257705
 20
1515.465473
 30
0.0
 11
1859.257705
 21
1525.665325
 31
0.0
  0
ARC
  5
165
102
{ACAD_REACTORS
330
4F5
102
}
330
1F
100
AcDbEntity
  8
LC-002-002-----0
 62
     7
370
    50
100
AcDbCircle
 10
1628.602836
 20
1750.726684
 30
0.0
 40
3.000000000000227
100
AcDbArc
 50
180.0
 51
245.0
  0
LINE
  5
166
102
{ACAD_REACTORS
330
4F5
102
}
330
1F
100
AcDbEntity
  8
LC-002-002-----0
 62
     7
370
    50
100
AcDbLine
 10
1859.257705
 20
1933.040622
 30
0.0
 11
1859.257705
 21
2012.165473
 31
0.0
  0
LINE
  5
167
102
{ACAD_REACTORS
330
4F5
102
}
330
1F
100
AcDbEntity
  8
LC-002-002-----0
 62
     7
370
    50
100
AcDbLine
 10
1854.780347
 20
1530.637934
 30
0.0
 11
1667.597214
 21
1550.311674
 31
0.0
  0
LINE
  5
168
102
{ACAD_REACTORS
330
4F5
102
}
330
1F
100
AcDbEntity
  8
LC-002-002-----0
 62
     7
370
    50
100
AcDbLine
 10
1625.602836
 20
1872.904262
 30
0.0
 11
1625.602836
 21
1750.726684
 31
0.0
  0
LINE
  5
169
102
{ACAD_REACTORS
330
4F5
102
}
330
1F
100
AcDbEntity
  8
LC-002-002-----0
 62
     7
370
    50
100
AcDbLine
 10
1639.712299
 20
1753.273759
 30
0.0
 11
1648.712172
 21
1581.545942
 31
0.0
  0
ARC
  5
16A
102
{ACAD_REACTORS
330
4F5
102
}
330
1F
100
AcDbEntity
  8
LC-002-002-----0
 62
     7
370
    50
100
AcDbCircle
 10
1638.513943
 20
1753.210956
 30
0.0
 40
1.199999999999922
100
AcDbArc
 50
3.0
 51
85.0
  0
LINE
  5
16B
102
{ACAD_REACTORS
330
4F5
102
}
330
1F
100
AcDbEntity
  8
LC-002-002-----0
 62
     7
370
    50
100
AcDbLine
 10
1635.660798
 20
1765.815473
 30
0.0
 11
1637.52446
 21
1755.24612
 31
0.0
  0
LINE
  5
16C
102
{ACAD_REACTORS
330
4F5
102
}
330
1F
100
AcDbEntity
  8
LC-002-002-----0
 62
     7
370
    50
100
AcDbLine
 10
1625.602836
 20
1765.815473
 30
0.0
 11
1635.660798
 21
1765.815473
 31
0.0
  0
LINE
  5
16D
102
{ACAD_REACTORS
330
4F5
102
}
330
1F
100
AcDbEntity
  8
LC-002-002-----0
 62
     7
370
    50
100
AcDbLine
 10
1627.334981
 20
1748.007761
 30
0.0
 11
1628.34431
 21
1747.537103
 31
0.0
  0
ARC
  5
16E
102
{ACAD_REACTORS
330
4F5
102
}
330
1F
100
AcDbEntity
  8
LC-002-002-----0
 62
     7
370
    50
100
AcDbCircle
 10
1626.231219
 20
1743.005564
 30
0.0
 40
5.000000000000042
100
AcDbArc
 50
3.0
 51
65.0
  0
LINE
  5
16F
102
{ACAD_REACTORS
330
4F5
102
}
330
1F
100
AcDbEntity
  8
LC-002-002-----0
 62
     7
370
    50
100
AcDbLine
 10
1631.224367
 20
1743.267243
 30
0.0
 11
1639.724506
 21
1581.074918
 31
0.0
  0
ARC
  5
170
102
{ACAD_REACTORS
330
4F5
102
}
330
1F
100
AcDbEntity
  8
LC-002-002-----0
 62
     7
370
    50
100
AcDbCircle
 10
1854.257705
 20
1525.665325
 30
0.0
 40
5.0
100
AcDbArc
 50
0.0
 51
84.0
  0
ARC
  5
171
102
{ACAD_REACTORS
330
4F5
102
}
330
1F
100
AcDbEntity
  8
LC-002-002-----0
 62
     7
370
    50
100
AcDbCircle
 10
1865.257705
 20
1506.752506
 30
0.0
 40
2.999999999999991
100
AcDbArc
 50
274.0
 51
0.0
  0
ARC
  5
172
102
{ACAD_REACTORS
330
4F5
102
}
330
1F
100
AcDbEntity
  8
LC-002-002-----0
 62
     7
370
    50
100
AcDbCircle
 10
1864.257705
 20
1533.663857
 30
0.0
 40
4.0
100
AcDbArc
 50
0.0
 51
84.0
  0
ARC
  5
173
102
{ACAD_REACTORS
330
4F5
102
}
330
1F
100
AcDbEntity
  8
LC-002-002-----0
 62
     7
370
    50
100
AcDbCircle
 10
1865.257705
 20
2020.87844
 30
0.0
 40
3.000000000000227
100
AcDbArc
 50
0.0
 51
86.0
  0
LINE
  5
174
102
{ACAD_REACTORS
330
4F5
102
}
330
1F
100
AcDbEntity
  8
LC-002-002-----0
 62
     7
370
    50
100
AcDbLine
 10
1625.602836
 20
1857.815473
 30
0.0
 11
1635.660798
 21
1857.815473
 31
0.0
  0
LINE
  5
175
102
{ACAD_REACTORS
330
4F5
102
}
330
1F
100
AcDbEntity
  8
LC-002-002-----0
 62
     7
370
    50
100
AcDbLine
 10
1635.660798
 20
1857.815473
 30
0.0
 11
1637.52446
 21
1868.384826
 31
0.0
  0
LINE
  5
176
102
{ACAD_REACTORS
330
4F5
102
}
330
1F
100
AcDbEntity
  8
LC-002-002-----0
 62
     7
370
    50
100
AcDbLine
 10
1859.257705
 20
2012.165473
 30
0.0
 11
1861.257705
 21
2012.165473
 31
0.0
  0
LINE
  5
177
102
{ACAD_REACTORS
330
4F5
102
}
330
1F
100
AcDbEntity
  8
LC-002-002-----0
 62
     7
370
    50
100
AcDbLine
 10
1859.257705
 20
1515.465473
 30
0.0
 11
1861.257705
 21
1515.465473
 31
0.0
  0
LINE
  5
178
102
{ACAD_REACTORS
330
4F5
102
}
330
1F
100
AcDbEntity
  8
LC-002-002-----0
 62
     7
370
    50
100
AcDbLine
 10
1861.257705
 20
2012.165473
 30
0.0
 11
1861.257705
 21
2024.165473
 31
0.0
  0
LINE
  5
179
102
{ACAD_REACTORS
330
4F5
102
}
330
1F
100
AcDbEntity
  8
LC-002-002-----0
 62
     7
370
    50
100
AcDbLine
 10
1861.257705
 20
1503.465473
 30
0.0
 11
1861.257705
 21
1515.465473
 31
0.0
  0
LINE
  5
17A
102
{ACAD_REACTORS
330
4F5
102
}
330
1F
100
AcDbEntity
  8
LC-002-002-----0
 62
     7
370
    50
100
AcDbLine
 10
1638.422112
 20
1754.423574
 30
0.0
 11
1638.61853
 21
1754.406389
 31
0.0
  0
ARC
  5
17B
102
{ACAD_REACTORS
330
4F5
102
}
330
1F
100
AcDbEntity
  8
LC-002-002-----0
 62
     7
370
    50
100
AcDbCircle
 10
1638.509267
 20
1755.419768
 30
0.0
 40
1.000000000000085
100
AcDbArc
 50
190.0
 51
265.0
  0
LINE
  5
17C
102
{ACAD_REACTORS
330
4F3
102
}
330
1F
100
AcDbEntity
  8
LC-002-002-----0
 62
     7
370
    50
100
AcDbLine
 10
628.075401
 20
2385.947326
 30
0.0
 11
536.075401
 21
2385.947326
 31
0.0
  0
LINE
  5
17D
102
{ACAD_REACTORS
330
4F3
102
}
330
1F
100
AcDbEntity
  8
LC-002-002-----0
 62
     7
370
    50
100
AcDbLine
 10
1002.475401
 20
2385.947326
 30
0.0
 11
910.475401
 21
2385.947326
 31
0.0
  0
LINE
  5
17E
102
{ACAD_REACTORS
330
4F3
102
}
330
1F
100
AcDbEntity
  8
LC-002-002-----0
 62
     7
370
    50
100
AcDbLine
 10
383.751873
 20
2614.962347
 30
0.0
 11
404.521338
 21
2417.35408
 31
0.0
  0
ARC
  5
17F
102
{ACAD_REACTORS
330
4F3
102
}
330
1F
100
AcDbEntity
  8
LC-002-002-----0
 62
     7
370
    50
100
AcDbCircle
 10
429.384386
 20
2419.967291
 30
0.0
 40
24.99999999990401
100
AcDbArc
 50
186.0
 51
267.0
  0
LINE
  5
180
102
{ACAD_REACTORS
330
4F3
102
}
330
1F
100
AcDbEntity
  8
LC-002-002-----0
 62
     7
370
    50
100
AcDbLine
 10
428.075987
 20
2395.001553
 30
0.0
 11
523.533687
 21
2389.998827
 31
0.0
  0
ARC
  5
181
102
{ACAD_REACTORS
330
4F3
102
}
330
1F
100
AcDbEntity
  8
LC-002-002-----0
 62
     7
370
    50
100
AcDbCircle
 10
523.470884
 20
2388.800471
 30
0.0
 40
1.199999999999986
100
AcDbArc
 50
4.998976
 51
87.0
  0
LINE
  5
182
102
{ACAD_REACTORS
330
4F3
102
}
330
1F
100
AcDbEntity
  8
LC-002-002-----0
 62
     7
370
    50
100
AcDbLine
 10
524.666315
 20
2388.905079
 30
0.0
 11
524.683503
 21
2388.708625
 31
0.0
  0
ARC
  5
183
102
{ACAD_REACTORS
330
4F3
102
}
330
1F
100
AcDbEntity
  8
LC-002-002-----0
 62
     7
370
    50
100
AcDbCircle
 10
525.679696
 20
2388.795796
 30
0.0
 40
1.00000000000013
100
AcDbArc
 50
184.999139
 51
260.0
  0
LINE
  5
184
102
{ACAD_REACTORS
330
4F3
102
}
330
1F
100
AcDbEntity
  8
LC-002-002-----0
 62
     7
370
    50
100
AcDbLine
 10
525.506048
 20
2387.810988
 30
0.0
 11
536.075401
 21
2385.947326
 31
0.0
  0
LINE
  5
185
102
{ACAD_REACTORS
330
4F3
102
}
330
1F
100
AcDbEntity
  8
LC-002-002-----0
 62
     7
370
    50
100
AcDbLine
 10
536.075401
 20
2385.947326
 30
0.0
 11
536.075401
 21
2375.889364
 31
0.0
  0
LINE
  5
186
102
{ACAD_REACTORS
330
4F3
102
}
330
1F
100
AcDbEntity
  8
LC-002-002-----0
 62
     7
370
    50
100
AcDbLine
 10
520.986612
 20
2375.889364
 30
0.0
 11
643.16419
 21
2375.889364
 31
0.0
  0
ARC
  5
187
102
{ACAD_REACTORS
330
4F3
102
}
330
1F
100
AcDbEntity
  8
LC-002-002-----0
 62
     7
370
    50
100
AcDbCircle
 10
520.986612
 20
2378.889364
 30
0.0
 40
2.999999999806443
100
AcDbArc
 50
205.0
 51
270.0
  0
LINE
  5
188
102
{ACAD_REACTORS
330
4F3
102
}
330
1F
100
AcDbEntity
  8
LC-002-002-----0
 62
     7
370
    50
100
AcDbLine
 10
517.797031
 20
2378.630838
 30
0.0
 11
518.267689
 21
2377.621509
 31
0.0
  0
ARC
  5
189
102
{ACAD_REACTORS
330
4F3
102
}
330
1F
100
AcDbEntity
  8
LC-002-002-----0
 62
     7
370
    50
100
AcDbCircle
 10
513.265492
 20
2376.517747
 30
0.0
 40
5.000000000201013
100
AcDbArc
 50
25.0
 51
87.0
  0
LINE
  5
18A
102
{ACAD_REACTORS
330
4F3
102
}
330
1F
100
AcDbEntity
  8
LC-002-002-----0
 62
     7
370
    50
100
AcDbLine
 10
427.604963
 20
2386.013887
 30
0.0
 11
513.527171
 21
2381.510895
 31
0.0
  0
ARC
  5
18B
102
{ACAD_REACTORS
330
4F3
102
}
330
1F
100
AcDbEntity
  8
LC-002-002-----0
 62
     7
370
    50
100
AcDbCircle
 10
429.384386
 20
2419.967291
 30
0.0
 40
33.99999999756592
100
AcDbArc
 50
227.409622
 51
267.0
  0
ARC
  5
18C
102
{ACAD_REACTORS
330
4F3
102
}
330
1F
100
AcDbEntity
  8
LC-002-002-----0
 62
     7
370
    50
100
AcDbCircle
 10
426.677376
 20
2417.022448
 30
0.0
 40
29.99999999994904
100
AcDbArc
 50
186.0
 51
227.409622
  0
LINE
  5
18D
102
{ACAD_REACTORS
330
4F3
102
}
330
1F
100
AcDbEntity
  8
LC-002-002-----0
 62
     7
370
    50
100
AcDbLine
 10
376.747862
 20
2605.066875
 30
0.0
 11
396.84172
 21
2413.886594
 31
0.0
  0
ARC
  5
18E
102
{ACAD_REACTORS
330
4F3
102
}
330
1F
100
AcDbEntity
  8
LC-002-002-----0
 62
     7
370
    50
100
AcDbCircle
 10
371.775253
 20
2604.544233
 30
0.0
 40
4.999999999999965
100
AcDbArc
 50
6.0
 51
90.0
  0
LINE
  5
18F
102
{ACAD_REACTORS
330
4F3
102
}
330
1F
100
AcDbEntity
  8
LC-002-002-----0
 62
     7
370
    50
100
AcDbLine
 10
361.575401
 20
2609.544233
 30
0.0
 11
371.775253
 21
2609.544233
 31
0.0
  0
LINE
  5
190
102
{ACAD_REACTORS
330
4F3
102
}
330
1F
100
AcDbEntity
  8
LC-002-002-----0
 62
     7
370
    50
100
AcDbLine
 10
361.575401
 20
2609.544233
 30
0.0
 11
361.575401
 21
2611.544233
 31
0.0
  0
LINE
  5
191
102
{ACAD_REACTORS
330
4F3
102
}
330
1F
100
AcDbEntity
  8
LC-002-002-----0
 62
     7
370
    50
100
AcDbLine
 10
349.575401
 20
2611.544233
 30
0.0
 11
361.575401
 21
2611.544233
 31
0.0
  0
LINE
  5
192
102
{ACAD_REACTORS
330
4F3
102
}
330
1F
100
AcDbEntity
  8
LC-002-002-----0
 62
     7
370
    50
100
AcDbLine
 10
349.575401
 20
2611.544233
 30
0.0
 11
349.869742
 21
2615.753502
 31
0.0
  0
ARC
  5
193
102
{ACAD_REACTORS
330
4F3
102
}
330
1F
100
AcDbEntity
  8
LC-002-002-----0
 62
     7
370
    50
100
AcDbCircle
 10
352.862434
 20
2615.544233
 30
0.0
 40
3.00000000000091
100
AcDbArc
 50
90.0
 51
176.0
  0
LINE
  5
194
102
{ACAD_REACTORS
330
4F3
102
}
330
1F
100
AcDbEntity
  8
LC-002-002-----0
 62
     7
370
    50
100
AcDbLine
 10
352.862434
 20
2618.544233
 30
0.0
 11
1133.688368
 21
2618.544233
 31
0.0
  0
ARC
  5
195
102
{ACAD_REACTORS
330
4F3
102
}
330
1F
100
AcDbEntity
  8
LC-002-002-----0
 62
     7
370
    50
100
AcDbCircle
 10
379.773785
 20
2614.544233
 30
0.0
 40
3.999999999999991
100
AcDbArc
 50
6.0
 51
90.0
  0
LINE
  5
196
102
{ACAD_REACTORS
330
4F3
102
}
330
1F
100
AcDbEntity
  8
LC-002-002-----0
 62
     7
370
    50
100
AcDbLine
 10
741.301726
 20
2386.263132
 30
0.0
 11
650.623631
 21
2381.510895
 31
0.0
  0
ARC
  5
197
102
{ACAD_REACTORS
330
4F3
102
}
330
1F
100
AcDbEntity
  8
LC-002-002-----0
 62
     7
370
    50
100
AcDbCircle
 10
650.885311
 20
2376.517747
 30
0.0
 40
5.000000000241422
100
AcDbArc
 50
93.0
 51
155.0
  0
LINE
  5
198
102
{ACAD_REACTORS
330
4F3
102
}
330
1F
100
AcDbEntity
  8
LC-002-002-----0
 62
     7
370
    50
100
AcDbLine
 10
646.353772
 20
2378.630838
 30
0.0
 11
645.883114
 21
2377.621509
 31
0.0
  0
ARC
  5
199
102
{ACAD_REACTORS
330
4F3
102
}
330
1F
100
AcDbEntity
  8
LC-002-002-----0
 62
     7
370
    50
100
AcDbCircle
 10
643.16419
 20
2378.889364
 30
0.0
 40
3.0
100
AcDbArc
 50
270.0
 51
335.0
  0
LINE
  5
19A
102
{ACAD_REACTORS
330
4F3
102
}
330
1F
100
AcDbEntity
  8
LC-002-002-----0
 62
     7
370
    50
100
AcDbLine
 10
628.075401
 20
2385.947326
 30
0.0
 11
628.075401
 21
2375.889364
 31
0.0
  0
LINE
  5
19B
102
{ACAD_REACTORS
330
4F3
102
}
330
1F
100
AcDbEntity
  8
LC-002-002-----0
 62
     7
370
    50
100
AcDbLine
 10
638.644754
 20
2387.810988
 30
0.0
 11
628.075401
 21
2385.947326
 31
0.0
  0
ARC
  5
19C
102
{ACAD_REACTORS
330
4F3
102
}
330
1F
100
AcDbEntity
  8
LC-002-002-----0
 62
     7
370
    50
100
AcDbCircle
 10
638.471106
 20
2388.795796
 30
0.0
 40
0.9999999999595597
100
AcDbArc
 50
280.0
 51
355.000861
  0
LINE
  5
19D
102
{ACAD_REACTORS
330
4F3
102
}
330
1F
100
AcDbEntity
  8
LC-002-002-----0
 62
     7
370
    50
100
AcDbLine
 10
639.484488
 20
2388.905092
 30
0.0
 11
639.4673
 21
2388.708625
 31
0.0
  0
ARC
  5
19E
102
{ACAD_REACTORS
330
4F3
102
}
330
1F
100
AcDbEntity
  8
LC-002-002-----0
 62
     7
370
    50
100
AcDbCircle
 10
640.679919
 20
2388.800471
 30
0.0
 40
1.200000000293823
100
AcDbArc
 50
93.0
 51
175.001632
  0
LINE
  5
19F
102
{ACAD_REACTORS
330
4F3
102
}
330
1F
100
AcDbEntity
  8
LC-002-002-----0
 62
     7
370
    50
100
AcDbLine
 10
740.830703
 20
2395.250798
 30
0.0
 11
640.617116
 21
2389.998827
 31
0.0
  0
LINE
  5
1A0
102
{ACAD_REACTORS
330
4F3
102
}
330
1F
100
AcDbEntity
  8
LC-002-002-----0
 62
     7
370
    50
100
AcDbLine
 10
826.453468
 20
2414.863026
 30
0.0
 11
810.24599
 21
2569.066875
 31
0.0
  0
ARC
  5
1A1
102
{ACAD_REACTORS
330
4F3
102
}
330
1F
100
AcDbEntity
  8
LC-002-002-----0
 62
     7
370
    50
100
AcDbCircle
 10
851.316515
 20
2417.476238
 30
0.0
 40
25.0000000003237
100
AcDbArc
 50
186.0
 51
267.0
  0
LINE
  5
1A2
102
{ACAD_REACTORS
330
4F3
102
}
330
1F
100
AcDbEntity
  8
LC-002-002-----0
 62
     7
370
    50
100
AcDbLine
 10
850.008117
 20
2392.510499
 30
0.0
 11
897.933687
 21
2389.998827
 31
0.0
  0
ARC
  5
1A3
102
{ACAD_REACTORS
330
4F3
102
}
330
1F
100
AcDbEntity
  8
LC-002-002-----0
 62
     7
370
    50
100
AcDbCircle
 10
897.870884
 20
2388.800471
 30
0.0
 40
1.200000000000024
100
AcDbArc
 50
4.998976
 51
87.0
  0
LINE
  5
1A4
102
{ACAD_REACTORS
330
4F3
102
}
330
1F
100
AcDbEntity
  8
LC-002-002-----0
 62
     7
370
    50
100
AcDbLine
 10
899.066315
 20
2388.90508
 30
0.0
 11
899.083503
 21
2388.708625
 31
0.0
  0
ARC
  5
1A5
102
{ACAD_REACTORS
330
4F3
102
}
330
1F
100
AcDbEntity
  8
LC-002-002-----0
 62
     7
370
    50
100
AcDbCircle
 10
900.079696
 20
2388.795796
 30
0.0
 40
0.9999999999998025
100
AcDbArc
 50
184.99914
 51
260.0
  0
LINE
  5
1A6
102
{ACAD_REACTORS
330
4F3
102
}
330
1F
100
AcDbEntity
  8
LC-002-002-----0
 62
     7
370
    50
100
AcDbLine
 10
899.906048
 20
2387.810988
 30
0.0
 11
910.475401
 21
2385.947326
 31
0.0
  0
LINE
  5
1A7
102
{ACAD_REACTORS
330
4F3
102
}
330
1F
100
AcDbEntity
  8
LC-002-002-----0
 62
     7
370
    50
100
AcDbLine
 10
910.475401
 20
2385.947326
 30
0.0
 11
910.475401
 21
2375.889364
 31
0.0
  0
LINE
  5
1A8
102
{ACAD_REACTORS
330
4F3
102
}
330
1F
100
AcDbEntity
  8
LC-002-002-----0
 62
     7
370
    50
100
AcDbLine
 10
895.386612
 20
2375.889364
 30
0.0
 11
1017.56419
 21
2375.889364
 31
0.0
  0
ARC
  5
1A9
102
{ACAD_REACTORS
330
4F3
102
}
330
1F
100
AcDbEntity
  8
LC-002-002-----0
 62
     7
370
    50
100
AcDbCircle
 10
895.386612
 20
2378.889364
 30
0.0
 40
2.999999999806649
100
AcDbArc
 50
205.0
 51
270.0
  0
LINE
  5
1AA
102
{ACAD_REACTORS
330
4F3
102
}
330
1F
100
AcDbEntity
  8
LC-002-002-----0
 62
     7
370
    50
100
AcDbLine
 10
892.197031
 20
2378.630838
 30
0.0
 11
892.667689
 21
2377.621509
 31
0.0
  0
ARC
  5
1AB
102
{ACAD_REACTORS
330
4F3
102
}
330
1F
100
AcDbEntity
  8
LC-002-002-----0
 62
     7
370
    50
100
AcDbCircle
 10
887.665492
 20
2376.517747
 30
0.0
 40
5.000000000201013
100
AcDbArc
 50
25.0
 51
87.0
  0
LINE
  5
1AC
102
{ACAD_REACTORS
330
4F3
102
}
330
1F
100
AcDbEntity
  8
LC-002-002-----0
 62
     7
370
    50
100
AcDbLine
 10
887.927171
 20
2381.510895
 30
0.0
 11
849.537093
 21
2383.522834
 31
0.0
  0
ARC
  5
1AD
102
{ACAD_REACTORS
330
4F3
102
}
330
1F
100
AcDbEntity
  8
LC-002-002-----0
 62
     7
370
    50
100
AcDbCircle
 10
851.316515
 20
2417.476238
 30
0.0
 40
34.00000000000003
100
AcDbArc
 50
227.409622
 51
267.0
  0
LINE
  5
1AE
102
{ACAD_REACTORS
330
4F3
102
}
330
1F
100
AcDbEntity
  8
LC-002-002-----0
 62
     7
370
    50
100
AcDbLine
 10
818.773849
 20
2411.395541
 30
0.0
 11
803.147862
 21
2560.066875
 31
0.0
  0
ARC
  5
1AF
102
{ACAD_REACTORS
330
4F3
102
}
330
1F
100
AcDbEntity
  8
LC-002-002-----0
 62
     7
370
    50
100
AcDbCircle
 10
798.175253
 20
2559.544233
 30
0.0
 40
5.00000000000006
100
AcDbArc
 50
6.0
 51
90.0
  0
LINE
  5
1B0
102
{ACAD_REACTORS
330
4F3
102
}
330
1F
100
AcDbEntity
  8
LC-002-002-----0
 62
     7
370
    50
100
AcDbLine
 10
792.37555
 20
2564.544233
 30
0.0
 11
798.175253
 21
2564.544233
 31
0.0
  0
ARC
  5
1B1
102
{ACAD_REACTORS
330
4F3
102
}
330
1F
100
AcDbEntity
  8
LC-002-002-----0
 62
     7
370
    50
100
AcDbCircle
 10
792.37555
 20
2559.544233
 30
0.0
 40
5.0
100
AcDbArc
 50
90.0
 51
174.0
  0
ARC
  5
1B2
102
{ACAD_REACTORS
330
4F3
102
}
330
1F
100
AcDbEntity
  8
LC-002-002-----0
 62
     7
370
    50
100
AcDbCircle
 10
785.277421
 20
2568.544233
 30
0.0
 40
5.00000000000091
100
AcDbArc
 50
90.0
 51
174.0
  0
LINE
  5
1B3
102
{ACAD_REACTORS
330
4F3
102
}
330
1F
100
AcDbEntity
  8
LC-002-002-----0
 62
     7
370
    50
100
AcDbLine
 10
805.273381
 20
2573.544233
 30
0.0
 11
785.277421
 21
2573.544233
 31
0.0
  0
ARC
  5
1B4
102
{ACAD_REACTORS
330
4F3
102
}
330
1F
100
AcDbEntity
  8
LC-002-002-----0
 62
     7
370
    50
100
AcDbCircle
 10
805.273381
 20
2568.544233
 30
0.0
 40
5.00000000000006
100
AcDbArc
 50
6.0
 51
90.0
  0
LINE
  5
1B5
102
{ACAD_REACTORS
330
4F3
102
}
330
1F
100
AcDbEntity
  8
LC-002-002-----0
 62
     7
370
    50
100
AcDbLine
 10
1102.79893
 20
2614.962347
 30
0.0
 11
1081.741447
 21
2414.613781
 31
0.0
  0
ARC
  5
1B6
102
{ACAD_REACTORS
330
4F3
102
}
330
1F
100
AcDbEntity
  8
LC-002-002-----0
 62
     7
370
    50
100
AcDbCircle
 10
1106.777017
 20
2614.544233
 30
0.0
 40
4.0
100
AcDbArc
 50
90.0
 51
174.0
  0
ARC
  5
1B7
102
{ACAD_REACTORS
330
4F3
102
}
330
1F
100
AcDbEntity
  8
LC-002-002-----0
 62
     7
370
    50
100
AcDbCircle
 10
1133.688368
 20
2615.544233
 30
0.0
 40
3.000000000000006
100
AcDbArc
 50
4.0
 51
90.0
  0
LINE
  5
1B8
102
{ACAD_REACTORS
330
4F3
102
}
330
1F
100
AcDbEntity
  8
LC-002-002-----0
 62
     7
370
    50
100
AcDbLine
 10
1136.975401
 20
2611.544233
 30
0.0
 11
1136.68106
 21
2615.753502
 31
0.0
  0
LINE
  5
1B9
102
{ACAD_REACTORS
330
4F3
102
}
330
1F
100
AcDbEntity
  8
LC-002-002-----0
 62
     7
370
    50
100
AcDbLine
 10
1136.975401
 20
2611.544233
 30
0.0
 11
1124.975401
 21
2611.544233
 31
0.0
  0
LINE
  5
1BA
102
{ACAD_REACTORS
330
4F3
102
}
330
1F
100
AcDbEntity
  8
LC-002-002-----0
 62
     7
370
    50
100
AcDbLine
 10
1124.975401
 20
2609.544233
 30
0.0
 11
1124.975401
 21
2611.544233
 31
0.0
  0
LINE
  5
1BB
102
{ACAD_REACTORS
330
4F3
102
}
330
1F
100
AcDbEntity
  8
LC-002-002-----0
 62
     7
370
    50
100
AcDbLine
 10
1124.975401
 20
2609.544233
 30
0.0
 11
1114.77555
 21
2609.544233
 31
0.0
  0
ARC
  5
1BC
102
{ACAD_REACTORS
330
4F3
102
}
330
1F
100
AcDbEntity
  8
LC-002-002-----0
 62
     7
370
    50
100
AcDbCircle
 10
1114.77555
 20
2604.544233
 30
0.0
 40
5.0
100
AcDbArc
 50
90.0
 51
174.0
  0
LINE
  5
1BD
102
{ACAD_REACTORS
330
4F3
102
}
330
1F
100
AcDbEntity
  8
LC-002-002-----0
 62
     7
370
    50
100
AcDbLine
 10
1109.80294
 20
2605.066875
 30
0.0
 11
1089.421066
 21
2411.146295
 31
0.0
  0
ARC
  5
1BE
102
{ACAD_REACTORS
330
4F3
102
}
330
1F
100
AcDbEntity
  8
LC-002-002-----0
 62
     7
370
    50
100
AcDbCircle
 10
1059.585409
 20
2414.282149
 30
0.0
 40
30.00000000000025
100
AcDbArc
 50
312.590378
 51
354.0
  0
ARC
  5
1BF
102
{ACAD_REACTORS
330
4F3
102
}
330
1F
100
AcDbEntity
  8
LC-002-002-----0
 62
     7
370
    50
100
AcDbCircle
 10
1056.8784
 20
2417.226992
 30
0.0
 40
34.00000000537564
100
AcDbArc
 50
273.0
 51
312.590378
  0
LINE
  5
1C0
102
{ACAD_REACTORS
330
4F3
102
}
330
1F
100
AcDbEntity
  8
LC-002-002-----0
 62
     7
370
    50
100
AcDbLine
 10
1025.023631
 20
2381.510895
 30
0.0
 11
1058.657822
 21
2383.273588
 31
0.0
  0
ARC
  5
1C1
102
{ACAD_REACTORS
330
4F3
102
}
330
1F
100
AcDbEntity
  8
LC-002-002-----0
 62
     7
370
    50
100
AcDbCircle
 10
1025.285311
 20
2376.517747
 30
0.0
 40
5.000000000241593
100
AcDbArc
 50
93.0
 51
155.0
  0
LINE
  5
1C2
102
{ACAD_REACTORS
330
4F3
102
}
330
1F
100
AcDbEntity
  8
LC-002-002-----0
 62
     7
370
    50
100
AcDbLine
 10
1020.753772
 20
2378.630838
 30
0.0
 11
1020.283114
 21
2377.621509
 31
0.0
  0
ARC
  5
1C3
102
{ACAD_REACTORS
330
4F3
102
}
330
1F
100
AcDbEntity
  8
LC-002-002-----0
 62
     7
370
    50
100
AcDbCircle
 10
1017.56419
 20
2378.889364
 30
0.0
 40
3.0
100
AcDbArc
 50
270.0
 51
335.0
  0
LINE
  5
1C4
102
{ACAD_REACTORS
330
4F3
102
}
330
1F
100
AcDbEntity
  8
LC-002-002-----0
 62
     7
370
    50
100
AcDbLine
 10
1002.475401
 20
2385.947326
 30
0.0
 11
1002.475401
 21
2375.889364
 31
0.0
  0
LINE
  5
1C5
102
{ACAD_REACTORS
330
4F3
102
}
330
1F
100
AcDbEntity
  8
LC-002-002-----0
 62
     7
370
    50
100
AcDbLine
 10
1013.044754
 20
2387.810988
 30
0.0
 11
1002.475401
 21
2385.947326
 31
0.0
  0
ARC
  5
1C6
102
{ACAD_REACTORS
330
4F3
102
}
330
1F
100
AcDbEntity
  8
LC-002-002-----0
 62
     7
370
    50
100
AcDbCircle
 10
1012.871106
 20
2388.795796
 30
0.0
 40
0.9999999999595597
100
AcDbArc
 50
280.0
 51
355.000861
  0
LINE
  5
1C7
102
{ACAD_REACTORS
330
4F3
102
}
330
1F
100
AcDbEntity
  8
LC-002-002-----0
 62
     7
370
    50
100
AcDbLine
 10
1013.884488
 20
2388.905092
 30
0.0
 11
1013.8673
 21
2388.708625
 31
0.0
  0
ARC
  5
1C8
102
{ACAD_REACTORS
330
4F3
102
}
330
1F
100
AcDbEntity
  8
LC-002-002-----0
 62
     7
370
    50
100
AcDbCircle
 10
1015.079919
 20
2388.800471
 30
0.0
 40
1.200000000293823
100
AcDbArc
 50
93.0
 51
175.001631
  0
LINE
  5
1C9
102
{ACAD_REACTORS
330
4F3
102
}
330
1F
100
AcDbEntity
  8
LC-002-002-----0
 62
     7
370
    50
100
AcDbLine
 10
1058.186799
 20
2392.261254
 30
0.0
 11
1015.017116
 21
2389.998827
 31
0.0
  0
ARC
  5
1CA
102
{ACAD_REACTORS
330
4F3
102
}
330
1F
100
AcDbEntity
  8
LC-002-002-----0
 62
     7
370
    50
100
AcDbCircle
 10
1056.8784
 20
2417.226992
 30
0.0
 40
25.00000000559812
100
AcDbArc
 50
273.0
 51
354.0
  0
LINE
  5
1CB
102
{ACAD_REACTORS
330
4F4
102
}
330
1F
100
AcDbEntity
  8
LC-007-006-MLN-0
 62
     7
370
    25
100
AcDbLine
 10
642.575401
 20
1873.815473
 30
0.0
 11
521.575401
 21
1873.815473
 31
0.0
  0
LINE
  5
1CC
102
{ACAD_REACTORS
330
4F4
102
}
330
1F
100
AcDbEntity
  8
LC-007-006-MLN-0
 62
     7
370
    25
100
AcDbLine
 10
582.075401
 20
1934.315473
 30
0.0
 11
582.075401
 21
1813.315473
 31
0.0
  0
LINE
  5
1CD
102
{ACAD_REACTORS
330
4F4
102
}
330
1F
100
AcDbEntity
  8
LC-007-006-MLN-0
 62
     7
370
    25
100
AcDbLine
 10
1016.975401
 20
1811.815473
 30
0.0
 11
895.975401
 21
1811.815473
 31
0.0
  0
LINE
  5
1CE
102
{ACAD_REACTORS
330
4F4
102
}
330
1F
100
AcDbEntity
  8
LC-007-006-MLN-0
 62
     7
370
    25
100
AcDbLine
 10
956.475401
 20
1872.315473
 30
0.0
 11
956.475401
 21
1751.315473
 31
0.0
  0
ARC
  5
1CF
102
{ACAD_REACTORS
330
4F3
102
}
330
1F
100
AcDbEntity
  8
LC-002-002-----0
 62
     7
370
    50
100
AcDbCircle
 10
739.522304
 20
2420.216537
 30
0.0
 40
24.99999999990401
100
AcDbArc
 50
273.0
 51
354.0
  0
ARC
  5
1D0
102
{ACAD_REACTORS
330
4F3
102
}
330
1F
100
AcDbEntity
  8
LC-002-002-----0
 62
     7
370
    50
100
AcDbCircle
 10
739.522304
 20
2420.216537
 30
0.0
 40
33.9999999975659
100
AcDbArc
 50
273.0
 51
312.590378
  0
ARC
  5
1D1
102
{ACAD_REACTORS
330
4F3
102
}
330
1F
100
AcDbEntity
  8
LC-002-002-----0
 62
     7
370
    50
100
AcDbCircle
 10
742.229313
 20
2417.271694
 30
0.0
 40
29.99999999994876
100
AcDbArc
 50
312.590378
 51
354.0
  0
LINE
  5
1D2
102
{ACAD_REACTORS
330
4F3
102
}
330
1F
100
AcDbEntity
  8
LC-002-002-----0
 62
     7
370
    50
100
AcDbLine
 10
780.304812
 20
2569.066875
 30
0.0
 11
764.385351
 21
2417.603325
 31
0.0
  0
LINE
  5
1D3
102
{ACAD_REACTORS
330
4F3
102
}
330
1F
100
AcDbEntity
  8
LC-002-002-----0
 62
     7
370
    50
100
AcDbLine
 10
787.40294
 20
2560.066875
 30
0.0
 11
772.06497
 21
2414.13584
 31
0.0
  0
INSERT
  5
1EE
102
{ACAD_REACTORS
330
4F3
102
}
330
1F
100
AcDbEntity
  8
LC-008-005-----0
 62
     7
370
    25
100
AcDbBlockReference
  2
*X15
 10
0.0
 20
0.0
 30
0.0
  0
INSERT
  5
210
102
{ACAD_REACTORS
330
4F3
102
}
330
1F
100
AcDbEntity
  8
LC-008-005-----0
 62
     7
370
    25
100
AcDbBlockReference
  2
*X26
 10
0.0
 20
0.0
 30
0.0
  0
INSERT
  5
23D
102
{ACAD_REACTORS
330
4F3
102
}
330
1F
100
AcDbEntity
  8
LC-008-005-----0
 62
     7
370
    25
100
AcDbBlockReference
  2
*X37
 10
0.0
 20
0.0
 30
0.0
  0
LINE
  5
23E
102
{ACAD_REACTORS
330
4F3
102
}
330
1F
100
AcDbEntity
  8
LC-002-002-----0
 62
     7
370
    25
100
AcDbLine
 10
898.975401
 20
2389.944232
 30
0.0
 11
1013.975401
 21
2389.944231
 31
0.0
  0
ARC
  5
23F
102
{ACAD_REACTORS
330
4F5
102
}
330
1F
100
AcDbEntity
  8
LC-002-002-----0
 62
     7
370
    50
100
AcDbCircle
 10
1854.257705
 20
1933.040622
 30
0.0
 40
4.999999999999786
100
AcDbArc
 50
276.0
 51
0.0
  0
ARC
  5
240
102
{ACAD_REACTORS
330
4F5
102
}
330
1F
100
AcDbEntity
  8
LC-002-002-----0
 62
     7
370
    50
100
AcDbCircle
 10
1864.257705
 20
1925.042089
 30
0.0
 40
4.00000000001908
100
AcDbArc
 50
276.0
 51
0.0
  0
LINE
  5
241
102
{ACAD_REACTORS
330
4F5
102
}
330
1F
100
AcDbEntity
  8
LC-002-002-----0
 62
     7
370
    50
100
AcDbLine
 10
1854.780347
 20
1928.068012
 30
0.0
 11
1658.905993
 21
1907.480788
 31
0.0
  0
LINE
  5
242
102
{ACAD_REACTORS
330
4F5
102
}
330
1F
100
AcDbEntity
  8
LC-002-002-----0
 62
     7
370
    50
100
AcDbLine
 10
1864.675819
 20
1921.064002
 30
0.0
 11
1662.373472
 21
1899.801168
 31
0.0
  0
ARC
  5
243
102
{ACAD_REACTORS
330
4F5
102
}
330
1F
100
AcDbEntity
  8
LC-002-002-----0
 62
     7
370
    50
100
AcDbCircle
 10
1664.986684
 20
1874.938121
 30
0.0
 40
24.99999999982678
100
AcDbArc
 50
96.0
 51
177.0
  0
ARC
  5
244
102
{ACAD_REACTORS
330
4F5
102
}
330
1F
100
AcDbEntity
  8
LC-002-002-----0
 62
     7
370
    50
100
AcDbCircle
 10
1664.986684
 20
1874.938121
 30
0.0
 40
33.99999999999992
100
AcDbArc
 50
137.409557
 51
171.486549
  0
ARC
  5
245
102
{ACAD_REACTORS
330
4F5
102
}
330
1F
100
AcDbEntity
  8
LC-002-002-----0
 62
     7
370
    50
100
AcDbCircle
 10
1662.041847
 20
1877.645131
 30
0.0
 40
29.99999999996513
100
AcDbArc
 50
96.0
 51
137.409556
  0
ARC
  5
246
102
{ACAD_REACTORS
330
4F5
102
}
330
1F
100
AcDbEntity
  8
LC-002-002-----0
 62
     7
370
    50
100
AcDbCircle
 10
1628.602836
 20
1872.904262
 30
0.0
 40
3.000000000000294
100
AcDbArc
 50
115.0
 51
180.0
  0
ARC
  5
247
102
{ACAD_REACTORS
330
4F5
102
}
330
1F
100
AcDbEntity
  8
LC-002-002-----0
 62
     7
370
    50
100
AcDbCircle
 10
1638.513943
 20
1870.419991
 30
0.0
 40
1.199999999999702
100
AcDbArc
 50
275.0
 51
357.0
  0
LINE
  5
248
102
{ACAD_REACTORS
330
4F5
102
}
330
1F
100
AcDbEntity
  8
LC-002-002-----0
 62
     7
370
    50
100
AcDbLine
 10
1627.334981
 20
1875.623186
 30
0.0
 11
1628.529511
 21
1876.180204
 31
0.0
  0
LINE
  5
249
102
{ACAD_REACTORS
330
4F5
102
}
330
1F
100
AcDbEntity
  8
LC-002-002-----0
 62
     7
370
    50
100
AcDbLine
 10
1638.422112
 20
1869.207373
 30
0.0
 11
1638.61853
 21
1869.224557
 31
0.0
  0
ARC
  5
24A
102
{ACAD_REACTORS
330
4F5
102
}
330
1F
100
AcDbEntity
  8
LC-002-002-----0
 62
     7
370
    50
100
AcDbCircle
 10
1638.509267
 20
1868.211178
 30
0.0
 40
0.9999999999998402
100
AcDbArc
 50
95.0
 51
170.0
  0
LINE
  5
24B
102
{ACAD_REACTORS
330
4F5
102
}
330
1F
100
AcDbEntity
  8
LC-002-002-----0
 62
     7
370
    50
100
AcDbLine
 10
1639.712299
 20
1870.357188
 30
0.0
 11
1640.020945
 21
1876.24652
 31
0.0
  0
INSERT
  5
272
102
{ACAD_REACTORS
330
4F5
102
}
330
1F
100
AcDbEntity
  8
LC-008-005-----0
 62
     7
370
    25
100
AcDbBlockReference
  2
*X48
 10
0.0
 20
0.0
 30
0.0
  0
INSERT
  5
28D
102
{ACAD_REACTORS
330
4F5
102
}
330
1F
100
AcDbEntity
  8
LC-008-005-----0
 62
     7
370
    25
100
AcDbBlockReference
  2
*X59
 10
0.0
 20
0.0
 30
0.0
  0
LINE
  5
28E
102
{ACAD_REACTORS
330
4F6
102
}
330
1F
100
AcDbEntity
  8
LC-007-006-MLN-0
 62
     7
370
    25
100
AcDbLine
 10
1211.246784
 20
1873.815473
 30
0.0
 11
1231.301651
 21
1873.815473
 31
0.0
  0
ARC
  5
28F
102
{ACAD_REACTORS
330
4F6
102
}
330
1F
100
AcDbEntity
  8
LC-004-002-RND-0
 62
     7
370
    50
100
AcDbCircle
 10
1262.644295
 20
1579.803926
 30
0.0
 40
30.00000000000001
100
AcDbArc
 50
222.590387
 51
264.0
  0
LINE
  5
290
102
{ACAD_REACTORS
330
4F6
102
}
330
1F
100
AcDbEntity
  8
LC-002-002-----0
 62
     7
370
    50
100
AcDbLine
 10
1224.304746
 20
1919.815473
 30
0.0
 11
1224.304746
 21
1827.815473
 31
0.0
  0
LINE
  5
291
102
{ACAD_REACTORS
330
4F6
102
}
330
1F
100
AcDbEntity
  8
LC-002-002-----0
 62
     7
370
    25
100
AcDbLine
 10
1228.301652
 20
1816.315473
 30
0.0
 11
1228.301651
 21
1931.315473
 31
0.0
  0
ARC
  5
292
102
{ACAD_REACTORS
330
4F6
102
}
330
1F
100
AcDbEntity
  8
LC-004-002-RND-0
 62
     7
370
    50
100
AcDbCircle
 10
1251.050723
 20
1946.608486
 30
0.0
 40
29.99999999999953
100
AcDbArc
 50
96.0
 51
137.409622
  0
ARC
  5
293
102
{ACAD_REACTORS
330
4F6
102
}
330
1F
100
AcDbEntity
  8
LC-004-002-RND-0
 62
     7
370
    50
100
AcDbCircle
 10
1265.589138
 20
1582.510936
 30
0.0
 40
25.00000000000014
100
AcDbArc
 50
183.0
 51
264.0
  0
LINE
  5
294
102
{ACAD_REACTORS
330
4F6
102
}
330
1F
100
AcDbEntity
  8
LC-002-002-----0
 62
     7
370
    50
100
AcDbLine
 10
1219.868315
 20
1942.363703
 30
0.0
 11
1220.042162
 21
1945.6809
 31
0.0
  0
ARC
  5
295
102
{ACAD_REACTORS
330
4F6
102
}
330
1F
100
AcDbEntity
  8
LC-004-002-RND-0
 62
     7
370
    50
100
AcDbCircle
 10
1214.875167
 20
1942.625383
 30
0.0
 40
5.000000000000196
100
AcDbArc
 50
295.0
 51
357.0
  0
ARC
  5
296
102
{ACAD_REACTORS
330
4F6
102
}
330
1F
100
AcDbEntity
  8
LC-004-002-RND-0
 62
     7
370
    50
100
AcDbCircle
 10
1217.246784
 20
1934.904262
 30
0.0
 40
3.000000000000112
100
AcDbArc
 50
115.0
 51
180.0
  0
ARC
  5
297
102
{ACAD_REACTORS
330
4F6
102
}
330
1F
100
AcDbEntity
  8
LC-002-002-----0
 62
     7
370
    50
100
AcDbCircle
 10
1265.589138
 20
1582.510936
 30
0.0
 40
34.00000000000006
100
AcDbArc
 50
183.0
 51
222.590387
  0
LINE
  5
298
102
{ACAD_REACTORS
330
4F6
102
}
330
1F
100
AcDbEntity
  8
LC-002-002-----0
 62
     7
370
    50
100
AcDbLine
 10
1214.246784
 20
1934.904262
 30
0.0
 11
1214.246784
 21
1812.726684
 31
0.0
  0
LINE
  5
299
102
{ACAD_REACTORS
330
4F6
102
}
330
1F
100
AcDbEntity
  8
LC-002-002-----0
 62
     7
370
    50
100
AcDbLine
 10
1456.901653
 20
1506.752506
 30
0.0
 11
1456.901653
 21
2020.87844
 31
0.0
  0
LINE
  5
29A
102
{ACAD_REACTORS
330
4F6
102
}
330
1F
100
AcDbEntity
  8
LC-002-002-----0
 62
     7
370
    50
100
AcDbLine
 10
1453.319766
 20
1537.641945
 30
0.0
 11
1262.975926
 21
1557.647888
 31
0.0
  0
LINE
  5
29B
102
{ACAD_REACTORS
330
4F6
102
}
330
1F
100
AcDbEntity
  8
LC-002-002-----0
 62
     7
370
    50
100
AcDbLine
 10
1449.901653
 20
1503.465473
 30
0.0
 11
1454.110922
 21
1503.759814
 31
0.0
  0
LINE
  5
29C
102
{ACAD_REACTORS
330
4F6
102
}
330
1F
100
AcDbEntity
  8
LC-002-002-----0
 62
     7
370
    50
100
AcDbLine
 10
1447.901653
 20
1515.465473
 30
0.0
 11
1447.901653
 21
1525.665325
 31
0.0
  0
LINE
  5
29D
102
{ACAD_REACTORS
330
4F6
102
}
330
1F
100
AcDbEntity
  8
LC-002-002-----0
 62
     7
370
    50
100
AcDbLine
 10
1443.424295
 20
1530.637934
 30
0.0
 11
1259.508441
 21
1549.968269
 31
0.0
  0
ARC
  5
29E
102
{ACAD_REACTORS
330
4F6
102
}
330
1F
100
AcDbEntity
  8
LC-002-002-----0
 62
     7
370
    50
100
AcDbCircle
 10
1217.246784
 20
1812.726684
 30
0.0
 40
3.000000000017508
100
AcDbArc
 50
180.0
 51
245.0
  0
ARC
  5
29F
102
{ACAD_REACTORS
330
4F6
102
}
330
1F
100
AcDbEntity
  8
LC-002-002-----0
 62
     7
370
    50
100
AcDbCircle
 10
1452.901653
 20
1533.663857
 30
0.0
 40
4.0
100
AcDbArc
 50
0.0
 51
84.0
  0
ARC
  5
2A0
102
{ACAD_REACTORS
330
4F6
102
}
330
1F
100
AcDbEntity
  8
LC-002-002-----0
 62
     7
370
    50
100
AcDbCircle
 10
1453.901653
 20
1506.752506
 30
0.0
 40
3.000000000000006
100
AcDbArc
 50
274.0
 51
0.0
  0
ARC
  5
2A1
102
{ACAD_REACTORS
330
4F6
102
}
330
1F
100
AcDbEntity
  8
LC-002-002-----0
 62
     7
370
    50
100
AcDbCircle
 10
1442.901653
 20
1525.665325
 30
0.0
 40
5.0
100
AcDbArc
 50
0.0
 51
84.0
  0
LINE
  5
2A2
102
{ACAD_REACTORS
330
4F6
102
}
330
1F
100
AcDbEntity
  8
LC-002-002-----0
 62
     7
370
    50
100
AcDbLine
 10
1219.868315
 20
1805.267243
 30
0.0
 11
1231.635734
 21
1580.731514
 31
0.0
  0
LINE
  5
2A3
102
{ACAD_REACTORS
330
4F6
102
}
330
1F
100
AcDbEntity
  8
LC-002-002-----0
 62
     7
370
    50
100
AcDbLine
 10
1215.978929
 20
1810.007761
 30
0.0
 11
1216.988258
 21
1809.537103
 31
0.0
  0
LINE
  5
2A4
102
{ACAD_REACTORS
330
4F6
102
}
330
1F
100
AcDbEntity
  8
LC-002-002-----0
 62
     7
370
    50
100
AcDbLine
 10
1214.246784
 20
1827.815473
 30
0.0
 11
1224.304746
 21
1827.815473
 31
0.0
  0
LINE
  5
2A5
102
{ACAD_REACTORS
330
4F6
102
}
330
1F
100
AcDbEntity
  8
LC-002-002-----0
 62
     7
370
    50
100
AcDbLine
 10
1224.304746
 20
1827.815473
 30
0.0
 11
1226.168408
 21
1817.24612
 31
0.0
  0
ARC
  5
2A6
102
{ACAD_REACTORS
330
4F6
102
}
330
1F
100
AcDbEntity
  8
LC-002-002-----0
 62
     7
370
    50
100
AcDbCircle
 10
1227.153215
 20
1817.419768
 30
0.0
 40
0.9999999999304577
100
AcDbArc
 50
190.0
 51
265.0
  0
LINE
  5
2A7
102
{ACAD_REACTORS
330
4F6
102
}
330
1F
100
AcDbEntity
  8
LC-002-002-----0
 62
     7
370
    50
100
AcDbLine
 10
1227.06606
 20
1816.423574
 30
0.0
 11
1227.262499
 21
1816.406387
 31
0.0
  0
ARC
  5
2A8
102
{ACAD_REACTORS
330
4F6
102
}
330
1F
100
AcDbEntity
  8
LC-002-002-----0
 62
     7
370
    50
100
AcDbCircle
 10
1227.157891
 20
1815.210956
 30
0.0
 40
1.199999999999815
100
AcDbArc
 50
3.0
 51
85.001024
  0
LINE
  5
2A9
102
{ACAD_REACTORS
330
4F6
102
}
330
1F
100
AcDbEntity
  8
LC-002-002-----0
 62
     7
370
    50
100
AcDbLine
 10
1228.356247
 20
1815.273759
 30
0.0
 11
1240.623399
 21
1581.202537
 31
0.0
  0
LINE
  5
2AA
102
{ACAD_REACTORS
330
4F6
102
}
330
1F
100
AcDbEntity
  8
LC-002-002-----0
 62
     7
370
    50
100
AcDbLine
 10
1228.356247
 20
1932.357188
 30
0.0
 11
1229.029827
 21
1945.209876
 31
0.0
  0
LINE
  5
2AB
102
{ACAD_REACTORS
330
4F6
102
}
330
1F
100
AcDbEntity
  8
LC-002-002-----0
 62
     7
370
    50
100
AcDbLine
 10
1227.06606
 20
1931.207373
 30
0.0
 11
1227.262512
 21
1931.22456
 31
0.0
  0
LINE
  5
2AC
102
{ACAD_REACTORS
330
4F6
102
}
330
1F
100
AcDbEntity
  8
LC-002-002-----0
 62
     7
370
    50
100
AcDbLine
 10
1214.246784
 20
1919.815473
 30
0.0
 11
1224.304746
 21
1919.815473
 31
0.0
  0
LINE
  5
2AD
102
{ACAD_REACTORS
330
4F6
102
}
330
1F
100
AcDbEntity
  8
LC-002-002-----0
 62
     7
370
    50
100
AcDbLine
 10
1447.901653
 20
1515.465473
 30
0.0
 11
1449.901653
 21
1515.465473
 31
0.0
  0
LINE
  5
2AE
102
{ACAD_REACTORS
330
4F6
102
}
330
1F
100
AcDbEntity
  8
LC-002-002-----0
 62
     7
370
    50
100
AcDbLine
 10
1449.901653
 20
1503.465473
 30
0.0
 11
1449.901653
 21
1515.465473
 31
0.0
  0
ARC
  5
2AF
102
{ACAD_REACTORS
330
4F6
102
}
330
1F
100
AcDbEntity
  8
LC-002-002-----0
 62
     7
370
    50
100
AcDbCircle
 10
1227.157891
 20
1932.419991
 30
0.0
 40
1.200000000294122
100
AcDbArc
 50
274.99837
 51
357.0
  0
ARC
  5
2B0
102
{ACAD_REACTORS
330
4F6
102
}
330
1F
100
AcDbEntity
  8
LC-002-002-----0
 62
     7
370
    50
100
AcDbCircle
 10
1227.153215
 20
1930.211178
 30
0.0
 40
0.9999999999591768
100
AcDbArc
 50
95.0
 51
170.0
  0
LINE
  5
2B1
102
{ACAD_REACTORS
330
4F6
102
}
330
1F
100
AcDbEntity
  8
LC-002-002-----0
 62
     7
370
    50
100
AcDbLine
 10
1224.304746
 20
1919.815473
 30
0.0
 11
1226.168408
 21
1930.384826
 31
0.0
  0
LINE
  5
2B2
102
{ACAD_REACTORS
330
4F6
102
}
330
1F
100
AcDbEntity
  8
LC-002-002-----0
 62
     7
370
    50
100
AcDbLine
 10
1215.978929
 20
1937.623186
 30
0.0
 11
1216.988258
 21
1938.093844
 31
0.0
  0
ARC
  5
2B3
102
{ACAD_REACTORS
330
4F6
102
}
330
1F
100
AcDbEntity
  8
LC-002-002-----0
 62
     7
370
    50
100
AcDbCircle
 10
1214.875167
 20
1805.005564
 30
0.0
 40
5.000000000201371
100
AcDbArc
 50
3.0
 51
65.0
  0
LINE
  5
2B4
102
{ACAD_REACTORS
330
4F6
102
}
330
1F
100
AcDbEntity
  8
LC-002-002-----0
 62
     7
370
    50
100
AcDbLine
 10
1453.319766
 20
1989.989002
 30
0.0
 11
1251.382354
 21
1968.764525
 31
0.0
  0
LINE
  5
2B5
102
{ACAD_REACTORS
330
4F6
102
}
330
1F
100
AcDbEntity
  8
LC-002-002-----0
 62
     7
370
    50
100
AcDbLine
 10
1449.901653
 20
2024.165473
 30
0.0
 11
1454.110922
 21
2023.871132
 31
0.0
  0
ARC
  5
2B6
102
{ACAD_REACTORS
330
4F6
102
}
330
1F
100
AcDbEntity
  8
LC-002-002-----0
 62
     7
370
    50
100
AcDbCircle
 10
1253.995566
 20
1943.901477
 30
0.0
 40
24.99999999999903
100
AcDbArc
 50
96.0
 51
177.0
  0
LINE
  5
2B7
102
{ACAD_REACTORS
330
4F6
102
}
330
1F
100
AcDbEntity
  8
LC-002-002-----0
 62
     7
370
    50
100
AcDbLine
 10
1447.901653
 20
2012.165473
 30
0.0
 11
1447.901653
 21
2001.965622
 31
0.0
  0
LINE
  5
2B8
102
{ACAD_REACTORS
330
4F6
102
}
330
1F
100
AcDbEntity
  8
LC-002-002-----0
 62
     7
370
    50
100
AcDbLine
 10
1443.424295
 20
1996.993012
 30
0.0
 11
1247.914869
 21
1976.444143
 31
0.0
  0
ARC
  5
2B9
102
{ACAD_REACTORS
330
4F6
102
}
330
1F
100
AcDbEntity
  8
LC-002-002-----0
 62
     7
370
    50
100
AcDbCircle
 10
1253.995566
 20
1943.901477
 30
0.0
 40
34.00000000000021
100
AcDbArc
 50
137.409622
 51
177.0
  0
ARC
  5
2BA
102
{ACAD_REACTORS
330
4F6
102
}
330
1F
100
AcDbEntity
  8
LC-002-002-----0
 62
     7
370
    50
100
AcDbCircle
 10
1452.901653
 20
1993.967089
 30
0.0
 40
3.999999999999991
100
AcDbArc
 50
276.0
 51
0.0
  0
ARC
  5
2BB
102
{ACAD_REACTORS
330
4F6
102
}
330
1F
100
AcDbEntity
  8
LC-002-002-----0
 62
     7
370
    50
100
AcDbCircle
 10
1453.901653
 20
2020.87844
 30
0.0
 40
3.0
100
AcDbArc
 50
0.0
 51
86.0
  0
ARC
  5
2BC
102
{ACAD_REACTORS
330
4F6
102
}
330
1F
100
AcDbEntity
  8
LC-002-002-----0
 62
     7
370
    50
100
AcDbCircle
 10
1442.901653
 20
2001.965622
 30
0.0
 40
4.999999999999833
100
AcDbArc
 50
276.0
 51
0.0
  0
LINE
  5
2BD
102
{ACAD_REACTORS
330
4F6
102
}
330
1F
100
AcDbEntity
  8
LC-002-002-----0
 62
     7
370
    50
100
AcDbLine
 10
1447.901653
 20
2012.165473
 30
0.0
 11
1449.901653
 21
2012.165473
 31
0.0
  0
LINE
  5
2BE
102
{ACAD_REACTORS
330
4F6
102
}
330
1F
100
AcDbEntity
  8
LC-002-002-----0
 62
     7
370
    50
100
AcDbLine
 10
1449.901653
 20
2024.165473
 30
0.0
 11
1449.901653
 21
2012.165473
 31
0.0
  0
INSERT
  5
2D5
102
{ACAD_REACTORS
330
4F6
102
}
330
1F
100
AcDbEntity
  8
LC-008-005-----0
 62
     7
370
    25
100
AcDbBlockReference
  2
*X610
 10
0.0
 20
0.0
 30
0.0
  0
INSERT
  5
301
102
{ACAD_REACTORS
330
4F6
102
}
330
1F
100
AcDbEntity
  8
LC-008-005-----0
 62
     7
370
    25
100
AcDbBlockReference
  2
*X711
 10
0.0
 20
0.0
 30
0.0
  0
DIMENSION
  5
302
330
1F
100
AcDbEntity
  8
LC-005-003-----0
 62
     7
370
    25
100
AcDbDimension
  2
*D12
 10
1136.975401
 20
1400.0
 30
0.0
 11
743.275401
 21
1430.0
 31
0.0
 70
   160
 71
     5
 42
787.4
  3
LC-DIM-L-0025-02-02
100
AcDbAlignedDimension
 13
349.575401
 23
1515.465473
 33
0.0
 14
1136.975401
 24
1515.465473
 34
0.0
100
AcDbRotatedDimension
  0
DIMENSION
  5
310
330
1F
100
AcDbEntity
  8
LC-005-003-----0
 62
     7
370
    25
100
AcDbDimension
  2
*D13
 10
250.0
 20
1503.465473
 30
0.0
 11
220.0
 21
1763.815473
 31
0.0
 70
   160
 71
     5
 42
520.7
 53
90.0
  3
LC-DIM-L-0025-02-02
100
AcDbAlignedDimension
 13
361.575401
 23
2024.165473
 33
0.0
 14
361.575401
 24
1503.465473
 34
0.0
 50
90.0
100
AcDbRotatedDimension
  0
DIMENSION
  5
31D
330
1F
100
AcDbEntity
  8
LC-005-003-----0
 62
     7
370
    25
100
AcDbDimension
  2
*D14
 10
1550.0
 20
1990.365473
 30
0.0
 11
1520.0
 21
1763.815473
 31
0.0
 70
   160
 71
     5
 42
453.1
 53
90.0
  3
LC-DIM-L-0025-02-02
100
AcDbAlignedDimension
 13
1456.901653
 23
1537.265473
 33
0.0
 14
1456.901653
 24
1990.365473
 34
0.0
 50
90.0
100
AcDbRotatedDimension
  0
DIMENSION
  5
32B
330
1F
100
AcDbEntity
  8
LC-005-003-----0
 62
     7
370
    25
100
AcDbDimension
  2
*D15
 10
1950.0
 20
1921.440473
 30
0.0
 11
1920.0
 21
1729.352973
 31
0.0
 70
   160
 71
     5
 42
384.175
 53
90.0
  3
LC-DIM-L-0025-02-02
100
AcDbAlignedDimension
 13
1868.257705
 23
1537.265473
 33
0.0
 14
1868.257705
 24
1921.440473
 34
0.0
 50
90.0
100
AcDbRotatedDimension
  0
DIMENSION
  5
339
330
1F
100
AcDbEntity
  8
LC-005-003-----0
 62
     7
370
    25
100
AcDbDimension
  2
*D16
 10
809.775401
 20
2700.0
 30
0.0
 11
795.275401
 21
2730.0
 31
0.0
 70
   160
 71
     5
 42
29.0
  3
LC-DIM-L-0025-02-02
100
AcDbAlignedDimension
 13
780.775401
 23
2593.544233
 33
0.0
 14
809.775401
 24
2593.544233
 34
0.0
100
AcDbRotatedDimension
  0
DIMENSION
  5
348
330
1F
100
AcDbEntity
  8
LC-005-003-----0
 62
     7
370
    25
100
AcDbDimension
  2
*D17
 10
1103.175401
 20
2800.0
 30
0.0
 11
956.475401
 21
2830.0
 31
0.0
 70
   160
 71
     5
 42
293.4
  3
LC-DIM-L-0025-02-02
100
AcDbAlignedDimension
 13
809.775401
 23
2593.544233
 33
0.0
 14
1103.175401
 24
2618.544233
 34
0.0
100
AcDbRotatedDimension
  0
DIMENSION
  5
356
330
1F
100
AcDbEntity
  8
LC-005-003-----0
 62
     7
370
    25
100
AcDbDimension
  2
*D18
 10
383.375401
 20
2800.0
 30
0.0
 11
582.075401
 21
2830.0
 31
0.0
 70
   160
 71
     5
 42
397.4
  3
LC-DIM-L-0025-02-02
100
AcDbAlignedDimension
 13
780.775401
 23
2593.544233
 33
0.0
 14
383.375401
 24
2618.544233
 34
0.0
100
AcDbRotatedDimension
  0
DIMENSION
  5
365
330
1F
100
AcDbEntity
  8
LC-005-003-----0
 62
     7
370
    25
100
AcDbDimension
  2
*D19
 10
950.0
 20
2389.944231
 30
0.0
 11
920.0
 21
2504.244232
 31
0.0
 70
   160
 71
     5
 42
228.600001
 53
90.0
  3
LC-DIM-L-0025-02-32
100
AcDbAlignedDimension
 13
1106.777017
 23
2618.544233
 33
0.0
 14
956.475401
 24
2389.944231
 34
0.0
 50
90.0
100
AcDbRotatedDimension
  0
DIMENSION
  5
370
330
1F
100
AcDbEntity
  8
LC-005-003-----0
 62
     7
370
    25
100
AcDbDimension
  2
*D20
 10
550.0
 20
2389.944231
 30
0.0
 11
520.0
 21
2504.244232
 31
0.0
 70
   160
 71
     5
 42
228.600001
 53
90.0
  3
LC-DIM-L-0025-02-32
100
AcDbAlignedDimension
 13
379.773785
 23
2618.544233
 33
0.0
 14
582.075401
 24
2389.944231
 34
0.0
 50
90.0
100
AcDbRotatedDimension
  0
DIMENSION
  5
37B
330
1F
100
AcDbEntity
  8
LC-005-003-----0
 62
     7
370
    25
100
AcDbDimension
  2
*D21
 10
813.275401
 20
2200.0
 30
0.0
 11
975.125401
 21
2230.0
 31
0.0
 70
   160
 71
     5
 42
323.7
  3
LC-DIM-L-0025-02-02
100
AcDbAlignedDimension
 13
1136.975401
 23
2012.165473
 33
0.0
 14
813.275401
 24
1987.715473
 34
0.0
100
AcDbRotatedDimension
  0
DIMENSION
  5
388
330
1F
100
AcDbEntity
  8
LC-005-003-----0
 62
     7
370
    25
100
AcDbDimension
  2
*D22
 10
700.0
 20
1968.665473
 30
0.0
 11
670.0
 21
2053.605682
 31
0.0
 70
   160
 71
     5
 42
55.5
 53
90.0
  3
LC-DIM-L-0025-02-02
100
AcDbAlignedDimension
 13
743.275401
 23
2024.165473
 33
0.0
 14
794.225401
 24
1968.665473
 34
0.0
 50
90.0
100
AcDbRotatedDimension
  0
DIMENSION
  5
397
330
1F
100
AcDbEntity
  8
LC-005-003-----0
 62
     7
370
    25
100
AcDbDimension
  2
*D23
 10
650.0
 20
2573.544233
 30
0.0
 11
620.0
 21
2596.044233
 31
0.0
 70
   160
 71
     5
 42
45.0
 53
90.0
  3
LC-DIM-L-0025-02-02
100
AcDbAlignedDimension
 13
743.275401
 23
2618.544233
 33
0.0
 14
785.277421
 24
2573.544233
 34
0.0
 50
90.0
100
AcDbRotatedDimension
  0
ARC
  5
3A6
102
{ACAD_REACTORS
330
4F3
102
}
330
1F
100
AcDbEntity
  8
LC-004-002-RND-0
 62
     7
370
    50
100
AcDbCircle
 10
790.273465
 20
2539.544233
 30
0.0
 40
5.0
100
AcDbArc
 50
90.0
 51
174.0
  0
ARC
  5
3A7
102
{ACAD_REACTORS
330
4F3
102
}
330
1F
100
AcDbEntity
  8
LC-004-002-RND-0
 62
     7
370
    50
100
AcDbCircle
 10
800.277338
 20
2539.544233
 30
0.0
 40
4.999999999999916
100
AcDbArc
 50
6.0
 51
90.0
  0
LINE
  5
3A8
102
{ACAD_REACTORS
330
4F3
102
}
330
1F
100
AcDbEntity
  8
LC-002-002-----0
 62
     7
370
    50
100
AcDbLine
 10
790.273465
 20
2544.544233
 30
0.0
 11
800.277338
 21
2544.544233
 31
0.0
  0
LINE
  5
3A9
102
{ACAD_REACTORS
330
4F1
102
}
330
1F
100
AcDbEntity
  8
LC-002-002-----0
 62
     7
370
    35
100
AcDbLine
 10
359.575401
 20
2611.544233
 30
0.0
 11
239.575401
 21
2611.544233
 31
0.0
  0
LINE
  5
3AA
102
{ACAD_REACTORS
330
4F1
102
}
330
1F
100
AcDbEntity
  8
LC-002-002-----0
 62
     7
370
    35
100
AcDbLine
 10
239.575401
 20
2571.544233
 30
0.0
 11
359.575401
 21
2571.544233
 31
0.0
  0
LINE
  5
3AB
102
{ACAD_REACTORS
330
4F1
102
}
330
1F
100
AcDbEntity
  8
LC-002-002-----0
 62
     7
370
    35
100
AcDbLine
 10
359.575401
 20
2571.544233
 30
0.0
 11
359.575401
 21
2611.544233
 31
0.0
  0
LINE
  5
3AC
102
{ACAD_REACTORS
330
4F1
102
}
330
1F
100
AcDbEntity
  8
LC-002-002-----0
 62
     7
370
    35
100
AcDbLine
 10
1162.375401
 20
2375.889364
 30
0.0
 11
1162.375401
 21
2571.544233
 31
0.0
  0
INSERT
  5
3EC
102
{ACAD_REACTORS
330
4F1
102
}
330
1F
100
AcDbEntity
  8
LC-008-005-----0
 62
     7
370
    25
100
AcDbBlockReference
  2
*X824
 10
0.0
 20
0.0
 30
0.0
  0
LINE
  5
3ED
102
{ACAD_REACTORS
330
4F1
102
}
330
1F
100
AcDbEntity
  8
LC-002-002-----0
 62
     7
370
    35
100
AcDbLine
 10
1126.975401
 20
2611.544233
 30
0.0
 11
1247.775401
 21
2611.544233
 31
0.0
  0
LINE
  5
3EE
102
{ACAD_REACTORS
330
4F1
102
}
330
1F
100
AcDbEntity
  8
LC-002-002-----0
 62
     7
370
    35
100
AcDbLine
 10
1247.775401
 20
2571.544233
 30
0.0
 11
1126.975401
 21
2571.544233
 31
0.0
  0
LINE
  5
3EF
102
{ACAD_REACTORS
330
4F1
102
}
330
1F
100
AcDbEntity
  8
LC-002-002-----0
 62
     7
370
    35
100
AcDbLine
 10
1126.975401
 20
2571.544233
 30
0.0
 11
1126.975401
 21
2611.544233
 31
0.0
  0
INSERT
  5
42F
102
{ACAD_REACTORS
330
4F1
102
}
330
1F
100
AcDbEntity
  8
LC-008-005-----0
 62
     7
370
    25
100
AcDbBlockReference
  2
*X925
 10
0.0
 20
0.0
 30
0.0
  0
LINE
  5
430
102
{ACAD_REACTORS
330
4F1
102
}
330
1F
100
AcDbEntity
  8
LC-002-002-----0
 62
     7
370
    35
100
AcDbLine
 10
1143.375401
 20
2375.889364
 30
0.0
 11
1143.375401
 21
2571.544233
 31
0.0
  0
INSERT
  5
467
102
{ACAD_REACTORS
330
4F1
102
}
330
1F
100
AcDbEntity
  8
LC-008-005-----0
 62
     7
370
    25
100
AcDbBlockReference
  2
*X1026
 10
0.0
 20
0.0
 30
0.0
  0
LINE
  5
468
102
{ACAD_REACTORS
330
4F1
102
}
330
1F
100
AcDbEntity
  8
LC-002-002-----0
 62
     7
370
    35
100
AcDbLine
 10
324.175401
 20
2375.889364
 30
0.0
 11
324.175401
 21
2571.544233
 31
0.0
  0
LINE
  5
469
102
{ACAD_REACTORS
330
4F1
102
}
330
1F
100
AcDbEntity
  8
LC-002-002-----0
 62
     7
370
    35
100
AcDbLine
 10
343.175401
 20
2375.889364
 30
0.0
 11
343.175401
 21
2571.544233
 31
0.0
  0
INSERT
  5
4A0
102
{ACAD_REACTORS
330
4F1
102
}
330
1F
100
AcDbEntity
  8
LC-008-005-----0
 62
     7
370
    25
100
AcDbBlockReference
  2
*X1127
 10
0.0
 20
0.0
 30
0.0
  0
DIMENSION
  5
4A1
330
1F
100
AcDbEntity
  8
LC-005-003-----0
 62
     7
370
    25
100
AcDbDimension
  2
*D28
 10
1162.375401
 20
2300.0
 30
0.0
 11
743.275401
 21
2330.0
 31
0.0
 70
   160
 71
     5
 42
838.2
  3
LC-DIM-L-0025-02-02
100
AcDbAlignedDimension
 13
324.175401
 23
2375.889364
 33
0.0
 14
1162.375401
 24
2375.889364
 34
0.0
100
AcDbRotatedDimension
  0
CIRCLE
  5
4AE
330
1F
100
AcDbEntity
  8
LC-002-002-----0
  6
DASHED
 62
     7
370
    25
100
AcDbCircle
 10
395.075401
 20
1978.665473
 30
0.0
 40
19.04999999999996
  0
LINE
  5
4AF
330
1F
100
AcDbEntity
  8
LC-007-006-MLN-0
 62
     7
370
    25
100
AcDbLine
 10
417.125401
 20
1978.665473
 30
0.0
 11
373.025401
 21
1978.665473
 31
0.0
  0
LINE
  5
4B0
330
1F
100
AcDbEntity
  8
LC-007-006-MLN-0
 62
     7
370
    25
100
AcDbLine
 10
395.075401
 20
2000.715473
 30
0.0
 11
395.075401
 21
1956.615473
 31
0.0
  0
LINE
  5
4B1
102
{ACAD_REACTORS
330
4F2
102
}
330
1F
100
AcDbEntity
  8
LC-007-006-MLN-0
 62
     7
370
    25
100
AcDbLine
 10
1038.525401
 20
1968.665473
 30
0.0
 11
791.225401
 21
1968.665473
 31
0.0
  0
LINE
  5
4B2
102
{ACAD_REACTORS
330
4F2
102
}
330
1F
100
AcDbEntity
  8
LC-007-006-MLN-0
 62
     7
370
    25
100
AcDbLine
 10
813.275401
 20
1990.715473
 30
0.0
 11
813.275401
 21
1946.615473
 31
0.0
  0
CIRCLE
  5
4B3
330
1F
100
AcDbEntity
  8
LC-002-002-----0
  6
DASHED
 62
     7
370
    25
100
AcDbCircle
 10
914.875401
 20
1968.665473
 30
0.0
 40
19.04999999999996
  0
CIRCLE
  5
4B4
330
1F
100
AcDbEntity
  8
LC-002-002-----0
  6
DASHED
 62
     7
370
    25
100
AcDbCircle
 10
1016.475401
 20
1968.665473
 30
0.0
 40
19.04999999999996
  0
LINE
  5
4B5
330
1F
100
AcDbEntity
  8
LC-007-006-MLN-0
 62
     7
370
    25
100
AcDbLine
 10
914.875401
 20
1990.715473
 30
0.0
 11
914.875401
 21
1946.615473
 31
0.0
  0
LINE
  5
4B6
330
1F
100
AcDbEntity
  8
LC-007-006-MLN-0
 62
     7
370
    25
100
AcDbLine
 10
1016.475401
 20
1990.715473
 30
0.0
 11
1016.475401
 21
1946.615473
 31
0.0
  0
CIRCLE
  5
4B7
330
1F
100
AcDbEntity
  8
LC-002-002-----0
  6
DASHED
 62
     7
370
    25
100
AcDbCircle
 10
813.275401
 20
1968.665473
 30
0.0
 40
19.04999999999996
  0
DIMENSION
  5
4B8
330
1F
100
AcDbEntity
  8
LC-005-003-----0
 62
     7
370
    25
100
AcDbDimension
  2
*D29
 10
395.075401
 20
2100.0
 30
0.0
 11
340.262107
 21
2130.0
 31
0.0
 70
   160
 71
     5
 42
45.5
  3
LC-DIM-L-0025-02-02
100
AcDbAlignedDimension
 13
349.575401
 23
2012.165473
 33
0.0
 14
395.075401
 24
1997.715473
 34
0.0
100
AcDbRotatedDimension
  0
DIMENSION
  5
4C7
330
1F
100
AcDbEntity
  8
LC-005-003-----0
 62
     7
370
    25
100
AcDbDimension
  2
*D30
 10
500.0
 20
1978.665473
 30
0.0
 11
470.0
 21
2074.828559
 31
0.0
 70
   160
 71
     5
 42
45.5
 53
90.0
  3
LC-DIM-L-0025-02-02
100
AcDbAlignedDimension
 13
361.575401
 23
2024.165473
 33
0.0
 14
376.025401
 24
1978.665473
 34
0.0
 50
90.0
100
AcDbRotatedDimension
  0
DIMENSION
  5
4D6
330
1F
100
AcDbEntity
  8
LC-005-003-----0
 62
     7
370
    25
100
AcDbDimension
  2
*D31
 10
914.875401
 20
2100.0
 30
0.0
 11
864.075401
 21
2130.0
 31
0.0
 70
   160
 71
     5
 42
101.6
  3
LC-DIM-L-0025-02-02
100
AcDbAlignedDimension
 13
813.275401
 23
1987.715473
 33
0.0
 14
914.875401
 24
1987.715473
 34
0.0
100
AcDbRotatedDimension
  0
DIMENSION
  5
4E3
330
1F
100
AcDbEntity
  8
LC-005-003-----0
 62
     7
370
    25
100
AcDbDimension
  2
*D32
 10
1016.475401
 20
2100.0
 30
0.0
 11
965.675401
 21
2130.0
 31
0.0
 70
   160
 71
     5
 42
101.6
  3
LC-DIM-L-0025-02-02
100
AcDbAlignedDimension
 13
914.875401
 23
1987.715473
 33
0.0
 14
1016.475401
 24
1987.715473
 34
0.0
100
AcDbRotatedDimension
  0
ENDSEC
  0
SECTION
  2
OBJECTS
  0
DICTIONARY
  5
C
330
0
100
AcDbDictionary
281
     1
  3
ACAD_GROUP
350
D
  3
ACAD_LAYOUT
350
1A
  3
ACAD_MLINESTYLE
350
17
  3
ACAD_PLOTSETTINGS
350
19
  3
ACAD_PLOTSTYLENAME
350
E
  0
DICTIONARY
  5
D
102
{ACAD_REACTORS
330
C
102
}
330
C
100
AcDbDictionary
281
     1
  3
LCGROUP1036
350
4F4
  3
LCGROUP1038
350
4F3
  3
LCGROUP1050
350
4F5
  3
LCGROUP1342
350
4F6
  3
LCGROUP1456
350
4F1
  3
LCGROUP1475
350
4F2
  3
LCGROUP19
350
4F0
  0
DICTIONARY
  5
1A
102
{ACAD_REACTORS
330
C
102
}
330
C
100
AcDbDictionary
281
     1
  3
Layout1
350
1E
  3
Layout2
350
26
  3
Model
350
22
  0
DICTIONARY
  5
17
102
{ACAD_REACTORS
330
C
102
}
330
C
100
AcDbDictionary
281
     1
  3
Standard
350
18
  0
DICTIONARY
  5
19
102
{ACAD_REACTORS
330
C
102
}
330
C
100
AcDbDictionary
281
     1
  0
ACDBDICTIONARYWDFLT
  5
E
102
{ACAD_REACTORS
330
C
102
}
330
C
100
AcDbDictionary
281
     1
  3
Normal
350
F
100
AcDbDictionaryWithDefault
340
F
  0
GROUP
  5
4F4
102
{ACAD_REACTORS
330
D
102
}
330
D
100
AcDbGroup
300
GRP1036
 70
     1
 71
     1
340
137
340
139
340
13A
340
13E
340
140
340
141
340
142
340
143
340
144
340
145
340
14E
340
14F
340
150
340
151
340
152
340
153
340
154
340
155
340
156
340
157
340
158
340
159
340
15A
340
15B
340
15C
340
15D
340
15E
340
15F
340
1CB
340
1CC
340
1CD
340
1CE
  0
GROUP
  5
4F3
102
{ACAD_REACTORS
330
D
102
}
330
D
100
AcDbGroup
300
GRP1038
 70
     1
 71
     1
340
138
340
13D
340
13F
340
146
340
17C
340
17D
340
17E
340
17F
340
180
340
181
340
182
340
183
340
184
340
185
340
186
340
187
340
188
340
189
340
18A
340
18B
340
18C
340
18D
340
18E
340
18F
340
190
340
191
340
192
340
193
340
194
340
195
340
196
340
197
340
198
340
199
340
19A
340
19B
340
19C
340
19D
340
19E
340
19F
340
1A0
340
1A1
340
1A2
340
1A3
340
1A4
340
1A5
340
1A6
340
1A7
340
1A8
340
1A9
340
1AA
340
1AB
340
1AC
340
1AD
340
1AE
340
1AF
340
1B0
340
1B1
340
1B2
340
1B3
340
1B4
340
1B5
340
1B6
340
1B7
340
1B8
340
1B9
340
1BA
340
1BB
340
1BC
340
1BD
340
1BE
340
1BF
340
1C0
340
1C1
340
1C2
340
1C3
340
1C4
340
1C5
340
1C6
340
1C7
340
1C8
340
1C9
340
1CA
340
1CF
340
1D0
340
1D1
340
1D2
340
1D3
340
1EE
340
210
340
23D
340
23E
340
3A6
340
3A7
340
3A8
  0
GROUP
  5
4F5
102
{ACAD_REACTORS
330
D
102
}
330
D
100
AcDbGroup
300
GRP1050
 70
     1
 71
     1
340
147
340
148
340
149
340
14A
340
14B
340
14C
340
14D
340
160
340
161
340
162
340
163
340
164
340
165
340
166
340
167
340
168
340
169
340
16A
340
16B
340
16C
340
16D
340
16E
340
16F
340
170
340
171
340
172
340
173
340
174
340
175
340
176
340
177
340
178
340
179
340
17A
340
17B
340
23F
340
240
340
241
340
242
340
243
340
244
340
245
340
246
340
247
340
248
340
249
340
24A
340
24B
340
272
340
28D
  0
GROUP
  5
4F6
102
{ACAD_REACTORS
330
D
102
}
330
D
100
AcDbGroup
300
GRP1342
 70
     1
 71
     1
340
28E
340
28F
340
290
340
291
340
292
340
293
340
294
340
295
340
296
340
297
340
298
340
299
340
29A
340
29B
340
29C
340
29D
340
29E
340
29F
340
2A0
340
2A1
340
2A2
340
2A3
340
2A4
340
2A5
340
2A6
340
2A7
340
2A8
340
2A9
340
2AA
340
2AB
340
2AC
340
2AD
340
2AE
340
2AF
340
2B0
340
2B1
340
2B2
340
2B3
340
2B4
340
2B5
340
2B6
340
2B7
340
2B8
340
2B9
340
2BA
340
2BB
340
2BC
340
2BD
340
2BE
340
2D5
340
301
  0
GROUP
  5
4F1
102
{ACAD_REACTORS
330
D
102
}
330
D
100
AcDbGroup
300
GRP1456
 70
     1
 71
     1
340
3A9
340
3AA
340
3AB
340
3AC
340
3EC
340
3ED
340
3EE
340
3EF
340
42F
340
430
340
467
340
468
340
469
340
4A0
  0
GROUP
  5
4F2
102
{ACAD_REACTORS
330
D
102
}
330
D
100
AcDbGroup
300
Gruppe 1475
 70
     1
 71
     1
340
4B1
340
4B2
  0
GROUP
  5
4F0
102
{ACAD_REACTORS
330
D
102
}
330
D
100
AcDbGroup
300
Äquidistante
 70
     1
 71
     1
340
105
340
106
340
107
340
108
340
109
340
10A
340
10B
340
10C
  0
LAYOUT
  5
1E
102
{ACAD_REACTORS
330
1A
102
}
330
1A
100
AcDbPlotSettings
  1

  2

  4

  6

 40
0.0
 41
0.0
 42
0.0
 43
0.0
 44
0.0
 45
0.0
 46
0.0
 47
0.0
 48
0.0
 49
0.0
140
0.0
141
0.0
142
1.0
143
1.0
 70
   688
 72
     0
 73
     0
 74
     5
  7

 75
    16
 76
     0
 77
     2
 78
   300
147
1.0
148
0.0
149
0.0
100
AcDbLayout
  1
Layout1
 70
     1
 71
     1
 10
0.0
 20
0.0
 11
2100.0
 21
2970.0
 12
0.0
 22
0.0
 32
0.0
 14
0.0
 24
0.0
 34
0.0
 15
2100.0
 25
2970.0
 35
0.0
146
0.0
 13
0.0
 23
0.0
 33
0.0
 16
1.0
 26
0.0
 36
0.0
 17
0.0
 27
1.0
 37
0.0
 76
     0
330
1B
  0
LAYOUT
  5
26
102
{ACAD_REACTORS
330
1A
102
}
330
1A
100
AcDbPlotSettings
  1

  2

  4

  6

 40
0.0
 41
0.0
 42
0.0
 43
0.0
 44
0.0
 45
0.0
 46
0.0
 47
0.0
 48
0.0
 49
0.0
140
0.0
141
0.0
142
1.0
143
1.0
 70
   688
 72
     0
 73
     0
 74
     5
  7

 75
    16
 76
     0
 77
     2
 78
   300
147
1.0
148
0.0
149
0.0
100
AcDbLayout
  1
Layout2
 70
     1
 71
     2
 10
0.0
 20
0.0
 11
0.0
 21
0.0
 12
0.0
 22
0.0
 32
0.0
 14
0.0
 24
0.0
 34
0.0
 15
0.0
 25
0.0
 35
0.0
146
0.0
 13
0.0
 23
0.0
 33
0.0
 16
1.0
 26
0.0
 36
0.0
 17
0.0
 27
1.0
 37
0.0
 76
     0
330
23
  0
LAYOUT
  5
22
102
{ACAD_REACTORS
330
1A
102
}
330
1A
100
AcDbPlotSettings
  1

  2

  4

  6

 40
0.0
 41
0.0
 42
0.0
 43
0.0
 44
0.0
 45
0.0
 46
0.0
 47
0.0
 48
0.0
 49
0.0
140
0.0
141
0.0
142
1.0
143
1.0
 70
  1776
 72
     0
 73
     0
 74
     0
  7

 75
     0
 76
     0
 77
     2
 78
   300
147
1.0
148
0.0
149
0.0
100
AcDbLayout
  1
Model
 70
     1
 71
     0
 10
0.0
 20
0.0
 11
2100.0
 21
2970.0
 12
0.0
 22
0.0
 32
0.0
 14
0.0
 24
0.0
 34
0.0
 15
2100.0
 25
2970.0
 35
0.0
146
0.0
 13
0.0
 23
0.0
 33
0.0
 16
1.0
 26
0.0
 36
0.0
 17
0.0
 27
1.0
 37
0.0
 76
     0
330
1F
  0
MLINESTYLE
  5
18
102
{ACAD_REACTORS
330
17
102
}
330
17
100
AcDbMlineStyle
  2
Standard
 70
     0
  3

 62
   256
 51
90.0
 52
90.0
 71
     2
 49
0.5
 62
   256
  6
BYLAYER
 49
-0.5
 62
   256
  6
BYLAYER
  0
ACDBPLACEHOLDER
  5
F
102
{ACAD_REACTORS
330
E
102
}
330
E
  0
ENDSEC
  0
EOF
