  0
SECTION
  2
HEADER
  9
$ACADVER
  1
AC1015
  9
$ACADMAINTVER
 70
    20
  9
$DWGCODEPAGE
  3
ANSI_936
  9
$INSBASE
 10
0.0
 20
0.0
 30
0.0
  9
$EXTMIN
 10
865.9029229279239
 20
-458.1267085184991
 30
-0.0015258207003583
  9
$EXTMAX
 10
3349.439020116246
 20
1666.002930153527
 30
0.0000000349246037
  9
$LIMMIN
 10
0.0
 20
0.0
  9
$LIMMAX
 10
12.0
 20
9.0
  9
$ORTHOMODE
 70
     1
  9
$REGENMODE
 70
     1
  9
$FILLMODE
 70
     1
  9
$QTEXTMODE
 70
     0
  9
$MIRRTEXT
 70
     0
  9
$LTSCALE
 40
1.0
  9
$ATTMODE
 70
     1
  9
$TEXTSIZE
 40
0.2
  9
$TRACEWID
 40
0.05
  9
$TEXTSTYLE
  7
Standard
  9
$CLAYER
  8
0
  9
$CELTYPE
  6
ByLayer
  9
$CECOLOR
 62
   256
  9
$CELTSCALE
 40
1.0
  9
$DISPSILH
 70
     0
  9
$DIMSCALE
 40
1.0
  9
$DIMASZ
 40
15.0
  9
$DIMEXO
 40
0.625
  9
$DIMDLI
 40
3.75
  9
$DIMRND
 40
0.0
  9
$DIMDLE
 40
0.0
  9
$DIMEXE
 40
1.25
  9
$DIMTP
 40
0.0
  9
$DIMTM
 40
0.0
  9
$DIMTXT
 40
25.0
  9
$DIMCEN
 40
15.0
  9
$DIMTSZ
 40
0.0
  9
$DIMTOL
 70
     0
  9
$DIMLIM
 70
     0
  9
$DIMTIH
 70
     0
  9
$DIMTOH
 70
     1
  9
$DIMSE1
 70
     0
  9
$DIMSE2
 70
     0
  9
$DIMTAD
 70
     1
  9
$DIMZIN
 70
     8
  9
$DIMBLK
  1

  9
$DIMASO
 70
     1
  9
$DIMSHO
 70
     1
  9
$DIMPOST
  1

  9
$DIMAPOST
  1

  9
$DIMALT
 70
     0
  9
$DIMALTD
 70
     3
  9
$DIMALTF
 40
0.03937007874016
  9
$DIMLFAC
 40
1.0
  9
$DIMTOFL
 70
     1
  9
$DIMTVP
 40
0.0
  9
$DIMTIX
 70
     0
  9
$DIMSOXD
 70
     0
  9
$DIMSAH
 70
     0
  9
$DIMBLK1
  1

  9
$DIMBLK2
  1

  9
$DIMSTYLE
  2
ISO-25
  9
$DIMCLRD
 70
   256
  9
$DIMCLRE
 70
   256
  9
$DIMCLRT
 70
   256
  9
$DIMTFAC
 40
1.0
  9
$DIMGAP
 40
0.625
  9
$DIMJUST
 70
     0
  9
$DIMSD1
 70
     0
  9
$DIMSD2
 70
     0
  9
$DIMTOLJ
 70
     0
  9
$DIMTZIN
 70
     8
  9
$DIMALTZ
 70
     0
  9
$DIMALTTZ
 70
     0
  9
$DIMUPT
 70
     0
  9
$DIMDEC
 70
     2
  9
$DIMTDEC
 70
     2
  9
$DIMALTU
 70
     2
  9
$DIMALTTD
 70
     3
  9
$DIMTXSTY
  7
Standard
  9
$DIMAUNIT
 70
     0
  9
$DIMADEC
 70
     0
  9
$DIMALTRND
 40
0.0
  9
$DIMAZIN
 70
     0
  9
$DIMDSEP
 70
    44
  9
$DIMATFIT
 70
     3
  9
$DIMFRAC
 70
     0
  9
$DIMLDRBLK
  1

  9
$DIMLUNIT
 70
     2
  9
$DIMLWD
 70
     5
  9
$DIMLWE
 70
     5
  9
$DIMTMOVE
 70
     0
  9
$LUNITS
 70
     2
  9
$LUPREC
 70
     4
  9
$SKETCHINC
 40
0.1
  9
$FILLETRAD
 40
18.0
  9
$AUNITS
 70
     0
  9
$AUPREC
 70
     0
  9
$MENU
  1
.
  9
$ELEVATION
 40
0.0
  9
$PELEVATION
 40
0.0
  9
$THICKNESS
 40
0.0
  9
$LIMCHECK
 70
     0
  9
$CHAMFERA
 40
0.0
  9
$CHAMFERB
 40
0.0
  9
$CHAMFERC
 40
0.0
  9
$CHAMFERD
 40
0.0
  9
$SKPOLY
 70
     0
  9
$TDCREATE
 40
2453580.632605787
  9
$TDUCREATE
 40
2453580.299272454
  9
$TDUPDATE
 40
2454917.669572118
  9
$TDUUPDATE
 40
2454917.336238785
  9
$TDINDWG
 40
0.0811167130
  9
$TDUSRTIMER
 40
0.0811159838
  9
$USRTIMER
 70
     1
  9
$ANGBASE
 50
0.0
  9
$ANGDIR
 70
     0
  9
$PDMODE
 70
     0
  9
$PDSIZE
 40
0.0
  9
$PLINEWID
 40
0.0
  9
$SPLFRAME
 70
     0
  9
$SPLINETYPE
 70
     6
  9
$SPLINESEGS
 70
     8
  9
$HANDSEED
  5
A92
  9
$SURFTAB1
 70
     6
  9
$SURFTAB2
 70
     6
  9
$SURFTYPE
 70
     6
  9
$SURFU
 70
     6
  9
$SURFV
 70
     6
  9
$UCSBASE
  2

  9
$UCSNAME
  2

  9
$UCSORG
 10
0.0
 20
0.0
 30
0.0
  9
$UCSXDIR
 10
1.0
 20
0.0
 30
0.0
  9
$UCSYDIR
 10
0.0
 20
1.0
 30
0.0
  9
$UCSORTHOREF
  2

  9
$UCSORTHOVIEW
 70
     1
  9
$UCSORGTOP
 10
0.0
 20
0.0
 30
0.0
  9
$UCSORGBOTTOM
 10
0.0
 20
0.0
 30
0.0
  9
$UCSORGLEFT
 10
0.0
 20
0.0
 30
0.0
  9
$UCSORGRIGHT
 10
0.0
 20
0.0
 30
0.0
  9
$UCSORGFRONT
 10
0.0
 20
0.0
 30
0.0
  9
$UCSORGBACK
 10
0.0
 20
0.0
 30
0.0
  9
$PUCSBASE
  2

  9
$PUCSNAME
  2

  9
$PUCSORG
 10
0.0
 20
0.0
 30
0.0
  9
$PUCSXDIR
 10
1.0
 20
0.0
 30
0.0
  9
$PUCSYDIR
 10
0.0
 20
1.0
 30
0.0
  9
$PUCSORTHOREF
  2

  9
$PUCSORTHOVIEW
 70
     0
  9
$PUCSORGTOP
 10
0.0
 20
0.0
 30
0.0
  9
$PUCSORGBOTTOM
 10
0.0
 20
0.0
 30
0.0
  9
$PUCSORGLEFT
 10
0.0
 20
0.0
 30
0.0
  9
$PUCSORGRIGHT
 10
0.0
 20
0.0
 30
0.0
  9
$PUCSORGFRONT
 10
0.0
 20
0.0
 30
0.0
  9
$PUCSORGBACK
 10
0.0
 20
0.0
 30
0.0
  9
$USERI1
 70
     0
  9
$USERI2
 70
     0
  9
$USERI3
 70
     0
  9
$USERI4
 70
     0
  9
$USERI5
 70
     0
  9
$USERR1
 40
0.0
  9
$USERR2
 40
0.0
  9
$USERR3
 40
0.0
  9
$USERR4
 40
0.0
  9
$USERR5
 40
0.0
  9
$WORLDVIEW
 70
     1
  9
$SHADEDGE
 70
     3
  9
$SHADEDIF
 70
    70
  9
$TILEMODE
 70
     1
  9
$MAXACTVP
 70
    64
  9
$PINSBASE
 10
0.0
 20
0.0
 30
0.0
  9
$PLIMCHECK
 70
     0
  9
$PEXTMIN
 10
0.0
 20
0.0
 30
0.0
  9
$PEXTMAX
 10
0.0
 20
0.0
 30
0.0
  9
$PLIMMIN
 10
0.0
 20
0.0
  9
$PLIMMAX
 10
12.0
 20
9.0
  9
$UNITMODE
 70
     0
  9
$VISRETAIN
 70
     1
  9
$PLINEGEN
 70
     0
  9
$PSLTSCALE
 70
     1
  9
$TREEDEPTH
 70
  3020
  9
$CMLSTYLE
  2
Standard
  9
$CMLJUST
 70
     0
  9
$CMLSCALE
 40
1.0
  9
$PROXYGRAPHICS
 70
     1
  9
$MEASUREMENT
 70
     0
  9
$CELWEIGHT
370
    -1
  9
$ENDCAPS
280
     0
  9
$JOINSTYLE
280
     0
  9
$LWDISPLAY
290
     0
  9
$INSUNITS
 70
     1
  9
$HYPERLINKBASE
  1

  9
$STYLESHEET
  1

  9
$XEDIT
290
     1
  9
$CEPSNTYPE
380
     0
  9
$PSTYLEMODE
290
     1
  9
$FINGERPRINTGUID
  2
{FDEAD576-A652-11D2-9A35-0060089B3A3F}
  9
$VERSIONGUID
  2
{80D6EE2F-81A0-43BE-A4B4-6984A978F53A}
  9
$EXTNAMES
290
     1
  9
$PSVPSCALE
 40
0.0
  9
$OLESTARTUP
290
     0
  0
ENDSEC
  0
SECTION
  2
CLASSES
  0
CLASS
  1
ACDBDICTIONARYWDFLT
  2
AcDbDictionaryWithDefault
  3
ObjectDBX Classes
 90
        0
280
     0
281
     0
  0
CLASS
  1
ACDBPLACEHOLDER
  2
AcDbPlaceHolder
  3
ObjectDBX Classes
 90
        0
280
     0
281
     0
  0
CLASS
  1
LAYOUT
  2
AcDbLayout
  3
ObjectDBX Classes
 90
        0
280
     0
281
     0
  0
CLASS
  1
DICTIONARYVAR
  2
AcDbDictionaryVar
  3
ObjectDBX Classes
 90
        0
280
     0
281
     0
  0
CLASS
  1
DIMASSOC
  2
AcDbDimAssoc
  3
"AcDbDimAssoc|Product Desc:     AcDim ARX App For Dimension|Company:          Autodesk, Inc.|WEB Address:      www.autodesk.com"
 90
        0
280
     0
281
     0
  0
CLASS
  1
TABLESTYLE
  2
AcDbTableStyle
  3
ObjectDBX Classes
 90
     2047
280
     0
281
     0
  0
ENDSEC
  0
SECTION
  2
TABLES
  0
TABLE
  2
VPORT
  5
8
330
0
100
AcDbSymbolTable
 70
     3
  0
VPORT
  5
A8A
330
8
100
AcDbSymbolTableRecord
100
AcDbViewportTableRecord
  2
*Active
 70
     0
 10
0.0
 20
0.0
 11
1.0
 21
1.0
 12
2056.726031922464
 22
579.5714813265428
 13
0.0
 23
0.0
 14
0.5
 24
0.5
 15
0.5
 25
0.5
 16
0.0
 26
0.0
 36
1.0
 17
0.0
 27
0.0
 37
0.0
 40
1053.972041759616
 41
1.586251621271076
 42
50.0
 43
0.0
 44
0.0
 50
0.0
 51
0.0
 71
     0
 72
  1000
 73
     1
 74
     3
 75
     0
 76
     0
 77
     0
 78
     0
281
     0
 65
     1
110
0.0
120
0.0
130
0.0
111
1.0
121
0.0
131
0.0
112
0.0
122
1.0
132
0.0
 79
     1
146
0.0
  0
ENDTAB
  0
TABLE
  2
LTYPE
  5
5
330
0
100
AcDbSymbolTable
 70
     2
  0
LTYPE
  5
14
330
5
100
AcDbSymbolTableRecord
100
AcDbLinetypeTableRecord
  2
ByBlock
 70
     0
  3

 72
    65
 73
     0
 40
0.0
  0
LTYPE
  5
15
330
5
100
AcDbSymbolTableRecord
100
AcDbLinetypeTableRecord
  2
ByLayer
 70
     0
  3

 72
    65
 73
     0
 40
0.0
  0
LTYPE
  5
16
330
5
100
AcDbSymbolTableRecord
100
AcDbLinetypeTableRecord
  2
Continuous
 70
     0
  3
Solid line
 72
    65
 73
     0
 40
0.0
  0
LTYPE
  5
5E3
330
5
100
AcDbSymbolTableRecord
100
AcDbLinetypeTableRecord
  2
HIDDEN
 70
     0
  3
Hidden __ __ __ __ __ __ __ __ __ __ __ __ __ _
 72
    65
 73
     2
 40
0.375
 49
0.25
 74
     0
 49
-0.125
 74
     0
  0
ENDTAB
  0
TABLE
  2
LAYER
  5
2
330
0
100
AcDbSymbolTable
 70
     4
  0
LAYER
  5
10
330
2
100
AcDbSymbolTableRecord
100
AcDbLayerTableRecord
  2
0
 70
     0
 62
     7
  6
Continuous
370
    -3
390
F
  0
LAYER
  5
EF
330
2
100
AcDbSymbolTableRecord
100
AcDbLayerTableRecord
  2
Defpoints
 70
     0
 62
     7
  6
Continuous
290
     0
370
    -3
390
F
  0
LAYER
  5
F0
330
2
100
AcDbSymbolTableRecord
100
AcDbLayerTableRecord
  2
Title Block
 70
     0
 62
     7
  6
Continuous
370
    -3
390
F
  0
LAYER
  5
5E4
330
2
100
AcDbSymbolTableRecord
100
AcDbLayerTableRecord
  2
图层1
 70
     0
 62
     7
  6
HIDDEN
370
    -3
390
F
  0
ENDTAB
  0
TABLE
  2
STYLE
  5
3
330
0
100
AcDbSymbolTable
 70
     3
  0
STYLE
  5
11
330
3
100
AcDbSymbolTableRecord
100
AcDbTextStyleTableRecord
  2
Standard
 70
     0
 40
0.0
 41
1.0
 50
0.0
 71
     0
 42
0.2
  3
TIMES.TTF
  4

1001
ACAD
1000
Times New Roman
1071
       18
  0
STYLE
  5
F1
330
3
100
AcDbSymbolTableRecord
100
AcDbTextStyleTableRecord
  2
Roman
 70
     0
 40
0.0
 41
1.0
 50
0.0
 71
     0
 42
0.065
  3
romans
  4

  0
STYLE
  5
5E2
330
3
100
AcDbSymbolTableRecord
100
AcDbTextStyleTableRecord
  2

 70
     1
 40
0.0
 41
1.0
 50
0.0
 71
     0
 42
0.2
  3
ltypeshp.shx
  4

  0
ENDTAB
  0
TABLE
  2
VIEW
  5
6
330
0
100
AcDbSymbolTable
 70
     0
  0
ENDTAB
  0
TABLE
  2
UCS
  5
7
330
0
100
AcDbSymbolTable
 70
     0
  0
ENDTAB
  0
TABLE
  2
APPID
  5
9
330
0
100
AcDbSymbolTable
 70
     1
  0
APPID
  5
12
330
9
100
AcDbSymbolTableRecord
100
AcDbRegAppTableRecord
  2
ACAD
 70
     0
  0
ENDTAB
  0
TABLE
  2
DIMSTYLE
  5
A
330
0
100
AcDbSymbolTable
 70
     2
100
AcDbDimStyleTable
 71
     1
340
F2
  0
DIMSTYLE
105
27
330
A
100
AcDbSymbolTableRecord
100
AcDbDimStyleTableRecord
  2
Standard
 70
     0
340
11
  0
DIMSTYLE
105
F2
102
{ACAD_REACTORS
330
8E3
330
8FB
330
913
330
92B
330
945
330
95D
330
975
330
985
330
995
330
9A5
330
9B5
330
9C5
330
9E9
330
9F9
330
A09
330
A19
330
A29
330
A39
330
A49
102
}
330
A
100
AcDbSymbolTableRecord
100
AcDbDimStyleTableRecord
  2
ISO-25
 70
     0
 41
15.0
 42
0.625
 43
3.75
 44
1.25
 73
     0
 77
     1
 78
     8
140
25.0
141
15.0
143
0.03937007874016
147
0.625
171
     3
172
     1
176
   256
177
   256
178
   256
271
     2
272
     2
274
     3
278
    44
283
     0
284
     8
340
11
371
     5
372
     5
  0
ENDTAB
  0
TABLE
  2
BLOCK_RECORD
  5
1
330
0
100
AcDbSymbolTable
 70
    20
  0
BLOCK_RECORD
  5
1F
330
1
100
AcDbSymbolTableRecord
100
AcDbBlockTableRecord
  2
*Model_Space
340
22
  0
BLOCK_RECORD
  5
58
330
1
100
AcDbSymbolTableRecord
100
AcDbBlockTableRecord
  2
*Paper_Space
340
59
  0
BLOCK_RECORD
  5
5D
330
1
100
AcDbSymbolTableRecord
100
AcDbBlockTableRecord
  2
*Paper_Space0
340
5E
  0
BLOCK_RECORD
  5
8E4
330
1
100
AcDbSymbolTableRecord
100
AcDbBlockTableRecord
  2
*D1
340
0
  0
BLOCK_RECORD
  5
8FC
330
1
100
AcDbSymbolTableRecord
100
AcDbBlockTableRecord
  2
*D2
340
0
  0
BLOCK_RECORD
  5
914
330
1
100
AcDbSymbolTableRecord
100
AcDbBlockTableRecord
  2
*D3
340
0
  0
BLOCK_RECORD
  5
92C
330
1
100
AcDbSymbolTableRecord
100
AcDbBlockTableRecord
  2
*D4
340
0
  0
BLOCK_RECORD
  5
946
330
1
100
AcDbSymbolTableRecord
100
AcDbBlockTableRecord
  2
*D5
340
0
  0
BLOCK_RECORD
  5
95E
330
1
100
AcDbSymbolTableRecord
100
AcDbBlockTableRecord
  2
*D6
340
0
  0
BLOCK_RECORD
  5
976
330
1
100
AcDbSymbolTableRecord
100
AcDbBlockTableRecord
  2
*D7
340
0
  0
BLOCK_RECORD
  5
986
330
1
100
AcDbSymbolTableRecord
100
AcDbBlockTableRecord
  2
*D8
340
0
  0
BLOCK_RECORD
  5
996
330
1
100
AcDbSymbolTableRecord
100
AcDbBlockTableRecord
  2
*D9
340
0
  0
BLOCK_RECORD
  5
9A6
330
1
100
AcDbSymbolTableRecord
100
AcDbBlockTableRecord
  2
*D10
340
0
  0
BLOCK_RECORD
  5
9B6
330
1
100
AcDbSymbolTableRecord
100
AcDbBlockTableRecord
  2
*D11
340
0
  0
BLOCK_RECORD
  5
9C6
330
1
100
AcDbSymbolTableRecord
100
AcDbBlockTableRecord
  2
*D12
340
0
  0
BLOCK_RECORD
  5
9EA
330
1
100
AcDbSymbolTableRecord
100
AcDbBlockTableRecord
  2
*D13
340
0
  0
BLOCK_RECORD
  5
9FA
330
1
100
AcDbSymbolTableRecord
100
AcDbBlockTableRecord
  2
*D14
340
0
  0
BLOCK_RECORD
  5
A0A
330
1
100
AcDbSymbolTableRecord
100
AcDbBlockTableRecord
  2
*D15
340
0
  0
BLOCK_RECORD
  5
A1A
330
1
100
AcDbSymbolTableRecord
100
AcDbBlockTableRecord
  2
*D16
340
0
  0
BLOCK_RECORD
  5
A2A
330
1
100
AcDbSymbolTableRecord
100
AcDbBlockTableRecord
  2
*D17
340
0
  0
BLOCK_RECORD
  5
A3A
330
1
100
AcDbSymbolTableRecord
100
AcDbBlockTableRecord
  2
*D18
340
0
  0
BLOCK_RECORD
  5
A4A
330
1
100
AcDbSymbolTableRecord
100
AcDbBlockTableRecord
  2
*D19
340
0
  0
ENDTAB
  0
ENDSEC
  0
SECTION
  2
BLOCKS
  0
BLOCK
  5
20
330
1F
100
AcDbEntity
  8
0
100
AcDbBlockBegin
  2
*Model_Space
 70
     0
 10
0.0
 20
0.0
 30
0.0
  3
*Model_Space
  1

  0
ENDBLK
  5
21
330
1F
100
AcDbEntity
  8
0
100
AcDbBlockEnd
  0
BLOCK
  5
5A
330
58
100
AcDbEntity
 67
     1
  8
0
100
AcDbBlockBegin
  2
*Paper_Space
 70
     0
 10
0.0
 20
0.0
 30
0.0
  3
*Paper_Space
  1

  0
ENDBLK
  5
5B
330
58
100
AcDbEntity
 67
     1
  8
0
100
AcDbBlockEnd
  0
BLOCK
  5
5F
330
5D
100
AcDbEntity
 67
     1
  8
0
100
AcDbBlockBegin
  2
*Paper_Space0
 70
     0
 10
0.0
 20
0.0
 30
0.0
  3
*Paper_Space0
  1

  0
ENDBLK
  5
60
330
5D
100
AcDbEntity
 67
     1
  8
0
100
AcDbBlockEnd
  0
BLOCK
  5
8EE
330
8E4
100
AcDbEntity
  8
0
100
AcDbBlockBegin
  2
*D1
 70
     1
 10
0.0
 20
0.0
 30
0.0
  3
*D1
  1

  0
LINE
  5
8F1
330
8E4
100
AcDbEntity
  8
0
370
     5
100
AcDbLine
 10
1545.336798670423
 20
603.3131058721908
 30
0.0
 11
1545.336798670423
 21
290.5058895514576
 31
0.0
  0
LINE
  5
8F2
330
8E4
100
AcDbEntity
  8
0
370
     5
100
AcDbLine
 10
2670.136798670425
 20
603.3131058721908
 30
0.0
 11
2670.136798670425
 21
290.5058895514576
 31
0.0
  0
LINE
  5
8F3
330
8E4
100
AcDbEntity
  8
0
370
     5
100
AcDbLine
 10
1560.336798670423
 20
291.7558895514576
 30
0.0
 11
2655.136798670425
 21
291.7558895514576
 31
0.0
  0
SOLID
  5
8F4
330
8E4
100
AcDbEntity
  8
0
100
AcDbTrace
 10
1560.336798670423
 20
294.2558895514576
 30
0.0
 11
1560.336798670423
 21
289.2558895514576
 31
0.0
 12
1545.336798670423
 22
291.7558895514576
 32
0.0
 13
1545.336798670423
 23
291.7558895514576
 33
0.0
  0
SOLID
  5
8F5
330
8E4
100
AcDbEntity
  8
0
100
AcDbTrace
 10
2655.136798670425
 20
294.2558895514576
 30
0.0
 11
2655.136798670425
 21
289.2558895514576
 31
0.0
 12
2670.136798670425
 22
291.7558895514576
 32
0.0
 13
2670.136798670425
 23
291.7558895514576
 33
0.0
  0
MTEXT
  5
8F6
330
8E4
100
AcDbEntity
  8
0
100
AcDbMText
 10
2107.736798670424
 20
307.9540690756104
 30
0.0
 40
25.0
 41
0.0
 71
     5
 72
     1
  1
1124,8
 73
     1
 44
1.0
1001
ACAD
1000
MTEXTBEGIN
1070
    73
1070
     1
1070
    44
1040
1.0
1070
    74
1070
     0
1000
MTEXTEND
  0
POINT
  5
8F7
330
8E4
100
AcDbEntity
  8
Defpoints
 62
     0
100
AcDbPoint
 10
1545.336798670423
 20
603.9381058721907
 30
0.0
  0
POINT
  5
8F8
330
8E4
100
AcDbEntity
  8
Defpoints
 62
     0
100
AcDbPoint
 10
2670.136798670425
 20
603.9381058721907
 30
0.0
  0
POINT
  5
8F9
330
8E4
100
AcDbEntity
  8
Defpoints
 62
     0
100
AcDbPoint
 10
2670.136798670425
 20
291.7558895514576
 30
0.0
  0
ENDBLK
  5
8EF
330
8E4
100
AcDbEntity
  8
0
100
AcDbBlockEnd
  0
BLOCK
  5
906
330
8FC
100
AcDbEntity
  8
0
100
AcDbBlockBegin
  2
*D2
 70
     1
 10
0.0
 20
0.0
 30
0.0
  3
*D2
  1

  0
LINE
  5
909
330
8FC
100
AcDbEntity
  8
0
370
     5
100
AcDbLine
 10
1538.336798670423
 20
603.3131058721896
 30
0.0
 11
1538.336798670423
 21
237.3827732564232
 31
0.0
  0
LINE
  5
90A
330
8FC
100
AcDbEntity
  8
0
370
     5
100
AcDbLine
 10
2677.136798670425
 20
603.3131058721911
 30
0.0
 11
2677.136798670425
 21
237.3827732564232
 31
0.0
  0
LINE
  5
90B
330
8FC
100
AcDbEntity
  8
0
370
     5
100
AcDbLine
 10
1553.336798670423
 20
238.6327732564232
 30
0.0
 11
2662.136798670425
 21
238.6327732564232
 31
0.0
  0
SOLID
  5
90C
330
8FC
100
AcDbEntity
  8
0
100
AcDbTrace
 10
1553.336798670423
 20
241.1327732564232
 30
0.0
 11
1553.336798670423
 21
236.1327732564232
 31
0.0
 12
1538.336798670423
 22
238.6327732564232
 32
0.0
 13
1538.336798670423
 23
238.6327732564232
 33
0.0
  0
SOLID
  5
90D
330
8FC
100
AcDbEntity
  8
0
100
AcDbTrace
 10
2662.136798670425
 20
241.1327732564232
 30
0.0
 11
2662.136798670425
 21
236.1327732564232
 31
0.0
 12
2677.136798670425
 22
238.6327732564232
 32
0.0
 13
2677.136798670425
 23
238.6327732564232
 33
0.0
  0
MTEXT
  5
90E
330
8FC
100
AcDbEntity
  8
0
100
AcDbMText
 10
2107.736798670424
 20
254.8309527805761
 30
0.0
 40
25.0
 41
0.0
 71
     5
 72
     1
  1
1138,8
 73
     1
 44
1.0
1001
ACAD
1000
MTEXTBEGIN
1070
    73
1070
     1
1070
    44
1040
1.0
1070
    74
1070
     0
1000
MTEXTEND
  0
POINT
  5
90F
330
8FC
100
AcDbEntity
  8
Defpoints
 62
     0
100
AcDbPoint
 10
1538.336798670423
 20
603.9381058721897
 30
0.0
  0
POINT
  5
910
330
8FC
100
AcDbEntity
  8
Defpoints
 62
     0
100
AcDbPoint
 10
2677.136798670425
 20
603.9381058721911
 30
0.0
  0
POINT
  5
911
330
8FC
100
AcDbEntity
  8
Defpoints
 62
     0
100
AcDbPoint
 10
2677.136798670425
 20
238.6327732564232
 30
0.0
  0
ENDBLK
  5
907
330
8FC
100
AcDbEntity
  8
0
100
AcDbBlockEnd
  0
BLOCK
  5
91E
330
914
100
AcDbEntity
  8
0
100
AcDbBlockBegin
  2
*D3
 70
     1
 10
0.0
 20
0.0
 30
0.0
  3
*D3
  1

  0
LINE
  5
921
330
914
100
AcDbEntity
  8
0
370
     5
100
AcDbLine
 10
1748.711798670423
 20
845.9381058721913
 30
0.0
 11
1488.493428694167
 21
845.9381058721913
 31
0.0
  0
LINE
  5
922
330
914
100
AcDbEntity
  8
0
370
     5
100
AcDbLine
 10
1748.711798670423
 20
361.9381058721907
 30
0.0
 11
1488.493428694167
 21
361.9381058721909
 31
0.0
  0
LINE
  5
923
330
914
100
AcDbEntity
  8
0
370
     5
100
AcDbLine
 10
1489.743428694167
 20
830.9381058721912
 30
0.0
 11
1489.743428694167
 21
376.9381058721909
 31
0.0
  0
SOLID
  5
924
330
914
100
AcDbEntity
  8
0
100
AcDbTrace
 10
1487.243428694167
 20
830.9381058721912
 30
0.0
 11
1492.243428694167
 21
830.9381058721912
 31
0.0
 12
1489.743428694167
 22
845.9381058721913
 32
0.0
 13
1489.743428694167
 23
845.9381058721913
 33
0.0
  0
SOLID
  5
925
330
914
100
AcDbEntity
  8
0
100
AcDbTrace
 10
1487.243428694167
 20
376.9381058721909
 30
0.0
 11
1492.243428694167
 21
376.9381058721909
 31
0.0
 12
1489.743428694167
 22
361.9381058721909
 32
0.0
 13
1489.743428694167
 23
361.9381058721909
 33
0.0
  0
MTEXT
  5
926
330
914
100
AcDbEntity
  8
0
100
AcDbMText
 10
1476.402134534109
 20
603.9381058721913
 30
0.0
 40
25.0
 41
0.0
 71
     5
 72
     1
  1
484
 11
0.0000000000000001
 21
1.0
 31
0.0
 73
     1
 44
1.0
1001
ACAD
1000
MTEXTBEGIN
1070
    73
1070
     1
1070
    44
1040
1.0
1070
    74
1070
     0
1000
MTEXTEND
  0
POINT
  5
927
330
914
100
AcDbEntity
  8
Defpoints
 62
     0
100
AcDbPoint
 10
1749.336798670423
 20
845.9381058721913
 30
0.0
  0
POINT
  5
928
330
914
100
AcDbEntity
  8
Defpoints
 62
     0
100
AcDbPoint
 10
1749.336798670423
 20
361.9381058721907
 30
0.0
  0
POINT
  5
929
330
914
100
AcDbEntity
  8
Defpoints
 62
     0
100
AcDbPoint
 10
1489.743428694167
 20
361.9381058721909
 30
0.0
  0
ENDBLK
  5
91F
330
914
100
AcDbEntity
  8
0
100
AcDbBlockEnd
  0
BLOCK
  5
936
330
92C
100
AcDbEntity
  8
0
100
AcDbBlockBegin
  2
*D4
 70
     1
 10
0.0
 20
0.0
 30
0.0
  3
*D4
  1

  0
LINE
  5
939
330
92C
100
AcDbEntity
  8
0
370
     5
100
AcDbLine
 10
1748.711798670423
 20
852.9381058721913
 30
0.0
 11
1448.014356913736
 21
852.9381058721913
 31
0.0
  0
LINE
  5
93A
330
92C
100
AcDbEntity
  8
0
370
     5
100
AcDbLine
 10
1748.711798670423
 20
354.9381058721908
 30
0.0
 11
1448.014356913736
 21
354.9381058721909
 31
0.0
  0
LINE
  5
93B
330
92C
100
AcDbEntity
  8
0
370
     5
100
AcDbLine
 10
1449.264356913736
 20
837.9381058721913
 30
0.0
 11
1449.264356913736
 21
369.9381058721909
 31
0.0
  0
SOLID
  5
93C
330
92C
100
AcDbEntity
  8
0
100
AcDbTrace
 10
1446.764356913736
 20
837.9381058721913
 30
0.0
 11
1451.764356913736
 21
837.9381058721913
 31
0.0
 12
1449.264356913736
 22
852.9381058721913
 32
0.0
 13
1449.264356913736
 23
852.9381058721913
 33
0.0
  0
SOLID
  5
93D
330
92C
100
AcDbEntity
  8
0
100
AcDbTrace
 10
1446.764356913736
 20
369.9381058721909
 30
0.0
 11
1451.764356913736
 21
369.9381058721909
 31
0.0
 12
1449.264356913736
 22
354.9381058721909
 32
0.0
 13
1449.264356913736
 23
354.9381058721909
 33
0.0
  0
MTEXT
  5
93E
330
92C
100
AcDbEntity
  8
0
100
AcDbMText
 10
1435.887013727002
 20
603.9381058721913
 30
0.0
 40
25.0
 41
0.0
 71
     5
 72
     1
  1
498
 11
0.0000000000000001
 21
1.0
 31
0.0
 73
     1
 44
1.0
1001
ACAD
1000
MTEXTBEGIN
1070
    73
1070
     1
1070
    44
1040
1.0
1070
    74
1070
     0
1000
MTEXTEND
  0
POINT
  5
93F
330
92C
100
AcDbEntity
  8
Defpoints
 62
     0
100
AcDbPoint
 10
1749.336798670423
 20
852.9381058721913
 30
0.0
  0
POINT
  5
940
330
92C
100
AcDbEntity
  8
Defpoints
 62
     0
100
AcDbPoint
 10
1749.336798670423
 20
354.9381058721908
 30
0.0
  0
POINT
  5
941
330
92C
100
AcDbEntity
  8
Defpoints
 62
     0
100
AcDbPoint
 10
1449.264356913736
 20
354.9381058721909
 30
0.0
  0
ENDBLK
  5
937
330
92C
100
AcDbEntity
  8
0
100
AcDbBlockEnd
  0
BLOCK
  5
950
330
946
100
AcDbEntity
  8
0
100
AcDbBlockBegin
  2
*D5
 70
     1
 10
0.0
 20
0.0
 30
0.0
  3
*D5
  1

  0
LINE
  5
953
330
946
100
AcDbEntity
  8
0
370
     5
100
AcDbLine
 10
2108.361798670424
 20
775.938105872191
 30
0.0
 11
2152.393593166225
 21
775.938105872191
 31
0.0
  0
LINE
  5
954
330
946
100
AcDbEntity
  8
0
370
     5
100
AcDbLine
 10
2108.361798670424
 20
361.9381058721907
 30
0.0
 11
2152.393593166225
 21
361.9381058721907
 31
0.0
  0
LINE
  5
955
330
946
100
AcDbEntity
  8
0
370
     5
100
AcDbLine
 10
2151.143593166226
 20
760.938105872191
 30
0.0
 11
2151.143593166226
 21
376.9381058721908
 31
0.0
  0
SOLID
  5
956
330
946
100
AcDbEntity
  8
0
100
AcDbTrace
 10
2148.643593166225
 20
760.938105872191
 30
0.0
 11
2153.643593166226
 21
760.938105872191
 31
0.0
 12
2151.143593166226
 22
775.938105872191
 32
0.0
 13
2151.143593166226
 23
775.938105872191
 33
0.0
  0
SOLID
  5
957
330
946
100
AcDbEntity
  8
0
100
AcDbTrace
 10
2148.643593166225
 20
376.9381058721908
 30
0.0
 11
2153.643593166226
 21
376.9381058721908
 31
0.0
 12
2151.143593166226
 22
361.9381058721907
 32
0.0
 13
2151.143593166226
 23
361.9381058721907
 33
0.0
  0
MTEXT
  5
958
330
946
100
AcDbEntity
  8
0
100
AcDbMText
 10
2138.018593166226
 20
568.9381058721912
 30
0.0
 40
25.0
 41
0.0
 71
     5
 72
     1
  1
414
 11
0.0000000000000001
 21
1.0
 31
0.0
 73
     1
 44
1.0
1001
ACAD
1000
MTEXTBEGIN
1070
    73
1070
     1
1070
    44
1040
1.0
1070
    74
1070
     0
1000
MTEXTEND
  0
POINT
  5
959
330
946
100
AcDbEntity
  8
Defpoints
 62
     0
100
AcDbPoint
 10
2107.736798670424
 20
775.938105872191
 30
0.0
  0
POINT
  5
95A
330
946
100
AcDbEntity
  8
Defpoints
 62
     0
100
AcDbPoint
 10
2107.736798670424
 20
361.9381058721907
 30
0.0
  0
POINT
  5
95B
330
946
100
AcDbEntity
  8
Defpoints
 62
     0
100
AcDbPoint
 10
2151.143593166226
 20
361.9381058721907
 30
0.0
  0
ENDBLK
  5
951
330
946
100
AcDbEntity
  8
0
100
AcDbBlockEnd
  0
BLOCK
  5
968
330
95E
100
AcDbEntity
  8
0
100
AcDbBlockBegin
  2
*D6
 70
     1
 10
0.0
 20
0.0
 30
0.0
  3
*D6
  1

  0
LINE
  5
96B
330
95E
100
AcDbEntity
  8
0
370
     5
100
AcDbLine
 10
2064.309758541615
 20
782.938105872191
 30
0.0
 11
2034.171826488881
 21
782.938105872191
 31
0.0
  0
LINE
  5
96C
330
95E
100
AcDbEntity
  8
0
370
     5
100
AcDbLine
 10
2064.309758541615
 20
354.9381058721908
 30
0.0
 11
2034.171826488881
 21
354.9381058721908
 31
0.0
  0
LINE
  5
96D
330
95E
100
AcDbEntity
  8
0
370
     5
100
AcDbLine
 10
2035.421826488881
 20
767.938105872191
 30
0.0
 11
2035.42182648888
 21
369.9381058721908
 31
0.0
  0
SOLID
  5
96E
330
95E
100
AcDbEntity
  8
0
100
AcDbTrace
 10
2032.921826488881
 20
767.938105872191
 30
0.0
 11
2037.921826488881
 21
767.938105872191
 31
0.0
 12
2035.421826488881
 22
782.938105872191
 32
0.0
 13
2035.421826488881
 23
782.938105872191
 33
0.0
  0
SOLID
  5
96F
330
95E
100
AcDbEntity
  8
0
100
AcDbTrace
 10
2032.92182648888
 20
369.9381058721908
 30
0.0
 11
2037.921826488881
 21
369.9381058721908
 31
0.0
 12
2035.42182648888
 22
354.9381058721908
 32
0.0
 13
2035.42182648888
 23
354.9381058721908
 33
0.0
  0
MTEXT
  5
970
330
95E
100
AcDbEntity
  8
0
100
AcDbMText
 10
2022.080532328823
 20
568.9381058721912
 30
0.0
 40
25.0
 41
0.0
 71
     5
 72
     1
  1
428
 11
0.0000000000000001
 21
1.0
 31
0.0
 73
     1
 44
1.0
1001
ACAD
1000
MTEXTBEGIN
1070
    73
1070
     1
1070
    44
1040
1.0
1070
    74
1070
     0
1000
MTEXTEND
  0
POINT
  5
971
330
95E
100
AcDbEntity
  8
Defpoints
 62
     0
100
AcDbPoint
 10
2064.934758541614
 20
782.938105872191
 30
0.0
  0
POINT
  5
972
330
95E
100
AcDbEntity
  8
Defpoints
 62
     0
100
AcDbPoint
 10
2064.934758541614
 20
354.9381058721908
 30
0.0
  0
POINT
  5
973
330
95E
100
AcDbEntity
  8
Defpoints
 62
     0
100
AcDbPoint
 10
2035.42182648888
 20
354.9381058721908
 30
0.0
  0
ENDBLK
  5
969
330
95E
100
AcDbEntity
  8
0
100
AcDbBlockEnd
  0
BLOCK
  5
97C
330
976
100
AcDbEntity
  8
0
100
AcDbBlockBegin
  2
*D7
 70
     1
 10
0.0
 20
0.0
 30
0.0
  3
*D7
  1

  0
LINE
  5
97F
330
976
100
AcDbEntity
  8
0
370
     5
100
AcDbLine
 10
1657.96501032868
 20
473.8536786304211
 30
0.0
 11
1599.25952505143
 21
400.0144722117683
 31
0.0
  0
MTEXT
  5
980
330
976
100
AcDbEntity
  8
0
100
AcDbMText
 10
1622.836726769063
 20
451.1074044913991
 30
0.0
 40
25.0
 41
0.0
 71
     5
 72
     1
  1
R104
 11
0.6223271628592083
 21
0.7827572435740269
 31
0.0
 73
     1
 44
1.0
1001
ACAD
1000
MTEXTBEGIN
1070
    73
1070
     1
1070
    44
1040
1.0
1070
    74
1070
     0
1000
MTEXTEND
  0
SOLID
  5
981
330
976
100
AcDbEntity
  8
0
100
AcDbTrace
 10
1597.302631942496
 20
401.5702901189163
 30
0.0
 11
1601.216418160366
 21
398.4586543046204
 31
0.0
 12
1589.924617608543
 22
388.2731135581581
 32
0.0
 13
1589.924617608543
 23
388.2731135581581
 33
0.0
  0
POINT
  5
982
330
976
100
AcDbEntity
  8
Defpoints
 62
     0
100
AcDbPoint
 10
1589.924617608543
 20
388.2731135581581
 30
0.0
  0
POINT
  5
983
330
976
100
AcDbEntity
  8
Defpoints
 62
     0
100
AcDbPoint
 10
1654.646642545901
 20
469.6798668898568
 30
0.0
  0
ENDBLK
  5
97D
330
976
100
AcDbEntity
  8
0
100
AcDbBlockEnd
  0
BLOCK
  5
98C
330
986
100
AcDbEntity
  8
0
100
AcDbBlockBegin
  2
*D8
 70
     1
 10
0.0
 20
0.0
 30
0.0
  3
*D8
  1

  0
LINE
  5
98F
330
986
100
AcDbEntity
  8
0
370
     5
100
AcDbLine
 10
1673.408773885573
 20
634.7210318250581
 30
0.0
 11
1560.638501609925
 21
636.7923611958952
 31
0.0
  0
MTEXT
  5
990
330
986
100
AcDbEntity
  8
0
100
AcDbMText
 10
1624.767380348441
 20
648.9580063091076
 30
0.0
 40
25.0
 41
0.0
 71
     5
 72
     1
  1
R1804
 11
0.9998313566576287
 21
-0.0183645921317514
 31
0.0
 73
     1
 44
1.0
1001
ACAD
1000
MTEXTBEGIN
1070
    73
1070
     1
1070
    44
1040
1.0
1070
    74
1070
     0
1000
MTEXTEND
  0
SOLID
  5
991
330
986
100
AcDbEntity
  8
0
100
AcDbTrace
 10
1560.684413090255
 20
639.2919395875392
 30
0.0
 11
1560.592590129596
 21
634.2927828042512
 31
0.0
 12
1545.641031260061
 22
637.0678300778714
 32
0.0
 13
1545.641031260061
 23
637.0678300778714
 33
0.0
  0
POINT
  5
992
330
986
100
AcDbEntity
  8
Defpoints
 62
     0
100
AcDbPoint
 10
1545.641031260061
 20
637.0678300778714
 30
0.0
  0
POINT
  5
993
330
986
100
AcDbEntity
  8
Defpoints
 62
     0
100
AcDbPoint
 10
3349.336798670424
 20
603.9381058721922
 30
0.0
  0
ENDBLK
  5
98D
330
986
100
AcDbEntity
  8
0
100
AcDbBlockEnd
  0
BLOCK
  5
99C
330
996
100
AcDbEntity
  8
0
100
AcDbBlockBegin
  2
*D9
 70
     1
 10
0.0
 20
0.0
 30
0.0
  3
*D9
  1

  0
LINE
  5
99F
330
996
100
AcDbEntity
  8
0
370
     5
100
AcDbLine
 10
1658.350163902872
 20
734.3601750530285
 30
0.0
 11
1592.830898791875
 21
802.2261334231027
 31
0.0
  0
MTEXT
  5
9A0
330
996
100
AcDbEntity
  8
0
100
AcDbMText
 10
1640.397928228888
 20
772.163700382794
 30
0.0
 40
25.0
 41
0.0
 71
     5
 72
     1
  1
R104
 11
0.6945589185845421
 21
-0.7194358266132369
 31
0.0
 73
     1
 44
1.0
1001
ACAD
1000
MTEXTBEGIN
1070
    73
1070
     1
1070
    44
1040
1.0
1070
    74
1070
     0
1000
MTEXTEND
  0
SOLID
  5
9A1
330
996
100
AcDbEntity
  8
0
100
AcDbTrace
 10
1594.629488358408
 20
803.962530719564
 30
0.0
 11
1591.032309225342
 21
800.4897361266412
 31
0.0
 12
1582.412515013107
 22
813.0176708223007
 32
0.0
 13
1582.412515013107
 23
813.0176708223007
 33
0.0
  0
POINT
  5
9A2
330
996
100
AcDbEntity
  8
Defpoints
 62
     0
100
AcDbPoint
 10
1582.412515013107
 20
813.0176708223007
 30
0.0
  0
POINT
  5
9A3
330
996
100
AcDbEntity
  8
Defpoints
 62
     0
100
AcDbPoint
 10
1654.6466425459
 20
738.1963448545238
 30
0.0
  0
ENDBLK
  5
99D
330
996
100
AcDbEntity
  8
0
100
AcDbBlockEnd
  0
BLOCK
  5
9AC
330
9A6
100
AcDbEntity
  8
0
100
AcDbBlockBegin
  2
*D10
 70
     1
 10
0.0
 20
0.0
 30
0.0
  3
*D10
  1

  0
LINE
  5
9AF
330
9A6
100
AcDbEntity
  8
0
370
     5
100
AcDbLine
 10
1754.087103529181
 20
718.139219981634
 30
0.0
 11
1754.542620151883
 21
830.9275935805683
 31
0.0
  0
MTEXT
  5
9B0
330
9A6
100
AcDbEntity
  8
0
100
AcDbMText
 10
1740.943386599376
 20
767.0873487810357
 30
0.0
 40
25.0
 41
0.0
 71
     5
 72
     1
  1
R1304
 11
0.0040386512656795
 21
0.9999918446147219
 31
0.0
 73
     1
 44
1.0
1001
ACAD
1000
MTEXTBEGIN
1070
    73
1070
     1
1070
    44
1040
1.0
1070
    74
1070
     0
1000
MTEXTEND
  0
SOLID
  5
9B1
330
9A6
100
AcDbEntity
  8
0
100
AcDbTrace
 10
1752.042640540347
 20
830.9376902087322
 30
0.0
 11
1757.042599763421
 21
830.917496952404
 31
0.0
 12
1754.603199920869
 22
845.9274712497888
 32
0.0
 13
1754.603199920869
 23
845.9274712497888
 33
0.0
  0
POINT
  5
9B2
330
9A6
100
AcDbEntity
  8
Defpoints
 62
     0
100
AcDbPoint
 10
1754.603199920869
 20
845.9274712497888
 30
0.0
  0
POINT
  5
9B3
330
9A6
100
AcDbEntity
  8
Defpoints
 62
     0
100
AcDbPoint
 10
1749.336798670423
 20
-458.0618941278093
 30
0.0
  0
ENDBLK
  5
9AD
330
9A6
100
AcDbEntity
  8
0
100
AcDbBlockEnd
  0
BLOCK
  5
9BC
330
9B6
100
AcDbEntity
  8
0
100
AcDbBlockBegin
  2
*D11
 70
     1
 10
0.0
 20
0.0
 30
0.0
  3
*D11
  1

  0
LINE
  5
9BF
330
9B6
100
AcDbEntity
  8
0
370
     5
100
AcDbLine
 10
1842.231459838625
 20
733.1755414278517
 30
0.0
 11
1873.99569141981
 21
821.9989392362592
 31
0.0
  0
MTEXT
  5
9C0
330
9B6
100
AcDbEntity
  8
0
100
AcDbMText
 10
1843.025928576305
 20
775.0176029506461
 30
0.0
 40
25.0
 41
0.0
 71
     5
 72
     1
  1
R104
 11
0.3367273778074474
 21
0.9416021840644383
 31
0.0
 73
     1
 44
1.0
1001
ACAD
1000
MTEXTBEGIN
1070
    73
1070
     1
1070
    44
1040
1.0
1070
    74
1070
     0
1000
MTEXTEND
  0
SOLID
  5
9C1
330
9B6
100
AcDbEntity
  8
0
100
AcDbTrace
 10
1871.641685959649
 20
822.8407576807777
 30
0.0
 11
1876.349696879971
 21
821.1571207917405
 31
0.0
 12
1879.046602086922
 22
836.1229719972257
 32
0.0
 13
1879.046602086922
 23
836.1229719972257
 33
0.0
  0
POINT
  5
9C2
330
9B6
100
AcDbEntity
  8
Defpoints
 62
     0
100
AcDbPoint
 10
1879.046602086922
 20
836.1229719972257
 30
0.0
  0
POINT
  5
9C3
330
9B6
100
AcDbEntity
  8
Defpoints
 62
     0
100
AcDbPoint
 10
1844.026954794948
 20
738.1963448545254
 30
0.0
  0
ENDBLK
  5
9BD
330
9B6
100
AcDbEntity
  8
0
100
AcDbBlockEnd
  0
BLOCK
  5
9CC
330
9C6
100
AcDbEntity
  8
0
100
AcDbBlockBegin
  2
*D12
 70
     1
 10
0.0
 20
0.0
 30
0.0
  3
*D12
  1

  0
LINE
  5
9CF
330
9C6
100
AcDbEntity
  8
0
370
     5
100
AcDbLine
 10
1696.66895244888
 20
490.9071598103737
 30
0.0
 11
1691.61852302399
 21
378.2309960617332
 31
0.0
  0
MTEXT
  5
9D0
330
9C6
100
AcDbEntity
  8
0
100
AcDbMText
 10
1681.151656839126
 20
442.6589459092022
 30
0.0
 40
25.0
 41
0.0
 71
     5
 72
     1
  1
R1304
 11
0.0447775606256266
 21
0.9989969820096648
 31
0.0
 73
     1
 44
1.0
1001
ACAD
1000
MTEXTBEGIN
1070
    73
1070
     1
1070
    44
1040
1.0
1070
    74
1070
     0
1000
MTEXTEND
  0
SOLID
  5
9D1
330
9C6
100
AcDbEntity
  8
0
100
AcDbTrace
 10
1689.121030568966
 20
378.3429399632973
 30
0.0
 11
1694.116015479014
 21
378.1190521601692
 31
0.0
 12
1690.946859614606
 22
363.2460413315882
 32
0.0
 13
1690.946859614606
 23
363.2460413315882
 33
0.0
  0
POINT
  5
9D2
330
9C6
100
AcDbEntity
  8
Defpoints
 62
     0
100
AcDbPoint
 10
1690.946859614606
 20
363.2460413315882
 30
0.0
  0
POINT
  5
9D3
330
9C6
100
AcDbEntity
  8
Defpoints
 62
     0
100
AcDbPoint
 10
1749.336798670422
 20
1665.938105872191
 30
0.0
  0
ENDBLK
  5
9CD
330
9C6
100
AcDbEntity
  8
0
100
AcDbBlockEnd
  0
BLOCK
  5
9F0
330
9EA
100
AcDbEntity
  8
0
100
AcDbBlockBegin
  2
*D13
 70
     1
 10
0.0
 20
0.0
 30
0.0
  3
*D13
  1

  0
LINE
  5
9F3
330
9EA
100
AcDbEntity
  8
0
370
     5
100
AcDbLine
 10
2541.533223144512
 20
656.1794080085991
 30
0.0
 11
2654.267724962898
 21
659.6946340677334
 31
0.0
  0
MTEXT
  5
9F4
330
9EA
100
AcDbEntity
  8
0
100
AcDbMText
 10
2589.988318552758
 20
671.03808684191
 30
0.0
 40
25.0
 41
0.0
 71
     5
 72
     1
  1
R1804
 11
0.9995142125726516
 21
0.0311663097795098
 31
0.0
 73
     1
 44
1.0
1001
ACAD
1000
MTEXTBEGIN
1070
    73
1070
     1
1070
    44
1040
1.0
1070
    74
1070
     0
1000
MTEXTEND
  0
SOLID
  5
9F5
330
9EA
100
AcDbEntity
  8
0
100
AcDbTrace
 10
2654.189809188449
 20
662.1934195991649
 30
0.0
 11
2654.345640737347
 21
657.1958485363016
 31
0.0
 12
2669.260438151488
 22
660.162128714426
 32
0.0
 13
2669.260438151488
 23
660.162128714426
 33
0.0
  0
POINT
  5
9F6
330
9EA
100
AcDbEntity
  8
Defpoints
 62
     0
100
AcDbPoint
 10
2669.260438151488
 20
660.162128714426
 30
0.0
  0
POINT
  5
9F7
330
9EA
100
AcDbEntity
  8
Defpoints
 62
     0
100
AcDbPoint
 10
866.1367986704247
 20
603.9381058721914
 30
0.0
  0
ENDBLK
  5
9F1
330
9EA
100
AcDbEntity
  8
0
100
AcDbBlockEnd
  0
BLOCK
  5
A00
330
9FA
100
AcDbEntity
  8
0
100
AcDbBlockBegin
  2
*D14
 70
     1
 10
0.0
 20
0.0
 30
0.0
  3
*D14
  1

  0
LINE
  5
A03
330
9FA
100
AcDbEntity
  8
0
370
     5
100
AcDbLine
 10
2558.528239456185
 20
474.4911221292722
 30
0.0
 11
2599.194979344621
 21
389.3748565097092
 31
0.0
  0
MTEXT
  5
A04
330
9FA
100
AcDbEntity
  8
0
100
AcDbMText
 10
2587.666245151926
 20
444.4517160577901
 30
0.0
 40
25.0
 41
0.0
 71
     5
 72
     1
  1
R104
 11
0.4311013994344992
 21
-0.9023034874174081
 31
0.0
 73
     1
 44
1.0
1001
ACAD
1000
MTEXTBEGIN
1070
    73
1070
     1
1070
    44
1040
1.0
1070
    74
1070
     0
1000
MTEXTEND
  0
SOLID
  5
A05
330
9FA
100
AcDbEntity
  8
0
100
AcDbTrace
 10
2601.450738063164
 20
390.4526100082953
 30
0.0
 11
2596.939220626077
 21
388.2971030111228
 31
0.0
 12
2605.661500336138
 22
375.8403041984481
 32
0.0
 13
2605.661500336138
 23
375.8403041984481
 33
0.0
  0
POINT
  5
A06
330
9FA
100
AcDbEntity
  8
Defpoints
 62
     0
100
AcDbPoint
 10
2605.661500336138
 20
375.8403041984481
 30
0.0
  0
POINT
  5
A07
330
9FA
100
AcDbEntity
  8
Defpoints
 62
     0
100
AcDbPoint
 10
2560.82695479495
 20
469.679866889859
 30
0.0
  0
ENDBLK
  5
A01
330
9FA
100
AcDbEntity
  8
0
100
AcDbBlockEnd
  0
BLOCK
  5
A10
330
A0A
100
AcDbEntity
  8
0
100
AcDbBlockBegin
  2
*D15
 70
     1
 10
0.0
 20
0.0
 30
0.0
  3
*D15
  1

  0
LINE
  5
A13
330
A0A
100
AcDbEntity
  8
0
370
     5
100
AcDbLine
 10
2475.526914211373
 20
718.1113294913457
 30
0.0
 11
2476.427351940146
 21
830.8970286130998
 31
0.0
  0
MTEXT
  5
A14
330
A0A
100
AcDbEntity
  8
0
100
AcDbMText
 10
2462.576388856954
 20
767.1109264359966
 30
0.0
 40
25.0
 41
0.0
 71
     5
 72
     1
  1
R1304
 11
0.0079833617298051
 21
0.9999681324599755
 31
0.0
 73
     1
 44
1.0
1001
ACAD
1000
MTEXTBEGIN
1070
    73
1070
     1
1070
    44
1040
1.0
1070
    74
1070
     0
1000
MTEXTEND
  0
SOLID
  5
A15
330
A0A
100
AcDbEntity
  8
0
100
AcDbTrace
 10
2473.927431608995
 20
830.9169870174242
 30
0.0
 11
2478.927272271296
 21
830.8770702087752
 31
0.0
 12
2476.547102366092
 22
845.8965505999994
 32
0.0
 13
2476.547102366092
 23
845.8965505999994
 33
0.0
  0
POINT
  5
A16
330
A0A
100
AcDbEntity
  8
Defpoints
 62
     0
100
AcDbPoint
 10
2476.547102366092
 20
845.8965505999994
 30
0.0
  0
POINT
  5
A17
330
A0A
100
AcDbEntity
  8
Defpoints
 62
     0
100
AcDbPoint
 10
2466.136798670428
 20
-458.061894127809
 30
0.0
  0
ENDBLK
  5
A11
330
A0A
100
AcDbEntity
  8
0
100
AcDbBlockEnd
  0
BLOCK
  5
A20
330
A1A
100
AcDbEntity
  8
0
100
AcDbBlockBegin
  2
*D16
 70
     1
 10
0.0
 20
0.0
 30
0.0
  3
*D16
  1

  0
LINE
  5
A23
330
A1A
100
AcDbEntity
  8
0
370
     5
100
AcDbLine
 10
2557.908085641522
 20
733.7340055517993
 30
0.0
 11
2609.546011673092
 21
812.6775740126428
 31
0.0
  0
MTEXT
  5
A24
330
A1A
100
AcDbEntity
  8
0
100
AcDbMText
 10
2568.456611419248
 20
774.2323746173448
 30
0.0
 40
25.0
 41
0.0
 71
     5
 72
     1
  1
R104
 11
0.5474051334622832
 21
0.8368677433496525
 31
0.0
 73
     1
 44
1.0
1001
ACAD
1000
MTEXTBEGIN
1070
    73
1070
     1
1070
    44
1040
1.0
1070
    74
1070
     0
1000
MTEXTEND
  0
SOLID
  5
A25
330
A1A
100
AcDbEntity
  8
0
100
AcDbTrace
 10
2607.453842314718
 20
814.0460868462985
 30
0.0
 11
2611.638181031466
 21
811.3090611789871
 31
0.0
 12
2617.757088675026
 22
825.2305901628878
 32
0.0
 13
2617.757088675026
 23
825.2305901628878
 33
0.0
  0
POINT
  5
A26
330
A1A
100
AcDbEntity
  8
Defpoints
 62
     0
100
AcDbPoint
 10
2617.757088675026
 20
825.2305901628878
 30
0.0
  0
POINT
  5
A27
330
A1A
100
AcDbEntity
  8
Defpoints
 62
     0
100
AcDbPoint
 10
2560.826954794949
 20
738.1963448545238
 30
0.0
  0
ENDBLK
  5
A21
330
A1A
100
AcDbEntity
  8
0
100
AcDbBlockEnd
  0
BLOCK
  5
A30
330
A2A
100
AcDbEntity
  8
0
100
AcDbBlockBegin
  2
*D17
 70
     1
 10
0.0
 20
0.0
 30
0.0
  3
*D17
  1

  0
LINE
  5
A33
330
A2A
100
AcDbEntity
  8
0
370
     5
100
AcDbLine
 10
2510.651646022775
 20
490.5700551775407
 30
0.0
 11
2514.920267412135
 21
377.86156576383
 31
0.0
  0
MTEXT
  5
A34
330
A2A
100
AcDbEntity
  8
0
100
AcDbMText
 10
2525.83384811132
 20
442.2153517099745
 30
0.0
 40
25.0
 41
0.0
 71
     5
 72
     1
  1
R1304
 11
0.0378459804047427
 21
-0.9992835842578442
 31
0.0
 73
     1
 44
1.0
1001
ACAD
1000
MTEXTBEGIN
1070
    73
1070
     1
1070
    44
1040
1.0
1070
    74
1070
     0
1000
MTEXTEND
  0
SOLID
  5
A35
330
A2A
100
AcDbEntity
  8
0
100
AcDbTrace
 10
2517.41847637278
 20
377.9561807148418
 30
0.0
 11
2512.422058451492
 21
377.7669508128182
 31
0.0
 12
2515.487957118208
 22
362.8723119999623
 32
0.0
 13
2515.487957118208
 23
362.8723119999623
 33
0.0
  0
POINT
  5
A36
330
A2A
100
AcDbEntity
  8
Defpoints
 62
     0
100
AcDbPoint
 10
2515.487957118208
 20
362.8723119999623
 30
0.0
  0
POINT
  5
A37
330
A2A
100
AcDbEntity
  8
Defpoints
 62
     0
100
AcDbPoint
 10
2466.136798670423
 20
1665.93810587219
 30
0.0
  0
ENDBLK
  5
A31
330
A2A
100
AcDbEntity
  8
0
100
AcDbBlockEnd
  0
BLOCK
  5
A40
330
A3A
100
AcDbEntity
  8
0
100
AcDbBlockBegin
  2
*D18
 70
     1
 10
0.0
 20
0.0
 30
0.0
  3
*D18
  1

  0
LINE
  5
A43
330
A3A
100
AcDbEntity
  8
0
370
     5
100
AcDbLine
 10
2373.866480915076
 20
733.4448554612357
 30
0.0
 11
2331.056944705125
 21
817.5037991594686
 31
0.0
  0
MTEXT
  5
A44
330
A3A
100
AcDbEntity
  8
0
100
AcDbMText
 10
2367.753699448004
 20
774.8456186883587
 30
0.0
 40
25.0
 41
0.0
 71
     5
 72
     1
  1
R104
 11
0.4538168296716596
 21
-0.8910949921903748
 31
0.0
 73
     1
 44
1.0
1001
ACAD
1000
MTEXTBEGIN
1070
    73
1070
     1
1070
    44
1040
1.0
1070
    74
1070
     0
1000
MTEXTEND
  0
SOLID
  5
A45
330
A3A
100
AcDbEntity
  8
0
100
AcDbTrace
 10
2333.2846821856
 20
818.6383412336478
 30
0.0
 11
2328.829207224649
 21
816.3692570852893
 31
0.0
 12
2324.24969226005
 22
830.8702240423242
 32
0.0
 13
2324.24969226005
 23
830.8702240423242
 33
0.0
  0
POINT
  5
A46
330
A3A
100
AcDbEntity
  8
Defpoints
 62
     0
100
AcDbPoint
 10
2324.24969226005
 20
830.8702240423242
 30
0.0
  0
POINT
  5
A47
330
A3A
100
AcDbEntity
  8
Defpoints
 62
     0
100
AcDbPoint
 10
2371.446642545902
 20
738.1963448545246
 30
0.0
  0
ENDBLK
  5
A41
330
A3A
100
AcDbEntity
  8
0
100
AcDbBlockEnd
  0
BLOCK
  5
A52
330
A4A
100
AcDbEntity
  8
0
100
AcDbBlockBegin
  2
*D19
 70
     1
 10
0.0
 20
0.0
 30
0.0
  3
*D19
  1

  0
LINE
  5
A55
330
A4A
100
AcDbEntity
  8
0
370
     5
100
AcDbLine
 10
1868.877576694955
 20
725.8257721909228
 30
0.0
 11
1927.974097963881
 21
725.8257721909232
 31
0.0
  0
LINE
  5
A56
330
A4A
100
AcDbEntity
  8
0
370
     5
100
AcDbLine
 10
1927.974097963881
 20
725.8257721909232
 30
0.0
 11
1942.434941516157
 21
763.583926303916
 31
0.0
  0
MTEXT
  5
A57
330
A4A
100
AcDbEntity
  8
0
100
AcDbMText
 10
1898.113337329418
 20
739.1670663509808
 30
0.0
 40
25.0
 41
0.0
 71
     5
 72
     1
  1
R25
 73
     1
 44
1.0
1001
ACAD
1000
MTEXTBEGIN
1070
    73
1070
     1
1070
    44
1040
1.0
1070
    74
1070
     0
1000
MTEXTEND
  0
LINE
  5
A58
330
A4A
100
AcDbEntity
  8
0
370
     5
100
AcDbLine
 10
1956.741068482638
 20
800.9381058721906
 30
0.0
 11
1947.799739128587
 21
777.5917436420192
 31
0.0
  0
SOLID
  5
A59
330
A4A
100
AcDbEntity
  8
0
100
AcDbTrace
 10
1940.10030529314
 20
764.4780592393211
 30
0.0
 11
1944.769577739174
 21
762.689793368511
 31
0.0
 12
1947.799739128587
 22
777.5917436420192
 32
0.0
 13
1947.799739128587
 23
777.5917436420192
 33
0.0
  0
POINT
  5
A5A
330
A4A
100
AcDbEntity
  8
Defpoints
 62
     0
100
AcDbPoint
 10
1947.799739128587
 20
777.5917436420192
 30
0.0
  0
POINT
  5
A5B
330
A4A
100
AcDbEntity
  8
Defpoints
 62
     0
100
AcDbPoint
 10
1956.741068482638
 20
800.9381058721906
 30
0.0
  0
ENDBLK
  5
A53
330
A4A
100
AcDbEntity
  8
0
100
AcDbBlockEnd
  0
ENDSEC
  0
SECTION
  2
ENTITIES
  0
ARC
  5
8B1
330
1F
100
AcDbEntity
  8
0
370
    40
100
AcDbCircle
 10
3349.336798670424
 20
603.9381058721907
 30
0.0
 40
1811.0
100
AcDbArc
 50
180.0
 51
184.5296761295536
  0
ARC
  5
8B2
330
1F
100
AcDbEntity
  8
0
370
    40
100
AcDbCircle
 10
1654.6466425459
 20
469.6798668898574
 30
0.0
 40
111.0
100
AcDbArc
 50
184.5296761295535
 51
265.474173053375
  0
ARC
  5
8B3
330
1F
100
AcDbEntity
  8
0
370
    40
100
AcDbCircle
 10
1749.336798670423
 20
1665.938105872191
 30
0.0
 40
1311.0
100
AcDbArc
 50
265.4741730533749
 51
270.0
  0
LINE
  5
8B4
102
{ACAD_REACTORS
330
942
330
974
102
}
330
1F
100
AcDbEntity
  8
0
100
AcDbLine
 10
1749.336798670423
 20
354.9381058721908
 30
0.0
 11
2466.136798670425
 21
354.9381058721908
 31
0.0
  0
ARC
  5
8B5
330
1F
100
AcDbEntity
  8
0
370
    40
100
AcDbCircle
 10
2466.136798670425
 20
1665.938105872191
 30
0.0
 40
1311.0
100
AcDbArc
 50
270.0
 51
274.5258269466251
  0
ARC
  5
8B6
330
1F
100
AcDbEntity
  8
0
370
    40
100
AcDbCircle
 10
2560.826954794948
 20
469.6798668898574
 30
0.0
 40
111.0
100
AcDbArc
 50
274.525826946625
 51
355.4703238704465
  0
ARC
  5
8B7
330
1F
100
AcDbEntity
  8
0
370
    40
100
AcDbCircle
 10
866.1367986704245
 20
603.9381058721907
 30
0.0
 40
1811.0
100
AcDbArc
 50
355.4703238704464
 51
0.0
  0
ARC
  5
8B8
102
{ACAD_REACTORS
330
912
102
}
330
1F
100
AcDbEntity
  8
0
370
    40
100
AcDbCircle
 10
866.1367986704245
 20
603.9381058721911
 30
0.0
 40
1811.0
100
AcDbArc
 50
0.0
 51
4.529676129553638
  0
ARC
  5
8B9
330
1F
100
AcDbEntity
  8
0
370
    40
100
AcDbCircle
 10
2560.826954794948
 20
738.1963448545243
 30
0.0
 40
111.0
100
AcDbArc
 50
4.529676129553598
 51
85.47417305337473
  0
ARC
  5
8BA
330
1F
100
AcDbEntity
  8
0
370
    40
100
AcDbCircle
 10
2466.136798670425
 20
-458.0618941278086
 30
0.0
 40
1311.0
100
AcDbArc
 50
85.47417305337488
 51
90.0
  0
ARC
  5
8BB
330
1F
100
AcDbEntity
  8
0
370
    40
100
AcDbCircle
 10
2466.136798670425
 20
-458.0618941278086
 30
0.0
 40
1311.0
100
AcDbArc
 50
90.00000000000005
 51
94.5258269466251
  0
ARC
  5
8BC
330
1F
100
AcDbEntity
  8
0
370
    40
100
AcDbCircle
 10
2371.446642545901
 20
738.1963448545243
 30
0.0
 40
111.0
100
AcDbArc
 50
94.52582694662522
 51
150.8977141017451
  0
LINE
  5
8BD
102
{ACAD_REACTORS
330
974
102
}
330
1F
100
AcDbEntity
  8
0
100
AcDbLine
 10
2258.732528858209
 20
782.9381058721911
 30
0.0
 11
1956.741068482639
 21
782.9381058721907
 31
0.0
  0
ARC
  5
8BE
330
1F
100
AcDbEntity
  8
0
370
    40
100
AcDbCircle
 10
1844.026954794946
 20
738.1963448545243
 30
0.0
 40
111.0
100
AcDbArc
 50
29.10228589825477
 51
85.47417305337473
  0
ARC
  5
8BF
330
1F
100
AcDbEntity
  8
0
370
    40
100
AcDbCircle
 10
1749.336798670423
 20
-458.0618941278086
 30
0.0
 40
1311.0
100
AcDbArc
 50
85.47417305337489
 51
89.99999999999998
  0
ARC
  5
8C0
102
{ACAD_REACTORS
330
942
102
}
330
1F
100
AcDbEntity
  8
0
370
    40
100
AcDbCircle
 10
1749.336798670423
 20
-458.0618941278086
 30
0.0
 40
1311.0
100
AcDbArc
 50
90.0
 51
94.5258269466251
  0
ARC
  5
8C1
330
1F
100
AcDbEntity
  8
0
370
    40
100
AcDbCircle
 10
1654.6466425459
 20
738.1963448545243
 30
0.0
 40
111.0
100
AcDbArc
 50
94.52582694662522
 51
175.4703238704464
  0
ARC
  5
8C2
102
{ACAD_REACTORS
330
912
102
}
330
1F
100
AcDbEntity
  8
0
370
    40
100
AcDbCircle
 10
3349.336798670424
 20
603.9381058721911
 30
0.0
 40
1811.0
100
AcDbArc
 50
175.4703238704464
 51
180.0
  0
ARC
  5
8C5
102
{ACAD_REACTORS
330
984
102
}
330
1F
100
AcDbEntity
  8
图层1
 48
70.0
100
AcDbCircle
 10
1654.6466425459
 20
469.6798668898574
 30
0.0
 40
104.0
100
AcDbArc
 50
184.5296761295535
 51
265.474173053375
  0
ARC
  5
8C6
102
{ACAD_REACTORS
330
8FA
102
}
330
1F
100
AcDbEntity
  8
图层1
 48
70.0
100
AcDbCircle
 10
3349.336798670424
 20
603.9381058721907
 30
0.0
 40
1804.0
100
AcDbArc
 50
180.0
 51
184.5296761295536
  0
ARC
  5
8C7
102
{ACAD_REACTORS
330
994
102
}
330
1F
100
AcDbEntity
  8
图层1
 48
70.0
100
AcDbCircle
 10
3349.336798670424
 20
603.9381058721911
 30
0.0
 40
1804.0
100
AcDbArc
 50
175.4703238704464
 51
180.0
  0
ARC
  5
8C8
102
{ACAD_REACTORS
330
9A4
102
}
330
1F
100
AcDbEntity
  8
图层1
 48
70.0
100
AcDbCircle
 10
1654.6466425459
 20
738.1963448545243
 30
0.0
 40
104.0
100
AcDbArc
 50
94.52582694662522
 51
175.4703238704464
  0
ARC
  5
8C9
330
1F
100
AcDbEntity
  8
图层1
 48
70.0
100
AcDbCircle
 10
1749.336798670423
 20
-458.0618941278086
 30
0.0
 40
1304.0
100
AcDbArc
 50
90.0
 51
94.5258269466251
  0
ARC
  5
8CA
102
{ACAD_REACTORS
330
92A
330
9B4
102
}
330
1F
100
AcDbEntity
  8
图层1
 48
70.0
100
AcDbCircle
 10
1749.336798670423
 20
-458.0618941278086
 30
0.0
 40
1304.0
100
AcDbArc
 50
85.47417305337489
 51
89.99999999999998
  0
ARC
  5
8CB
102
{ACAD_REACTORS
330
9C4
102
}
330
1F
100
AcDbEntity
  8
图层1
 48
70.0
100
AcDbCircle
 10
1844.026954794946
 20
738.1963448545243
 30
0.0
 40
104.0
100
AcDbArc
 50
29.10228589825464
 51
85.47417305337473
  0
LINE
  5
8CC
102
{ACAD_REACTORS
330
95C
102
}
330
1F
100
AcDbEntity
  8
图层1
 48
70.0
100
AcDbLine
 10
2258.732528858209
 20
775.938105872191
 30
0.0
 11
1956.741068482639
 21
775.938105872191
 31
0.0
  0
ARC
  5
8CD
102
{ACAD_REACTORS
330
A48
102
}
330
1F
100
AcDbEntity
  8
图层1
 48
70.0
100
AcDbCircle
 10
2371.446642545901
 20
738.1963448545243
 30
0.0
 40
104.0
100
AcDbArc
 50
94.52582694662522
 51
150.8977141017451
  0
ARC
  5
8CE
330
1F
100
AcDbEntity
  8
图层1
 48
70.0
100
AcDbCircle
 10
2466.136798670425
 20
-458.0618941278086
 30
0.0
 40
1304.0
100
AcDbArc
 50
90.00000000000005
 51
94.5258269466251
  0
ARC
  5
8CF
102
{ACAD_REACTORS
330
A18
102
}
330
1F
100
AcDbEntity
  8
图层1
 48
70.0
100
AcDbCircle
 10
2466.136798670425
 20
-458.0618941278086
 30
0.0
 40
1304.0
100
AcDbArc
 50
85.47417305337488
 51
90.0
  0
ARC
  5
8D0
102
{ACAD_REACTORS
330
A28
102
}
330
1F
100
AcDbEntity
  8
图层1
 48
70.0
100
AcDbCircle
 10
2560.826954794948
 20
738.1963448545243
 30
0.0
 40
104.0
100
AcDbArc
 50
4.529676129553598
 51
85.47417305337473
  0
ARC
  5
8D1
102
{ACAD_REACTORS
330
9F8
102
}
330
1F
100
AcDbEntity
  8
图层1
 48
70.0
100
AcDbCircle
 10
866.1367986704245
 20
603.9381058721911
 30
0.0
 40
1804.0
100
AcDbArc
 50
0.0
 51
4.529676129553638
  0
ARC
  5
8D2
102
{ACAD_REACTORS
330
8FA
102
}
330
1F
100
AcDbEntity
  8
图层1
 48
70.0
100
AcDbCircle
 10
866.1367986704245
 20
603.9381058721907
 30
0.0
 40
1804.0
100
AcDbArc
 50
355.4703238704464
 51
0.0
  0
ARC
  5
8D3
102
{ACAD_REACTORS
330
A08
102
}
330
1F
100
AcDbEntity
  8
图层1
 48
70.0
100
AcDbCircle
 10
2560.826954794948
 20
469.6798668898574
 30
0.0
 40
104.0
100
AcDbArc
 50
274.525826946625
 51
355.4703238704465
  0
ARC
  5
8D4
102
{ACAD_REACTORS
330
A38
102
}
330
1F
100
AcDbEntity
  8
图层1
 48
70.0
100
AcDbCircle
 10
2466.136798670425
 20
1665.938105872191
 30
0.0
 40
1304.0
100
AcDbArc
 50
270.0
 51
274.5258269466251
  0
LINE
  5
8D5
102
{ACAD_REACTORS
330
92A
330
95C
102
}
330
1F
100
AcDbEntity
  8
图层1
 48
70.0
100
AcDbLine
 10
1749.336798670423
 20
361.9381058721907
 30
0.0
 11
2466.136798670425
 21
361.9381058721907
 31
0.0
  0
ARC
  5
8D6
102
{ACAD_REACTORS
330
9D4
102
}
330
1F
100
AcDbEntity
  8
图层1
 48
70.0
100
AcDbCircle
 10
1749.336798670423
 20
1665.938105872191
 30
0.0
 40
1304.0
100
AcDbArc
 50
265.4741730533749
 51
270.0
  0
ARC
  5
8D8
102
{ACAD_REACTORS
330
A5C
102
}
330
1F
100
AcDbEntity
  8
图层1
 48
70.0
100
AcDbCircle
 10
1956.741068482639
 20
800.938105872191
 30
0.0
 40
25.0
100
AcDbArc
 50
209.1022858982549
 51
269.9999999999995
  0
ARC
  5
8D9
330
1F
100
AcDbEntity
  8
图层1
 48
70.0
100
AcDbCircle
 10
2258.732528858209
 20
800.938105872191
 30
0.0
 40
25.0
100
AcDbArc
 50
270.0
 51
330.8977141017454
  0
ARC
  5
8DA
330
1F
100
AcDbEntity
  8
0
370
    40
100
AcDbCircle
 10
2258.732528858209
 20
800.938105872191
 30
0.0
 40
18.0
100
AcDbArc
 50
270.0
 51
330.8977141017458
  0
ARC
  5
8DB
330
1F
100
AcDbEntity
  8
0
370
    40
100
AcDbCircle
 10
1956.741068482639
 20
800.9381058721912
 30
0.0
 40
18.0
100
AcDbArc
 50
209.1022858982549
 51
270.0
  0
DIMENSION
  5
8E3
102
{ACAD_XDICTIONARY
360
8F0
102
}
102
{ACAD_REACTORS
330
8FA
102
}
330
1F
100
AcDbEntity
  8
0
100
AcDbDimension
  2
*D1
 10
2670.136798670425
 20
291.7558895514576
 30
0.0
 11
2107.736798670424
 21
307.9540690756104
 31
0.0
 70
    32
 71
     5
 42
1124.800000000001
  3
ISO-25
100
AcDbAlignedDimension
 13
1545.336798670423
 23
603.9381058721907
 33
0.0
 14
2670.136798670425
 24
603.9381058721907
 34
0.0
100
AcDbRotatedDimension
  0
DIMENSION
  5
8FB
102
{ACAD_XDICTIONARY
360
908
102
}
102
{ACAD_REACTORS
330
912
102
}
330
1F
100
AcDbEntity
  8
0
100
AcDbDimension
  2
*D2
 10
2677.136798670425
 20
238.6327732564232
 30
0.0
 11
2107.736798670424
 21
254.8309527805761
 31
0.0
 70
    32
 71
     5
 42
1138.800000000001
  3
ISO-25
100
AcDbAlignedDimension
 13
1538.336798670423
 23
603.9381058721897
 33
0.0
 14
2677.136798670425
 24
603.9381058721911
 34
0.0
100
AcDbRotatedDimension
  0
DIMENSION
  5
913
102
{ACAD_XDICTIONARY
360
920
102
}
102
{ACAD_REACTORS
330
92A
102
}
330
1F
100
AcDbEntity
  8
0
100
AcDbDimension
  2
*D3
 10
1489.743428694167
 20
361.9381058721909
 30
0.0
 11
1476.402134534109
 21
603.9381058721913
 31
0.0
 70
    32
 71
     5
 42
484.0000000000004
  3
ISO-25
100
AcDbAlignedDimension
 13
1749.336798670423
 23
845.9381058721913
 33
0.0
 14
1749.336798670423
 24
361.9381058721907
 34
0.0
 50
90.0
100
AcDbRotatedDimension
  0
DIMENSION
  5
92B
102
{ACAD_XDICTIONARY
360
938
102
}
102
{ACAD_REACTORS
330
942
102
}
330
1F
100
AcDbEntity
  8
0
100
AcDbDimension
  2
*D4
 10
1449.264356913736
 20
354.9381058721909
 30
0.0
 11
1435.887013727002
 21
603.9381058721913
 31
0.0
 70
    32
 71
     5
 42
498.0000000000003
  3
ISO-25
100
AcDbAlignedDimension
 13
1749.336798670423
 23
852.9381058721913
 33
0.0
 14
1749.336798670423
 24
354.9381058721908
 34
0.0
 50
90.0
100
AcDbRotatedDimension
  0
DIMENSION
  5
945
102
{ACAD_XDICTIONARY
360
952
102
}
102
{ACAD_REACTORS
330
95C
102
}
330
1F
100
AcDbEntity
  8
0
100
AcDbDimension
  2
*D5
 10
2151.143593166226
 20
361.9381058721907
 30
0.0
 11
2138.018593166226
 21
568.9381058721912
 31
0.0
 70
    32
 71
     5
 42
414.0000000000001
  3
ISO-25
100
AcDbAlignedDimension
 13
2107.736798670424
 23
775.938105872191
 33
0.0
 14
2107.736798670424
 24
361.9381058721907
 34
0.0
 50
90.0
100
AcDbRotatedDimension
  0
DIMENSION
  5
95D
102
{ACAD_XDICTIONARY
360
96A
102
}
102
{ACAD_REACTORS
330
974
102
}
330
1F
100
AcDbEntity
  8
0
100
AcDbDimension
  2
*D6
 10
2035.42182648888
 20
354.9381058721908
 30
0.0
 11
2022.080532328823
 21
568.9381058721912
 31
0.0
 70
    32
 71
     5
 42
428.0000000000002
  3
ISO-25
100
AcDbAlignedDimension
 13
2064.934758541614
 23
782.938105872191
 33
0.0
 14
2064.934758541614
 24
354.9381058721908
 34
0.0
 50
90.0
100
AcDbRotatedDimension
  0
DIMENSION
  5
975
102
{ACAD_XDICTIONARY
360
97E
102
}
102
{ACAD_REACTORS
330
984
102
}
330
1F
100
AcDbEntity
  8
0
100
AcDbDimension
  2
*D7
 10
1654.646642545901
 20
469.6798668898568
 30
0.0
 11
1633.2797214115
 21
442.8047547479002
 31
0.0
 70
   164
 71
     5
 42
104.0000000000004
  3
ISO-25
100
AcDbRadialDimension
 15
1589.924617608543
 25
388.2731135581581
 35
0.0
 40
0.0
1001
ACAD
1000
DSTYLE
1002
{
1070
   288
1070
     1
1002
}
  0
DIMENSION
  5
985
102
{ACAD_XDICTIONARY
360
98E
102
}
102
{ACAD_REACTORS
330
994
102
}
330
1F
100
AcDbEntity
  8
0
100
AcDbDimension
  2
*D8
 10
3349.336798670424
 20
603.9381058721922
 30
0.0
 11
1624.522372922682
 21
635.6189620694886
 31
0.0
 70
   164
 71
     5
 42
1804.0
  3
ISO-25
100
AcDbRadialDimension
 15
1545.641031260061
 25
637.0678300778714
 35
0.0
 40
0.0
1001
ACAD
1000
DSTYLE
1002
{
1070
   288
1070
     1
1002
}
  0
DIMENSION
  5
995
102
{ACAD_XDICTIONARY
360
99E
102
}
102
{ACAD_REACTORS
330
9A4
102
}
330
1F
100
AcDbEntity
  8
0
100
AcDbDimension
  2
*D9
 10
1654.6466425459
 20
738.1963448545238
 30
0.0
 11
1630.799723236758
 21
762.8973855384661
 31
0.0
 70
   164
 71
     5
 42
104.0000000000008
  3
ISO-25
100
AcDbRadialDimension
 15
1582.412515013107
 25
813.0176708223007
 35
0.0
 40
0.0
1001
ACAD
1000
DSTYLE
1002
{
1070
   288
1070
     1
1002
}
  0
DIMENSION
  5
9A5
102
{ACAD_XDICTIONARY
360
9AE
102
}
102
{ACAD_REACTORS
330
9B4
102
}
330
1F
100
AcDbEntity
  8
0
100
AcDbDimension
  2
*D10
 10
1749.336798670423
 20
-458.0618941278093
 30
0.0
 11
1754.28457195604
 21
767.0334679464905
 31
0.0
 70
   164
 71
     5
 42
1304.000000000001
  3
ISO-25
100
AcDbRadialDimension
 15
1754.603199920869
 25
845.9274712497888
 35
0.0
 40
0.0
1001
ACAD
1000
DSTYLE
1002
{
1070
   288
1070
     1
1002
}
  0
DIMENSION
  5
9B5
102
{ACAD_XDICTIONARY
360
9BE
102
}
102
{ACAD_REACTORS
330
9C4
102
}
330
1F
100
AcDbEntity
  8
0
100
AcDbDimension
  2
*D11
 10
1844.026954794948
 20
738.1963448545254
 30
0.0
 11
1855.588120295661
 21
770.5252239515722
 31
0.0
 70
   164
 71
     5
 42
103.9999999999986
  3
ISO-25
100
AcDbRadialDimension
 15
1879.046602086922
 25
836.1229719972257
 35
0.0
 40
0.0
1001
ACAD
1000
DSTYLE
1002
{
1070
   288
1070
     1
1002
}
  0
DIMENSION
  5
9C5
102
{ACAD_XDICTIONARY
360
9CE
102
}
102
{ACAD_REACTORS
330
9D4
102
}
330
1F
100
AcDbEntity
  8
0
100
AcDbDimension
  2
*D12
 10
1749.336798670422
 20
1665.938105872191
 30
0.0
 11
1694.479569441127
 21
442.0615553011258
 31
0.0
 70
   164
 71
     5
 42
1303.999999999999
  3
ISO-25
100
AcDbRadialDimension
 15
1690.946859614606
 25
363.2460413315882
 35
0.0
 40
0.0
1001
ACAD
1000
DSTYLE
1002
{
1070
   288
1070
     1
1002
}
  0
DIMENSION
  5
9E9
102
{ACAD_XDICTIONARY
360
9F2
102
}
102
{ACAD_REACTORS
330
9F8
102
}
330
1F
100
AcDbEntity
  8
0
100
AcDbDimension
  2
*D13
 10
866.1367986704247
 20
603.9381058721914
 30
0.0
 11
2590.40411745941
 21
657.7032737148198
 31
0.0
 70
   164
 71
     5
 42
1803.999999999999
  3
ISO-25
100
AcDbRadialDimension
 15
2669.260438151488
 25
660.162128714426
 35
0.0
 40
0.0
1001
ACAD
1000
DSTYLE
1002
{
1070
   288
1070
     1
1002
}
  0
DIMENSION
  5
9F9
102
{ACAD_XDICTIONARY
360
A02
102
}
102
{ACAD_REACTORS
330
A08
102
}
330
1F
100
AcDbEntity
  8
0
100
AcDbDimension
  2
*D14
 10
2560.82695479495
 20
469.679866889859
 30
0.0
 11
2575.628348904644
 21
438.7002654751218
 31
0.0
 70
   164
 71
     5
 42
104.0000000000006
  3
ISO-25
100
AcDbRadialDimension
 15
2605.661500336138
 25
375.8403041984481
 35
0.0
 40
0.0
1001
ACAD
1000
DSTYLE
1002
{
1070
   288
1070
     1
1002
}
  0
DIMENSION
  5
A09
102
{ACAD_XDICTIONARY
360
A12
102
}
102
{ACAD_REACTORS
330
A18
102
}
330
1F
100
AcDbEntity
  8
0
100
AcDbDimension
  2
*D15
 10
2466.136798670428
 20
-458.061894127809
 30
0.0
 11
2475.917257862786
 21
767.0044180587732
 31
0.0
 70
   164
 71
     5
 42
1304.0
  3
ISO-25
100
AcDbRadialDimension
 15
2476.547102366092
 25
845.8965505999994
 35
0.0
 40
0.0
1001
ACAD
1000
DSTYLE
1002
{
1070
   288
1070
     1
1002
}
  0
DIMENSION
  5
A19
102
{ACAD_XDICTIONARY
360
A22
102
}
102
{ACAD_REACTORS
330
A28
102
}
330
1F
100
AcDbEntity
  8
0
100
AcDbDimension
  2
*D16
 10
2560.826954794949
 20
738.1963448545238
 30
0.0
 11
2579.62151015634
 21
766.9292817070986
 31
0.0
 70
   164
 71
     5
 42
104.0
  3
ISO-25
100
AcDbRadialDimension
 15
2617.757088675026
 25
825.2305901628878
 35
0.0
 40
0.0
1001
ACAD
1000
DSTYLE
1002
{
1070
   288
1070
     1
1002
}
  0
DIMENSION
  5
A29
102
{ACAD_XDICTIONARY
360
A32
102
}
102
{ACAD_REACTORS
330
A38
102
}
330
1F
100
AcDbEntity
  8
0
100
AcDbDimension
  2
*D17
 10
2466.136798670423
 20
1665.93810587219
 30
0.0
 11
2512.502111864419
 21
441.710437352619
 31
0.0
 70
   164
 71
     5
 42
1303.999999999998
  3
ISO-25
100
AcDbRadialDimension
 15
2515.487957118208
 25
362.8723119999623
 35
0.0
 40
0.0
1001
ACAD
1000
DSTYLE
1002
{
1070
   288
1070
     1
1002
}
  0
DIMENSION
  5
A39
102
{ACAD_XDICTIONARY
360
A42
102
}
102
{ACAD_REACTORS
330
A48
102
}
330
1F
100
AcDbEntity
  8
0
100
AcDbDimension
  2
*D18
 10
2371.446642545902
 20
738.1963448545246
 30
0.0
 11
2355.865339032638
 21
768.7911148689242
 31
0.0
 70
   164
 71
     5
 42
104.0000000000007
  3
ISO-25
100
AcDbRadialDimension
 15
2324.24969226005
 25
830.8702240423242
 35
0.0
 40
0.0
1001
ACAD
1000
DSTYLE
1002
{
1070
   288
1070
     1
1002
}
  0
DIMENSION
  5
A49
102
{ACAD_XDICTIONARY
360
A54
102
}
102
{ACAD_REACTORS
330
A5C
102
}
330
1F
100
AcDbEntity
  8
0
100
AcDbDimension
  2
*D19
 10
1956.741068482638
 20
800.9381058721906
 30
0.0
 11
1898.113337329418
 21
739.1670663509808
 31
0.0
 70
    36
 71
     5
 42
24.99999999999977
  3
ISO-25
100
AcDbRadialDimension
 15
1947.799739128587
 25
777.5917436420192
 35
0.0
 40
0.0
1001
ACAD
1000
DSTYLE
1002
{
1070
   288
1070
     1
1002
}
  0
ENDSEC
  0
SECTION
  2
OBJECTS
  0
DICTIONARY
  5
C
330
0
100
AcDbDictionary
281
     1
  3
ACAD_COLOR
350
73
  3
ACAD_GROUP
350
D
  3
ACAD_LAYOUT
350
1A
  3
ACAD_MATERIAL
350
72
  3
ACAD_MLINESTYLE
350
17
  3
ACAD_PLOTSETTINGS
350
19
  3
ACAD_PLOTSTYLENAME
350
E
  3
ACAD_TABLESTYLE
350
A7A
  3
ACDBHEADERROUNDTRIPXREC
350
A8B
  3
AcDbVariableDictionary
350
66
  0
DICTIONARY
  5
8F0
330
8E3
100
AcDbDictionary
280
     1
281
     1
  3
ACAD_DIMASSOC
360
8FA
  0
DICTIONARY
  5
908
330
8FB
100
AcDbDictionary
280
     1
281
     1
  3
ACAD_DIMASSOC
360
912
  0
DICTIONARY
  5
920
330
913
100
AcDbDictionary
280
     1
281
     1
  3
ACAD_DIMASSOC
360
92A
  0
DICTIONARY
  5
938
330
92B
100
AcDbDictionary
280
     1
281
     1
  3
ACAD_DIMASSOC
360
942
  0
DICTIONARY
  5
952
330
945
100
AcDbDictionary
280
     1
281
     1
  3
ACAD_DIMASSOC
360
95C
  0
DICTIONARY
  5
96A
330
95D
100
AcDbDictionary
280
     1
281
     1
  3
ACAD_DIMASSOC
360
974
  0
DICTIONARY
  5
97E
330
975
100
AcDbDictionary
280
     1
281
     1
  3
ACAD_DIMASSOC
360
984
  0
DICTIONARY
  5
98E
330
985
100
AcDbDictionary
280
     1
281
     1
  3
ACAD_DIMASSOC
360
994
  0
DICTIONARY
  5
99E
330
995
100
AcDbDictionary
280
     1
281
     1
  3
ACAD_DIMASSOC
360
9A4
  0
DICTIONARY
  5
9AE
330
9A5
100
AcDbDictionary
280
     1
281
     1
  3
ACAD_DIMASSOC
360
9B4
  0
DICTIONARY
  5
9BE
330
9B5
100
AcDbDictionary
280
     1
281
     1
  3
ACAD_DIMASSOC
360
9C4
  0
DICTIONARY
  5
9CE
330
9C5
100
AcDbDictionary
280
     1
281
     1
  3
ACAD_DIMASSOC
360
9D4
  0
DICTIONARY
  5
9F2
330
9E9
100
AcDbDictionary
280
     1
281
     1
  3
ACAD_DIMASSOC
360
9F8
  0
DICTIONARY
  5
A02
330
9F9
100
AcDbDictionary
280
     1
281
     1
  3
ACAD_DIMASSOC
360
A08
  0
DICTIONARY
  5
A12
330
A09
100
AcDbDictionary
280
     1
281
     1
  3
ACAD_DIMASSOC
360
A18
  0
DICTIONARY
  5
A22
330
A19
100
AcDbDictionary
280
     1
281
     1
  3
ACAD_DIMASSOC
360
A28
  0
DICTIONARY
  5
A32
330
A29
100
AcDbDictionary
280
     1
281
     1
  3
ACAD_DIMASSOC
360
A38
  0
DICTIONARY
  5
A42
330
A39
100
AcDbDictionary
280
     1
281
     1
  3
ACAD_DIMASSOC
360
A48
  0
DICTIONARY
  5
A54
330
A49
100
AcDbDictionary
280
     1
281
     1
  3
ACAD_DIMASSOC
360
A5C
  0
DICTIONARY
  5
73
102
{ACAD_REACTORS
330
C
102
}
330
C
100
AcDbDictionary
281
     1
  0
DICTIONARY
  5
D
102
{ACAD_REACTORS
330
C
102
}
330
C
100
AcDbDictionary
281
     1
  0
DICTIONARY
  5
1A
102
{ACAD_REACTORS
330
C
102
}
330
C
100
AcDbDictionary
281
     1
  3
Model
350
22
  3
布局1
350
59
  3
布局2
350
5E
  0
DICTIONARY
  5
72
102
{ACAD_REACTORS
330
C
102
}
330
C
100
AcDbDictionary
281
     1
  0
DICTIONARY
  5
17
102
{ACAD_REACTORS
330
C
102
}
330
C
100
AcDbDictionary
281
     1
  3
Standard
350
18
  0
DICTIONARY
  5
19
102
{ACAD_REACTORS
330
C
102
}
330
C
100
AcDbDictionary
281
     1
  0
ACDBDICTIONARYWDFLT
  5
E
102
{ACAD_REACTORS
330
C
102
}
330
C
100
AcDbDictionary
281
     1
  3
Normal
350
F
100
AcDbDictionaryWithDefault
340
F
  0
DICTIONARY
  5
A7A
102
{ACAD_REACTORS
330
C
102
}
330
C
100
AcDbDictionary
281
     1
  3
Standard
350
A7B
  0
DICTIONARY
  5
A8B
102
{ACAD_REACTORS
330
C
102
}
330
C
100
AcDbDictionary
281
     1
  0
DICTIONARY
  5
66
102
{ACAD_REACTORS
330
C
102
}
330
C
100
AcDbDictionary
281
     1
  3
CTABLESTYLE
350
A81
  3
DIMASSOC
350
67
  3
HIDETEXT
350
6B
  3
PROJECTNAME
350
A6D
  0
DIMASSOC
  5
8FA
102
{ACAD_REACTORS
330
8F0
102
}
330
8F0
100
AcDbDimAssoc
330
8E3
 90
        3
 70
     0
 71
     0
  1
AcDbOsnapPointRef
 72
    13
331
8C6
 73
     2
 91
        0
 40
3.141592653589792
 10
0.0
 20
0.0
 30
2.000000000000000E+50
 75
     0
  1
AcDbOsnapPointRef
 72
     1
331
8D2
 73
     2
 91
        0
 40
6.283185307179585
 10
0.0
 20
0.0
 30
2.000000000000000E+50
 75
     0
  0
DIMASSOC
  5
912
102
{ACAD_REACTORS
330
908
102
}
330
908
100
AcDbDimAssoc
330
8FB
 90
        3
 70
     0
 71
     0
  1
AcDbOsnapPointRef
 72
     1
331
8C2
 73
     2
 91
        0
 40
3.141592653589792
 10
0.0
 20
0.0
 30
2.000000000000000E+50
 75
     0
  1
AcDbOsnapPointRef
 72
    13
331
8B8
 73
     2
 91
        0
 40
0.0
 10
0.0
 20
0.0
 30
2.000000000000000E+50
 75
     0
  0
DIMASSOC
  5
92A
102
{ACAD_REACTORS
330
920
102
}
330
920
100
AcDbDimAssoc
330
913
 90
        3
 70
     0
 71
     0
  1
AcDbOsnapPointRef
 72
     1
331
8CA
 73
     2
 91
        0
 40
1.570796326794896
 10
0.0
 20
0.0
 30
2.000000000000000E+50
 75
     0
  1
AcDbOsnapPointRef
 72
    13
331
8D5
 73
     2
 91
        0
 40
0.0
 10
0.0
 20
0.0
 30
2.000000000000000E+50
 75
     0
  0
DIMASSOC
  5
942
102
{ACAD_REACTORS
330
938
102
}
330
938
100
AcDbDimAssoc
330
92B
 90
        3
 70
     0
 71
     0
  1
AcDbOsnapPointRef
 72
    13
331
8C0
 73
     2
 91
        0
 40
1.570796326794896
 10
0.0
 20
0.0
 30
2.000000000000000E+50
 75
     0
  1
AcDbOsnapPointRef
 72
    13
331
8B4
 73
     2
 91
        0
 40
0.0
 10
0.0
 20
0.0
 30
2.000000000000000E+50
 75
     0
  0
DIMASSOC
  5
95C
102
{ACAD_REACTORS
330
952
102
}
330
952
100
AcDbDimAssoc
330
945
 90
        3
 70
     0
 71
     0
  1
AcDbOsnapPointRef
 72
     2
331
8CC
 73
     2
 91
        0
 40
0.5
 10
0.0
 20
0.0
 30
0.0
 75
     0
  1
AcDbOsnapPointRef
 72
     2
331
8D5
 73
     2
 91
        0
 40
0.5
 10
0.0
 20
0.0
 30
0.0
 75
     0
  0
DIMASSOC
  5
974
102
{ACAD_REACTORS
330
96A
102
}
330
96A
100
AcDbDimAssoc
330
95D
 90
        3
 70
     0
 71
     0
  1
AcDbOsnapPointRef
 72
    10
331
8BD
 73
     2
 91
        0
 40
0.6417326174573905
 10
0.0
 20
0.0
 30
0.0
 75
     0
  1
AcDbOsnapPointRef
 72
     8
331
8B4
 73
     2
 91
        0
 40
0.4402873324095857
 10
0.0
 20
0.0
 30
0.0
 75
     1
  1
AcDbOsnapPointRef
 72
    10
331
8BD
 73
     2
 91
        0
 40
0.6417326174573905
 10
0.0
 20
0.0
 30
0.0
 75
     0
  0
DIMASSOC
  5
984
102
{ACAD_REACTORS
330
97E
102
}
330
97E
100
AcDbDimAssoc
330
975
 90
        2
 70
     0
 71
     0
  1
AcDbOsnapPointRef
 72
     3
331
8C5
 73
     2
 91
        0
 40
0.0
 10
0.0
 20
0.0
 30
0.0
 75
     0
  0
DIMASSOC
  5
994
102
{ACAD_REACTORS
330
98E
102
}
330
98E
100
AcDbDimAssoc
330
985
 90
        2
 70
     0
 71
     0
  1
AcDbOsnapPointRef
 72
     3
331
8C7
 73
     2
 91
        0
 40
0.0
 10
0.0
 20
0.0
 30
0.0
 75
     0
  0
DIMASSOC
  5
9A4
102
{ACAD_REACTORS
330
99E
102
}
330
99E
100
AcDbDimAssoc
330
995
 90
        2
 70
     0
 71
     0
  1
AcDbOsnapPointRef
 72
     3
331
8C8
 73
     2
 91
        0
 40
0.0
 10
0.0
 20
0.0
 30
0.0
 75
     0
  0
DIMASSOC
  5
9B4
102
{ACAD_REACTORS
330
9AE
102
}
330
9AE
100
AcDbDimAssoc
330
9A5
 90
        2
 70
     0
 71
     0
  1
AcDbOsnapPointRef
 72
     3
331
8CA
 73
     2
 91
        0
 40
0.0
 10
0.0
 20
0.0
 30
0.0
 75
     0
  0
DIMASSOC
  5
9C4
102
{ACAD_REACTORS
330
9BE
102
}
330
9BE
100
AcDbDimAssoc
330
9B5
 90
        2
 70
     0
 71
     0
  1
AcDbOsnapPointRef
 72
     3
331
8CB
 73
     2
 91
        0
 40
0.0
 10
0.0
 20
0.0
 30
0.0
 75
     0
  0
DIMASSOC
  5
9D4
102
{ACAD_REACTORS
330
9CE
102
}
330
9CE
100
AcDbDimAssoc
330
9C5
 90
        2
 70
     0
 71
     0
  1
AcDbOsnapPointRef
 72
     3
331
8D6
 73
     2
 91
        0
 40
0.0
 10
0.0
 20
0.0
 30
0.0
 75
     0
  0
DIMASSOC
  5
9F8
102
{ACAD_REACTORS
330
9F2
102
}
330
9F2
100
AcDbDimAssoc
330
9E9
 90
        2
 70
     0
 71
     0
  1
AcDbOsnapPointRef
 72
     3
331
8D1
 73
     2
 91
        0
 40
0.0
 10
0.0
 20
0.0
 30
0.0
 75
     0
  0
DIMASSOC
  5
A08
102
{ACAD_REACTORS
330
A02
102
}
330
A02
100
AcDbDimAssoc
330
9F9
 90
        2
 70
     0
 71
     0
  1
AcDbOsnapPointRef
 72
     3
331
8D3
 73
     2
 91
        0
 40
0.0
 10
0.0
 20
0.0
 30
0.0
 75
     0
  0
DIMASSOC
  5
A18
102
{ACAD_REACTORS
330
A12
102
}
330
A12
100
AcDbDimAssoc
330
A09
 90
        2
 70
     0
 71
     0
  1
AcDbOsnapPointRef
 72
     3
331
8CF
 73
     2
 91
        0
 40
0.0
 10
0.0
 20
0.0
 30
0.0
 75
     0
  0
DIMASSOC
  5
A28
102
{ACAD_REACTORS
330
A22
102
}
330
A22
100
AcDbDimAssoc
330
A19
 90
        2
 70
     0
 71
     0
  1
AcDbOsnapPointRef
 72
     3
331
8D0
 73
     2
 91
        0
 40
0.0
 10
0.0
 20
0.0
 30
0.0
 75
     0
  0
DIMASSOC
  5
A38
102
{ACAD_REACTORS
330
A32
102
}
330
A32
100
AcDbDimAssoc
330
A29
 90
        2
 70
     0
 71
     0
  1
AcDbOsnapPointRef
 72
     3
331
8D4
 73
     2
 91
        0
 40
0.0
 10
0.0
 20
0.0
 30
0.0
 75
     0
  0
DIMASSOC
  5
A48
102
{ACAD_REACTORS
330
A42
102
}
330
A42
100
AcDbDimAssoc
330
A39
 90
        2
 70
     0
 71
     0
  1
AcDbOsnapPointRef
 72
     3
331
8CD
 73
     2
 91
        0
 40
0.0
 10
0.0
 20
0.0
 30
0.0
 75
     0
  0
DIMASSOC
  5
A5C
102
{ACAD_REACTORS
330
A54
102
}
330
A54
100
AcDbDimAssoc
330
A49
 90
        2
 70
     0
 71
     0
  1
AcDbOsnapPointRef
 72
     3
331
8D8
 73
     2
 91
        0
 40
0.0
 10
0.0
 20
0.0
 30
0.0
 75
     0
  0
LAYOUT
  5
22
102
{ACAD_XDICTIONARY
360
A8C
102
}
102
{ACAD_REACTORS
330
1A
102
}
330
1A
100
AcDbPlotSettings
  1

  2
none_device
  4
ANSI_A_(8.50_x_11.00_Inches)
  6

 40
6.349999904632567
 41
19.04999923706055
 42
6.350006103515625
 43
19.04998779296875
 44
215.8999938964844
 45
279.3999938964844
 46
0.0
 47
0.0
 48
0.0
 49
0.0
140
0.0
141
0.0
142
1.0
143
2.584895464708373
 70
 11952
 72
     0
 73
     1
 74
     0
  7

 75
     0
147
0.3868628397755418
148
0.0
149
0.0
100
AcDbLayout
  1
Model
 70
     1
 71
     0
 10
0.0
 20
0.0
 11
12.0
 21
9.0
 12
0.0
 22
0.0
 32
0.0
 14
0.0
 24
0.0
 34
0.0
 15
0.0
 25
0.0
 35
0.0
146
0.0
 13
0.0
 23
0.0
 33
0.0
 16
1.0
 26
0.0
 36
0.0
 17
0.0
 27
1.0
 37
0.0
 76
     0
330
1F
  0
LAYOUT
  5
59
102
{ACAD_XDICTIONARY
360
A8E
102
}
102
{ACAD_REACTORS
330
1A
102
}
330
1A
100
AcDbPlotSettings
  1

  2
None
  4

  6

 40
0.0
 41
0.0
 42
0.0
 43
0.0
 44
0.0
 45
0.0
 46
0.0
 47
0.0
 48
0.0
 49
0.0
140
0.0
141
0.0
142
1.0
143
1.0
 70
   688
 72
     0
 73
     0
 74
     5
  7

 75
    16
147
1.0
148
0.0
149
0.0
100
AcDbLayout
  1
布局1
 70
     1
 71
     1
 10
0.0
 20
0.0
 11
12.0
 21
9.0
 12
0.0
 22
0.0
 32
0.0
 14
0.0
 24
0.0
 34
0.0
 15
0.0
 25
0.0
 35
0.0
146
0.0
 13
0.0
 23
0.0
 33
0.0
 16
1.0
 26
0.0
 36
0.0
 17
0.0
 27
1.0
 37
0.0
 76
     0
330
58
  0
LAYOUT
  5
5E
102
{ACAD_XDICTIONARY
360
A90
102
}
102
{ACAD_REACTORS
330
1A
102
}
330
1A
100
AcDbPlotSettings
  1

  2
None
  4

  6

 40
0.0
 41
0.0
 42
0.0
 43
0.0
 44
0.0
 45
0.0
 46
0.0
 47
0.0
 48
0.0
 49
0.0
140
0.0
141
0.0
142
1.0
143
1.0
 70
   688
 72
     0
 73
     0
 74
     5
  7

 75
    16
147
1.0
148
0.0
149
0.0
100
AcDbLayout
  1
布局2
 70
     1
 71
     2
 10
0.0
 20
0.0
 11
12.0
 21
9.0
 12
0.0
 22
0.0
 32
0.0
 14
0.0
 24
0.0
 34
0.0
 15
0.0
 25
0.0
 35
0.0
146
0.0
 13
0.0
 23
0.0
 33
0.0
 16
1.0
 26
0.0
 36
0.0
 17
0.0
 27
1.0
 37
0.0
 76
     0
330
5D
  0
MLINESTYLE
  5
18
102
{ACAD_REACTORS
330
17
102
}
330
17
100
AcDbMlineStyle
  2
STANDARD
 70
     0
  3

 62
   256
 51
90.0
 52
90.0
 71
     2
 49
0.5
 62
   256
  6
BYLAYER
 49
-0.5
 62
   256
  6
BYLAYER
  0
ACDBPLACEHOLDER
  5
F
102
{ACAD_REACTORS
330
E
102
}
330
E
  0
TABLESTYLE
  5
A7B
102
{ACAD_REACTORS
330
A7A
102
}
330
A7A
100
AcDbTableStyle
  3
Standard
 70
     0
 71
     0
 40
0.06
 41
0.06
280
     0
281
     0
  7
Standard
140
0.18
170
     2
 62
     0
 63
     7
283
     0
274
    -2
284
     1
 64
     0
275
    -2
285
     1
 65
     0
276
    -2
286
     1
 66
     0
277
    -2
287
     1
 67
     0
278
    -2
288
     1
 68
     0
279
    -2
289
     1
 69
     0
  7
Standard
140
0.25
170
     5
 62
     0
 63
     7
283
     0
274
    -2
284
     1
 64
     0
275
    -2
285
     1
 65
     0
276
    -2
286
     1
 66
     0
277
    -2
287
     1
 67
     0
278
    -2
288
     1
 68
     0
279
    -2
289
     1
 69
     0
  7
Standard
140
0.18
170
     5
 62
     0
 63
     7
283
     0
274
    -2
284
     1
 64
     0
275
    -2
285
     1
 65
     0
276
    -2
286
     1
 66
     0
277
    -2
287
     1
 67
     0
278
    -2
288
     1
 68
     0
279
    -2
289
     1
 69
     0
  0
DICTIONARYVAR
  5
A81
102
{ACAD_REACTORS
330
66
102
}
330
66
100
DictionaryVariables
280
     0
  1
STANDARD
  0
DICTIONARYVAR
  5
67
102
{ACAD_REACTORS
330
66
102
}
330
66
100
DictionaryVariables
280
     0
  1
2
  0
DICTIONARYVAR
  5
6B
102
{ACAD_REACTORS
330
66
102
}
330
66
100
DictionaryVariables
280
     0
  1
1
  0
DICTIONARYVAR
  5
A6D
102
{ACAD_REACTORS
330
66
102
}
330
66
100
DictionaryVariables
280
     0
  1

  0
DICTIONARY
  5
A8C
330
22
100
AcDbDictionary
280
     1
281
     1
  3
ACAD_XREC_ROUNDTRIP
360
A8D
  0
DICTIONARY
  5
A8E
330
59
100
AcDbDictionary
280
     1
281
     1
  3
ACAD_XREC_ROUNDTRIP
360
A8F
  0
DICTIONARY
  5
A90
330
5E
100
AcDbDictionary
280
     1
281
     1
  3
ACAD_XREC_ROUNDTRIP
360
A91
  0
XRECORD
  5
A8D
102
{ACAD_REACTORS
330
A8C
102
}
330
A8C
100
AcDbXrecord
280
     1
102
SHADEPLOT
 70
     0
102
SHADEPLOTRESLEVEL
 70
     2
102
SHADEPLOTCUSTOMDPI
 70
   300
  0
XRECORD
  5
A8F
102
{ACAD_REACTORS
330
A8E
102
}
330
A8E
100
AcDbXrecord
280
     1
102
SHADEPLOT
 70
     0
102
SHADEPLOTRESLEVEL
 70
     2
102
SHADEPLOTCUSTOMDPI
 70
   300
  0
XRECORD
  5
A91
102
{ACAD_REACTORS
330
A90
102
}
330
A90
100
AcDbXrecord
280
     1
102
SHADEPLOT
 70
     0
102
SHADEPLOTRESLEVEL
 70
     2
102
SHADEPLOTCUSTOMDPI
 70
   300
  0
ENDSEC
  0
EOF
