  0
SECTION
  2
HEADER
  9
$ACADVER
  1
AC1018
  9
$ACADMAINTVER
 70
    39
  9
$DWGCODEPAGE
  3
ANSI_949
  9
$INSBASE
 10
0.0
 20
0.0
 30
0.0
  9
$EXTMIN
 10
1060.700540354271
 20
1278.458641476301
 30
-0.0015258207003583
  9
$EXTMAX
 10
1095.144320478862
 20
1299.576913503526
 30
0.0000000349246037
  9
$LIMMIN
 10
0.0
 20
0.0
  9
$LIMMAX
 10
420.0
 20
297.0
  9
$ORTHOMODE
 70
     1
  9
$REGENMODE
 70
     1
  9
$FILLMODE
 70
     1
  9
$QTEXTMODE
 70
     0
  9
$MIRRTEXT
 70
     0
  9
$LTSCALE
 40
1.0
  9
$ATTMODE
 70
     1
  9
$TEXTSIZE
 40
0.3937
  9
$TRACEWID
 40
1.0
  9
$TEXTSTYLE
  7
스타일2
  9
$CLAYER
  8
0
  9
$CELTYPE
  6
ByLayer
  9
$CECOLOR
 62
   256
  9
$CELTSCALE
 40
1.0
  9
$DISPSILH
 70
     0
  9
$DIMSCALE
 40
1.0
  9
$DIMASZ
 40
0.2
  9
$DIMEXO
 40
0.1
  9
$DIMDLI
 40
0.039
  9
$DIMRND
 40
0.0
  9
$DIMDLE
 40
0.0
  9
$DIMEXE
 40
0.2
  9
$DIMTP
 40
0.0
  9
$DIMTM
 40
0.0
  9
$DIMTXT
 40
2.5
  9
$DIMCEN
 40
0.039
  9
$DIMTSZ
 40
0.0
  9
$DIMTOL
 70
     0
  9
$DIMLIM
 70
     0
  9
$DIMTIH
 70
     0
  9
$DIMTOH
 70
     0
  9
$DIMSE1
 70
     0
  9
$DIMSE2
 70
     0
  9
$DIMTAD
 70
     1
  9
$DIMZIN
 70
     8
  9
$DIMBLK
  1

  9
$DIMASO
 70
     1
  9
$DIMSHO
 70
     1
  9
$DIMPOST
  1

  9
$DIMAPOST
  1

  9
$DIMALT
 70
     0
  9
$DIMALTD
 70
     2
  9
$DIMALTF
 40
0.0394
  9
$DIMLFAC
 40
1.0
  9
$DIMTOFL
 70
     1
  9
$DIMTVP
 40
1.0
  9
$DIMTIX
 70
     0
  9
$DIMSOXD
 70
     0
  9
$DIMSAH
 70
     0
  9
$DIMBLK1
  1

  9
$DIMBLK2
  1

  9
$DIMSTYLE
  2
DIN
  9
$DIMCLRD
 70
     0
  9
$DIMCLRE
 70
     0
  9
$DIMCLRT
 70
     0
  9
$DIMTFAC
 40
1.0
  9
$DIMGAP
 40
0.05
  9
$DIMJUST
 70
     0
  9
$DIMSD1
 70
     0
  9
$DIMSD2
 70
     0
  9
$DIMTOLJ
 70
     1
  9
$DIMTZIN
 70
     0
  9
$DIMALTZ
 70
     0
  9
$DIMALTTZ
 70
     0
  9
$DIMUPT
 70
     0
  9
$DIMDEC
 70
     4
  9
$DIMTDEC
 70
     4
  9
$DIMALTU
 70
     8
  9
$DIMALTTD
 70
     2
  9
$DIMTXSTY
  7
스타일2
  9
$DIMAUNIT
 70
     0
  9
$DIMADEC
 70
     0
  9
$DIMALTRND
 40
0.0
  9
$DIMAZIN
 70
     0
  9
$DIMDSEP
 70
    46
  9
$DIMATFIT
 70
     3
  9
$DIMFRAC
 70
     0
  9
$DIMLDRBLK
  1

  9
$DIMLUNIT
 70
     6
  9
$DIMLWD
 70
    -2
  9
$DIMLWE
 70
    -2
  9
$DIMTMOVE
 70
     0
  9
$LUNITS
 70
     3
  9
$LUPREC
 70
     4
  9
$SKETCHINC
 40
1.0
  9
$FILLETRAD
 40
3.0
  9
$AUNITS
 70
     0
  9
$AUPREC
 70
     0
  9
$MENU
  1
.
  9
$ELEVATION
 40
0.0
  9
$PELEVATION
 40
0.0
  9
$THICKNESS
 40
0.0
  9
$LIMCHECK
 70
     0
  9
$CHAMFERA
 40
0.0
  9
$CHAMFERB
 40
0.0
  9
$CHAMFERC
 40
0.0
  9
$CHAMFERD
 40
0.0
  9
$SKPOLY
 70
     0
  9
$TDCREATE
 40
2454393.679354919
  9
$TDUCREATE
 40
2454393.346021586
  9
$TDUPDATE
 40
2454960.490607639
  9
$TDUUPDATE
 40
2454960.157274305
  9
$TDINDWG
 40
0.9338189005
  9
$TDUSRTIMER
 40
0.9338189005
  9
$USRTIMER
 70
     1
  9
$ANGBASE
 50
0.0
  9
$ANGDIR
 70
     0
  9
$PDMODE
 70
     0
  9
$PDSIZE
 40
0.0
  9
$PLINEWID
 40
0.0
  9
$SPLFRAME
 70
     0
  9
$SPLINETYPE
 70
     6
  9
$SPLINESEGS
 70
     8
  9
$HANDSEED
  5
274B
  9
$SURFTAB1
 70
     6
  9
$SURFTAB2
 70
     6
  9
$SURFTYPE
 70
     6
  9
$SURFU
 70
     6
  9
$SURFV
 70
     6
  9
$UCSBASE
  2

  9
$UCSNAME
  2

  9
$UCSORG
 10
0.0
 20
0.0
 30
0.0
  9
$UCSXDIR
 10
1.0
 20
0.0
 30
0.0
  9
$UCSYDIR
 10
0.0
 20
1.0
 30
0.0
  9
$UCSORTHOREF
  2

  9
$UCSORTHOVIEW
 70
     0
  9
$UCSORGTOP
 10
0.0
 20
0.0
 30
0.0
  9
$UCSORGBOTTOM
 10
0.0
 20
0.0
 30
0.0
  9
$UCSORGLEFT
 10
0.0
 20
0.0
 30
0.0
  9
$UCSORGRIGHT
 10
0.0
 20
0.0
 30
0.0
  9
$UCSORGFRONT
 10
0.0
 20
0.0
 30
0.0
  9
$UCSORGBACK
 10
0.0
 20
0.0
 30
0.0
  9
$PUCSBASE
  2

  9
$PUCSNAME
  2

  9
$PUCSORG
 10
0.0
 20
0.0
 30
0.0
  9
$PUCSXDIR
 10
1.0
 20
0.0
 30
0.0
  9
$PUCSYDIR
 10
0.0
 20
1.0
 30
0.0
  9
$PUCSORTHOREF
  2

  9
$PUCSORTHOVIEW
 70
     0
  9
$PUCSORGTOP
 10
0.0
 20
0.0
 30
0.0
  9
$PUCSORGBOTTOM
 10
0.0
 20
0.0
 30
0.0
  9
$PUCSORGLEFT
 10
0.0
 20
0.0
 30
0.0
  9
$PUCSORGRIGHT
 10
0.0
 20
0.0
 30
0.0
  9
$PUCSORGFRONT
 10
0.0
 20
0.0
 30
0.0
  9
$PUCSORGBACK
 10
0.0
 20
0.0
 30
0.0
  9
$USERI1
 70
     0
  9
$USERI2
 70
     0
  9
$USERI3
 70
     0
  9
$USERI4
 70
     0
  9
$USERI5
 70
     0
  9
$USERR1
 40
0.0
  9
$USERR2
 40
0.0
  9
$USERR3
 40
0.0
  9
$USERR4
 40
0.0
  9
$USERR5
 40
0.0
  9
$WORLDVIEW
 70
     1
  9
$SHADEDGE
 70
     3
  9
$SHADEDIF
 70
    70
  9
$TILEMODE
 70
     1
  9
$MAXACTVP
 70
    64
  9
$PINSBASE
 10
0.0
 20
0.0
 30
0.0
  9
$PLIMCHECK
 70
     0
  9
$PEXTMIN
 10
1.000000000000000E+20
 20
1.000000000000000E+20
 30
1.000000000000000E+20
  9
$PEXTMAX
 10
-1.000000000000000E+20
 20
-1.000000000000000E+20
 30
-1.000000000000000E+20
  9
$PLIMMIN
 10
0.0071835950613108
 20
0.0009369707933118
  9
$PLIMMAX
 10
841.0071835950613
 20
594.0009369707933
  9
$UNITMODE
 70
     0
  9
$VISRETAIN
 70
     1
  9
$PLINEGEN
 70
     0
  9
$PSLTSCALE
 70
     1
  9
$TREEDEPTH
 70
  3020
  9
$CMLSTYLE
  2
Standard
  9
$CMLJUST
 70
     0
  9
$CMLSCALE
 40
20.0
  9
$PROXYGRAPHICS
 70
     1
  9
$MEASUREMENT
 70
     1
  9
$CELWEIGHT
370
    -1
  9
$ENDCAPS
280
     0
  9
$JOINSTYLE
280
     0
  9
$LWDISPLAY
290
     0
  9
$INSUNITS
 70
     1
  9
$HYPERLINKBASE
  1

  9
$STYLESHEET
  1

  9
$XEDIT
290
     1
  9
$CEPSNTYPE
380
     0
  9
$PSTYLEMODE
290
     1
  9
$FINGERPRINTGUID
  2
{AC2FA5CB-6F18-4BC2-9C5F-F25C10372E5B}
  9
$VERSIONGUID
  2
{C55E42CB-FC1F-4D21-A64E-C6F197DC7064}
  9
$EXTNAMES
290
     1
  9
$PSVPSCALE
 40
0.0
  9
$OLESTARTUP
290
     0
  9
$SORTENTS
280
   127
  9
$INDEXCTL
280
     0
  9
$HIDETEXT
280
     0
  9
$XCLIPFRAME
290
     0
  9
$HALOGAP
280
     0
  9
$OBSCOLOR
 70
   257
  9
$OBSLTYPE
280
     0
  9
$INTERSECTIONDISPLAY
280
     0
  9
$INTERSECTIONCOLOR
 70
   257
  9
$DIMASSOC
280
     1
  9
$PROJECTNAME
  1

  0
ENDSEC
  0
SECTION
  2
CLASSES
  0
CLASS
  1
ACDBDICTIONARYWDFLT
  2
AcDbDictionaryWithDefault
  3
ObjectDBX Classes
 90
        0
 91
        1
280
     0
281
     0
  0
CLASS
  1
PLOTSETTINGS
  2
AcDbPlotSettings
  3
ObjectDBX Classes
 90
        0
 91
        0
280
     0
281
     0
  0
CLASS
  1
DICTIONARYVAR
  2
AcDbDictionaryVar
  3
ObjectDBX Classes
 90
        0
 91
        2
280
     0
281
     0
  0
CLASS
  1
TABLESTYLE
  2
AcDbTableStyle
  3
ObjectDBX Classes
 90
     2047
 91
        1
280
     0
281
     0
  0
CLASS
  1
DIMASSOC
  2
AcDbDimAssoc
  3
"AcDbDimAssoc|Product Desc:     AcDim ARX App For Dimension|Company:          Autodesk, Inc.|WEB Address:      www.autodesk.com"
 90
        0
 91
        0
280
     0
281
     0
  0
CLASS
  1
SORTENTSTABLE
  2
AcDbSortentsTable
  3
ObjectDBX Classes
 90
        0
 91
        3
280
     0
281
     0
  0
ENDSEC
  0
SECTION
  2
TABLES
  0
TABLE
  2
VPORT
  5
19
330
0
100
AcDbSymbolTable
 70
     4
  0
VPORT
  5
274A
330
19
100
AcDbSymbolTableRecord
100
AcDbViewportTableRecord
  2
*Active
 70
     0
 10
0.0
 20
0.0
 11
1.0
 21
1.0
 12
1074.360083734045
 22
1288.400921416783
 13
0.0
 23
0.0
 14
10.0
 24
10.0
 15
10.0
 25
10.0
 16
0.0
 26
0.0
 36
1.0
 17
0.0
 27
0.0
 37
0.0
 40
25.72511383670781
 41
1.950509461426491
 42
50.0
 43
0.0
 44
0.0
 50
0.0
 51
0.0
 71
     0
 72
  1000
 73
     1
 74
     3
 75
     0
 76
     0
 77
     0
 78
     0
281
     0
 65
     1
110
0.0
120
0.0
130
0.0
111
1.0
121
0.0
131
0.0
112
0.0
122
1.0
132
0.0
 79
     0
146
0.0
  0
ENDTAB
  0
TABLE
  2
LTYPE
  5
14
330
0
100
AcDbSymbolTable
 70
     2
  0
LTYPE
  5
15
330
14
100
AcDbSymbolTableRecord
100
AcDbLinetypeTableRecord
  2
ByBlock
 70
     0
  3

 72
    65
 73
     0
 40
0.0
  0
LTYPE
  5
16
330
14
100
AcDbSymbolTableRecord
100
AcDbLinetypeTableRecord
  2
ByLayer
 70
     0
  3

 72
    65
 73
     0
 40
0.0
  0
LTYPE
  5
8
330
14
100
AcDbSymbolTableRecord
100
AcDbLinetypeTableRecord
  2
Continuous
 70
     0
  3
Solid line
 72
    65
 73
     0
 40
0.0
  0
LTYPE
  5
1811
330
14
100
AcDbSymbolTableRecord
100
AcDbLinetypeTableRecord
  2
ACAD_ISO04W100
 70
     0
  3
ISO long-dash dot ____ . ____ . ____ . ____ . _
 72
    65
 73
     4
 40
30.0
 49
24.0
 74
     0
 49
-3.0
 74
     0
 49
0.0
 74
     0
 49
-3.0
 74
     0
  0
ENDTAB
  0
TABLE
  2
LAYER
  5
10
102
{ACAD_XDICTIONARY
360
1CC0
102
}
330
0
100
AcDbSymbolTable
 70
     9
  0
LAYER
  5
4
330
10
100
AcDbSymbolTableRecord
100
AcDbLayerTableRecord
  2
0
 70
     0
 62
     7
  6
Continuous
370
    -3
390
5
  0
LAYER
  5
8E
330
10
100
AcDbSymbolTableRecord
100
AcDbLayerTableRecord
  2
07
 70
     0
 62
     7
  6
Continuous
370
    -3
390
5
  0
LAYER
  5
8F
330
10
100
AcDbSymbolTableRecord
100
AcDbLayerTableRecord
  2
035
 70
     0
 62
     5
  6
Continuous
370
    -3
390
5
  0
LAYER
  5
90
330
10
100
AcDbSymbolTableRecord
100
AcDbLayerTableRecord
  2
05
 70
     0
 62
     6
  6
Continuous
370
    -3
390
5
  0
LAYER
  5
91
330
10
100
AcDbSymbolTableRecord
100
AcDbLayerTableRecord
  2
025
 70
     0
 62
     1
  6
Continuous
370
    -3
390
5
  0
LAYER
  5
5CE
330
10
100
AcDbSymbolTableRecord
100
AcDbLayerTableRecord
  2
Defpoints
 70
     0
 62
     7
  6
Continuous
290
     0
370
    -3
390
5
  0
LAYER
  5
62B
330
10
100
AcDbSymbolTableRecord
100
AcDbLayerTableRecord
  2
\M+5B4D6\M+5CAB5\M+5CFDF
 70
     0
 62
     7
  6
Continuous
370
    30
390
5
  0
LAYER
  5
62C
330
10
100
AcDbSymbolTableRecord
100
AcDbLayerTableRecord
  2
\M+5B1EA\M+5D7A2\M+5CFDF
 70
     0
 62
     7
  6
Continuous
370
    13
390
5
  0
LAYER
  5
1812
330
10
100
AcDbSymbolTableRecord
100
AcDbLayerTableRecord
  2
\M+5D6D0\M+5D0C4\M+5CFDF
 70
     0
 62
     7
  6
ACAD_ISO04W100
370
    18
390
5
  0
ENDTAB
  0
TABLE
  2
STYLE
  5
11
330
0
100
AcDbSymbolTable
 70
     5
  0
STYLE
  5
12
330
11
100
AcDbSymbolTableRecord
100
AcDbTextStyleTableRecord
  2
Standard
 70
     0
 40
0.0
 41
1.0
 50
0.0
 71
     0
 42
2.5
  3
txt
  4

  0
STYLE
  5
31
330
11
100
AcDbSymbolTableRecord
100
AcDbTextStyleTableRecord
  2
ISO Proportional
 70
     0
 40
0.0
 41
1.0
 50
0.0
 71
     0
 42
2.5
  3
isocp.shx
  4

  0
STYLE
  5
B96
330
11
100
AcDbSymbolTableRecord
100
AcDbTextStyleTableRecord
  2
스타일1
 70
     0
 40
0.1968
 41
1.0
 50
0.0
 71
     0
 42
2.5
  3
txt.shx
  4

  0
STYLE
  5
B97
330
11
100
AcDbSymbolTableRecord
100
AcDbTextStyleTableRecord
  2
스타일2
 70
     0
 40
0.3937
 41
1.0
 50
0.0
 71
     0
 42
0.3937
  3
txt.shx
  4

  0
ENDTAB
  0
TABLE
  2
VIEW
  5
17
330
0
100
AcDbSymbolTable
 70
     0
  0
ENDTAB
  0
TABLE
  2
UCS
  5
18
330
0
100
AcDbSymbolTable
 70
     0
  0
ENDTAB
  0
TABLE
  2
APPID
  5
1B
330
0
100
AcDbSymbolTable
 70
    12
  0
APPID
  5
1C
330
1B
100
AcDbSymbolTableRecord
100
AcDbRegAppTableRecord
  2
ACAD
 70
     0
  0
APPID
  5
346
330
1B
100
AcDbSymbolTableRecord
100
AcDbRegAppTableRecord
  2
GENIUS_GENTRA_14
 70
     0
  0
APPID
  5
347
330
1B
100
AcDbSymbolTableRecord
100
AcDbRegAppTableRecord
  2
GENIUS_GENODEF_13
 70
     0
  0
APPID
  5
348
330
1B
100
AcDbSymbolTableRecord
100
AcDbRegAppTableRecord
  2
GENIUS_GENOBJ-N-TIT_13
 70
     0
  0
APPID
  5
349
330
1B
100
AcDbSymbolTableRecord
100
AcDbRegAppTableRecord
  2
GENIUS_GENTITLE_13
 70
     0
  0
APPID
  5
34A
330
1B
100
AcDbSymbolTableRecord
100
AcDbRegAppTableRecord
  2
GENIUS_GENOENT_13
 70
     0
  0
APPID
  5
34B
330
1B
100
AcDbSymbolTableRecord
100
AcDbRegAppTableRecord
  2
GENIUS_GENOREF_13
 70
     0
  0
APPID
  5
34C
330
1B
100
AcDbSymbolTableRecord
100
AcDbRegAppTableRecord
  2
GENIUS_GENOLIS_13
 70
     0
  0
APPID
  5
34D
330
1B
100
AcDbSymbolTableRecord
100
AcDbRegAppTableRecord
  2
GENIUS_GENOBJ-N-SDF_13
 70
     0
  0
APPID
  5
34E
330
1B
100
AcDbSymbolTableRecord
100
AcDbRegAppTableRecord
  2
GENIUS_GENSCREG_13
 70
     0
  0
APPID
  5
886
330
1B
100
AcDbSymbolTableRecord
100
AcDbRegAppTableRecord
  2
ACAD_DSTYLE_DIMTEXT_FILL
 70
     0
  0
APPID
  5
B8B
330
1B
100
AcDbSymbolTableRecord
100
AcDbRegAppTableRecord
  2
ACAD_PSEXT
 70
     0
  0
ENDTAB
  0
TABLE
  2
DIMSTYLE
  5
1D
330
0
100
AcDbSymbolTable
 70
     6
100
AcDbDimStyleTable
 71
     1
340
1E
  0
DIMSTYLE
105
1E
102
{ACAD_REACTORS
330
2695
330
2696
330
2697
330
2698
330
2699
330
269A
330
269B
330
269C
102
}
330
1D
100
AcDbSymbolTableRecord
100
AcDbDimStyleTableRecord
  2
DIN
 70
     0
 41
2.5
 42
0.625
 43
3.75
 44
1.25
 74
     0
 77
     1
 78
     8
140
2.5
141
2.5
143
0.0394
145
1.0
147
0.625
172
     1
273
     8
277
     6
340
12
  0
DIMSTYLE
105
62D
330
1D
100
AcDbSymbolTableRecord
100
AcDbDimStyleTableRecord
  2
ISO-25
 70
     0
 41
10.0
 42
0.625
 43
3.75
 44
10.0
 73
     0
 74
     0
 77
     1
 78
     8
140
20.0
141
2.5
143
0.03937007874016
147
10.0
171
     3
172
     1
271
     2
272
     2
274
     3
278
    44
279
     1
283
     0
284
     8
340
12
  0
DIMSTYLE
105
62E
330
1D
100
AcDbSymbolTableRecord
100
AcDbDimStyleTableRecord
  2
\M+5B8B1\M+5B1BEISO-25
 70
     0
 41
15.0
 42
0.625
 43
3.75
 44
2.0
 73
     0
 74
     0
 77
     1
 78
     8
140
22.0
141
2.5
143
0.03937007874016
147
10.0
171
     3
179
     1
271
     1
272
     1
274
     3
278
    44
279
     1
283
     0
284
     8
340
12
  0
DIMSTYLE
105
62F
330
1D
100
AcDbSymbolTableRecord
100
AcDbDimStyleTableRecord
  2
\M+5B8B1\M+5B1BE (2)ISO-25
 70
     0
 41
10.0
 42
0.625
 43
3.75
 44
10.0
 73
     0
 74
     0
 77
     1
 78
     8
140
10.0
141
2.5
143
0.03937007874016
147
10.0
171
     3
172
     1
271
     2
272
     2
274
     3
278
    44
283
     0
284
     8
340
12
  0
DIMSTYLE
105
1FA0
330
1D
100
AcDbSymbolTableRecord
100
AcDbDimStyleTableRecord
  2
Standard
 70
     0
 41
25.0
 42
5.0
 43
2.0
 44
5.0
 73
     0
 74
     0
 77
     1
 78
    12
 79
     3
140
30.0
141
4.0
147
4.0
179
     2
340
12
  0
ENDTAB
  0
TABLE
  2
BLOCK_RECORD
  5
1
330
0
100
AcDbSymbolTable
 70
    19
  0
BLOCK_RECORD
  5
2
102
{ACAD_XDICTIONARY
360
95E
102
}
330
1
100
AcDbSymbolTableRecord
100
AcDbBlockTableRecord
  2
*Model_Space
340
A
  0
BLOCK_RECORD
  5
C
330
1
100
AcDbSymbolTableRecord
100
AcDbBlockTableRecord
  2
*Paper_Space
340
F
  0
BLOCK_RECORD
  5
269D
330
1
100
AcDbSymbolTableRecord
100
AcDbBlockTableRecord
  2
*D8
340
0
  0
BLOCK_RECORD
  5
26A5
330
1
100
AcDbSymbolTableRecord
100
AcDbBlockTableRecord
  2
*D9
340
0
  0
BLOCK_RECORD
  5
26AD
330
1
100
AcDbSymbolTableRecord
100
AcDbBlockTableRecord
  2
*D10
340
0
  0
BLOCK_RECORD
  5
26B5
330
1
100
AcDbSymbolTableRecord
100
AcDbBlockTableRecord
  2
*D11
340
0
  0
BLOCK_RECORD
  5
26BD
330
1
100
AcDbSymbolTableRecord
100
AcDbBlockTableRecord
  2
*D12
340
0
  0
BLOCK_RECORD
  5
26C9
330
1
100
AcDbSymbolTableRecord
100
AcDbBlockTableRecord
  2
*D13
340
0
  0
BLOCK_RECORD
  5
26D5
330
1
100
AcDbSymbolTableRecord
100
AcDbBlockTableRecord
  2
*D14
340
0
  0
BLOCK_RECORD
  5
26E1
330
1
100
AcDbSymbolTableRecord
100
AcDbBlockTableRecord
  2
*D15
340
0
  0
ENDTAB
  0
ENDSEC
  0
SECTION
  2
BLOCKS
  0
BLOCK
  5
3
330
2
100
AcDbEntity
  8
0
100
AcDbBlockBegin
  2
*Model_Space
 70
     2
 10
0.0
 20
0.0
 30
0.0
  3
*Model_Space
  1

  0
ENDBLK
  5
9
330
2
100
AcDbEntity
  8
0
100
AcDbBlockEnd
  0
BLOCK
  5
D
330
C
100
AcDbEntity
 67
     1
  8
0
100
AcDbBlockBegin
  2
*Paper_Space
 70
     0
 10
0.0
 20
0.0
 30
0.0
  3
*Paper_Space
  1

  0
ENDBLK
  5
E
330
C
100
AcDbEntity
 67
     1
  8
0
100
AcDbBlockEnd
  0
BLOCK
  5
26A3
330
269D
100
AcDbEntity
  8
0
100
AcDbBlockBegin
  2
*D8
 70
     1
 10
0.0
 20
0.0
 30
0.0
  3
*D8
  1

  0
LINE
  5
26ED
330
269D
100
AcDbEntity
  8
0
 62
     0
370
    -2
100
AcDbLine
 10
1087.66988688686
 20
1295.688227750696
 30
0.0
 11
1089.580116722757
 21
1297.542501412821
 31
0.0
  0
MTEXT
  5
26EE
330
269D
100
AcDbEntity
  8
0
 62
     0
100
AcDbMText
 10
1088.381312210832
 20
1296.722836923724
 30
0.0
 40
0.3937
 41
0.0
 71
     5
 72
     1
  1
\A1;R3.2283
  7
스타일2
 11
0.7175380647198728
 21
0.6965192931125884
 31
0.0
 73
     1
 44
1.0
  0
SOLID
  5
26EF
330
269D
100
AcDbEntity
  8
0
 62
     0
100
AcDbTrace
 10
1089.556899412986
 20
1297.566419348311
 30
0.0
 11
1089.603334032527
 21
1297.51858347733
 31
0.0
 12
1089.723624335701
 22
1297.681805271443
 32
0.0
 13
1089.723624335701
 23
1297.681805271443
 33
0.0
  0
POINT
  5
26F0
330
269D
100
AcDbEntity
  8
Defpoints
 62
     0
100
AcDbPoint
 10
1089.723624335701
 20
1297.681805271443
 30
0.0
  0
POINT
  5
26F1
330
269D
100
AcDbEntity
  8
Defpoints
 62
     0
100
AcDbPoint
 10
1087.407167499844
 20
1295.433204176717
 30
0.0
  0
ENDBLK
  5
26A4
330
269D
100
AcDbEntity
  8
0
100
AcDbBlockEnd
  0
BLOCK
  5
26AB
330
26A5
100
AcDbEntity
  8
0
100
AcDbBlockBegin
  2
*D9
 70
     1
 10
0.0
 20
0.0
 30
0.0
  3
*D9
  1

  0
LINE
  5
26F2
330
26A5
100
AcDbEntity
  8
0
 62
     0
370
    -2
100
AcDbLine
 10
1086.895420271678
 20
1295.746045007452
 30
0.0
 11
1087.193743061577
 21
1298.523503072086
 31
0.0
  0
MTEXT
  5
26F3
330
26A5
100
AcDbEntity
  8
0
 62
     0
100
AcDbMText
 10
1086.788463937341
 20
1297.061708102114
 30
0.0
 40
0.3937
 41
0.0
 71
     5
 72
     1
  1
\A1;R10.0787
  7
스타일2
 11
0.1067943116234204
 21
0.9942811347928108
 31
0.0
 73
     1
 44
1.0
  0
SOLID
  5
26F4
330
26A5
100
AcDbEntity
  8
0
 62
     0
100
AcDbTrace
 10
1087.160600357084
 20
1298.527062882474
 30
0.0
 11
1087.22688576607
 21
1298.519943261699
 31
0.0
 12
1087.215101923902
 22
1298.722359299045
 32
0.0
 13
1087.215101923902
 23
1298.722359299045
 33
0.0
  0
POINT
  5
26F5
330
26A5
100
AcDbEntity
  8
Defpoints
 62
     0
100
AcDbPoint
 10
1087.215101923902
 20
1298.722359299045
 30
0.0
  0
POINT
  5
26F6
330
26A5
100
AcDbEntity
  8
Defpoints
 62
     0
100
AcDbPoint
 10
1086.138751959456
 20
1288.701278140184
 30
0.0
  0
ENDBLK
  5
26AC
330
26A5
100
AcDbEntity
  8
0
100
AcDbBlockEnd
  0
BLOCK
  5
26B3
330
26AD
100
AcDbEntity
  8
0
100
AcDbBlockBegin
  2
*D10
 70
     1
 10
0.0
 20
0.0
 30
0.0
  3
*D10
  1

  0
LINE
  5
26F7
330
26AD
100
AcDbEntity
  8
0
 62
     0
370
    -2
100
AcDbLine
 10
1087.741403225313
 20
1294.593225783019
 30
0.0
 11
1090.530812994303
 21
1294.743102160227
 31
0.0
  0
MTEXT
  5
26F8
330
26AD
100
AcDbEntity
  8
0
 62
     0
100
AcDbMText
 10
1089.0230078769
 20
1294.909293106769
 30
0.0
 40
0.3937
 41
0.0
 71
     5
 72
     1
  1
\A1;R10.0787
  7
스타일2
 11
0.9985596347347861
 21
0.0536531068842286
 31
0.0
 73
     1
 44
1.0
  0
SOLID
  5
26F9
330
26AD
100
AcDbEntity
  8
0
 62
     0
100
AcDbTrace
 10
1090.529024557406
 20
1294.776387481384
 30
0.0
 11
1090.532601431199
 21
1294.709816839069
 31
0.0
 12
1090.73052492125
 22
1294.753832781603
 32
0.0
 13
1090.73052492125
 23
1294.753832781603
 33
0.0
  0
POINT
  5
26FA
330
26AD
100
AcDbEntity
  8
Defpoints
 62
     0
100
AcDbPoint
 10
1090.73052492125
 20
1294.753832781603
 30
0.0
  0
POINT
  5
26FB
330
26AD
100
AcDbEntity
  8
Defpoints
 62
     0
100
AcDbPoint
 10
1080.666321959455
 20
1294.213078140187
 30
0.0
  0
ENDBLK
  5
26B4
330
26AD
100
AcDbEntity
  8
0
100
AcDbBlockEnd
  0
BLOCK
  5
26BB
330
26B5
100
AcDbEntity
  8
0
100
AcDbBlockBegin
  2
*D11
 70
     1
 10
0.0
 20
0.0
 30
0.0
  3
*D11
  1

  0
LINE
  5
26FC
330
26B5
100
AcDbEntity
  8
0
 62
     0
370
    -2
100
AcDbLine
 10
1074.926921633838
 20
1299.405662203068
 30
0.0
 11
1075.991431639134
 21
1296.965554154513
 31
0.0
  0
MTEXT
  5
26FD
330
26B5
100
AcDbEntity
  8
0
 62
     0
100
AcDbMText
 10
1075.645447266513
 20
1298.375971449643
 30
0.0
 40
0.3937
 41
0.0
 71
     5
 72
     1
  1
\A1;R2.9528
  7
스타일2
 11
0.3998610191930428
 21
-0.91657578264424
 31
0.0
 73
     1
 44
1.0
  0
SOLID
  5
26FE
330
26B5
100
AcDbEntity
  8
0
 62
     0
100
AcDbTrace
 10
1076.021984165222
 20
1296.978882855152
 30
0.0
 11
1075.960879113046
 21
1296.952225453873
 31
0.0
 12
1076.071403842972
 22
1296.782238997984
 32
0.0
 13
1076.071403842972
 23
1296.782238997984
 33
0.0
  0
POINT
  5
26FF
330
26B5
100
AcDbEntity
  8
Defpoints
 62
     0
100
AcDbPoint
 10
1076.071403842972
 20
1296.782238997984
 30
0.0
  0
POINT
  5
2700
330
26B5
100
AcDbEntity
  8
Defpoints
 62
     0
100
AcDbPoint
 10
1074.89071421855
 20
1299.488658140187
 30
0.0
  0
ENDBLK
  5
26BC
330
26B5
100
AcDbEntity
  8
0
100
AcDbBlockEnd
  0
BLOCK
  5
26C7
330
26BD
100
AcDbEntity
  8
0
100
AcDbBlockBegin
  2
*D12
 70
     1
 10
0.0
 20
0.0
 30
0.0
  3
*D12
  1

  0
LINE
  5
2701
330
26BD
100
AcDbEntity
  8
0
 62
     0
370
    -2
100
AcDbLine
 10
1090.508821959455
 20
1284.782388140186
 30
0.0
 11
1090.508821959455
 21
1279.333893042872
 31
0.0
  0
LINE
  5
2702
330
26BD
100
AcDbEntity
  8
0
 62
     0
370
    -2
100
AcDbLine
 10
1061.217541959455
 20
1284.782388140186
 30
0.0
 11
1061.217541959455
 21
1279.333893042872
 31
0.0
  0
LINE
  5
2703
330
26BD
100
AcDbEntity
  8
0
 62
     0
370
    -2
100
AcDbLine
 10
1090.308821959455
 20
1279.533893042872
 30
0.0
 11
1061.417541959455
 21
1279.533893042872
 31
0.0
  0
SOLID
  5
2704
330
26BD
100
AcDbEntity
  8
0
 62
     0
100
AcDbTrace
 10
1090.308821959455
 20
1279.567226376206
 30
0.0
 11
1090.308821959455
 21
1279.500559709539
 31
0.0
 12
1090.508821959455
 22
1279.533893042872
 32
0.0
 13
1090.508821959455
 23
1279.533893042872
 33
0.0
  0
SOLID
  5
2705
330
26BD
100
AcDbEntity
  8
0
 62
     0
100
AcDbTrace
 10
1061.417541959455
 20
1279.567226376206
 30
0.0
 11
1061.417541959455
 21
1279.500559709539
 31
0.0
 12
1061.217541959455
 22
1279.533893042872
 32
0.0
 13
1061.217541959455
 23
1279.533893042872
 33
0.0
  0
MTEXT
  5
2706
330
26BD
100
AcDbEntity
  8
0
 62
     0
100
AcDbMText
 10
1075.863181959455
 20
1279.780743042872
 30
0.0
 40
0.3937
 41
0.0
 71
     5
 72
     1
  1
\A1;29.2913
  7
스타일2
 73
     1
 44
1.0
  0
POINT
  5
2707
330
26BD
100
AcDbEntity
  8
Defpoints
 62
     0
100
AcDbPoint
 10
1090.508821959455
 20
1284.882388140186
 30
0.0
  0
POINT
  5
2708
330
26BD
100
AcDbEntity
  8
Defpoints
 62
     0
100
AcDbPoint
 10
1061.217541959455
 20
1284.882388140186
 30
0.0
  0
POINT
  5
2709
330
26BD
100
AcDbEntity
  8
Defpoints
 62
     0
100
AcDbPoint
 10
1061.217541959455
 20
1279.533893042872
 30
0.0
  0
ENDBLK
  5
26C8
330
26BD
100
AcDbEntity
  8
0
100
AcDbBlockEnd
  0
BLOCK
  5
26D3
330
26C9
100
AcDbEntity
  8
0
100
AcDbBlockBegin
  2
*D13
 70
     1
 10
0.0
 20
0.0
 30
0.0
  3
*D13
  1

  0
LINE
  5
270A
330
26C9
100
AcDbEntity
  8
0
 62
     0
370
    -2
100
AcDbLine
 10
1090.745041959455
 20
1284.782388140186
 30
0.0
 11
1090.745041959455
 21
1278.540667640076
 31
0.0
  0
LINE
  5
270B
330
26C9
100
AcDbEntity
  8
0
 62
     0
370
    -2
100
AcDbLine
 10
1060.981321959455
 20
1284.782388140186
 30
0.0
 11
1060.981321959455
 21
1278.540667640076
 31
0.0
  0
LINE
  5
270C
330
26C9
100
AcDbEntity
  8
0
 62
     0
370
    -2
100
AcDbLine
 10
1090.545041959456
 20
1278.740667640076
 30
0.0
 11
1061.181321959455
 21
1278.740667640076
 31
0.0
  0
SOLID
  5
270D
330
26C9
100
AcDbEntity
  8
0
 62
     0
100
AcDbTrace
 10
1090.545041959456
 20
1278.774000973409
 30
0.0
 11
1090.545041959456
 21
1278.707334306743
 31
0.0
 12
1090.745041959455
 22
1278.740667640076
 32
0.0
 13
1090.745041959455
 23
1278.740667640076
 33
0.0
  0
SOLID
  5
270E
330
26C9
100
AcDbEntity
  8
0
 62
     0
100
AcDbTrace
 10
1061.181321959455
 20
1278.774000973409
 30
0.0
 11
1061.181321959455
 21
1278.707334306743
 31
0.0
 12
1060.981321959455
 22
1278.740667640076
 32
0.0
 13
1060.981321959455
 23
1278.740667640076
 33
0.0
  0
MTEXT
  5
270F
330
26C9
100
AcDbEntity
  8
0
 62
     0
100
AcDbMText
 10
1075.863181959455
 20
1278.987517640076
 30
0.0
 40
0.3937
 41
0.0
 71
     5
 72
     1
  1
\A1;29.7637
  7
스타일2
 73
     1
 44
1.0
  0
POINT
  5
2710
330
26C9
100
AcDbEntity
  8
Defpoints
 62
     0
100
AcDbPoint
 10
1090.745041959455
 20
1284.882388140186
 30
0.0
  0
POINT
  5
2711
330
26C9
100
AcDbEntity
  8
Defpoints
 62
     0
100
AcDbPoint
 10
1060.981321959455
 20
1284.882388140186
 30
0.0
  0
POINT
  5
2712
330
26C9
100
AcDbEntity
  8
Defpoints
 62
     0
100
AcDbPoint
 10
1060.981321959455
 20
1278.740667640076
 30
0.0
  0
ENDBLK
  5
26D4
330
26C9
100
AcDbEntity
  8
0
100
AcDbBlockEnd
  0
BLOCK
  5
26DF
330
26D5
100
AcDbEntity
  8
0
100
AcDbBlockBegin
  2
*D14
 70
     1
 10
0.0
 20
0.0
 30
0.0
  3
*D14
  1

  0
LINE
  5
2713
330
26D5
100
AcDbEntity
  8
0
 62
     0
370
    -2
100
AcDbLine
 10
1086.238751959455
 20
1280.551688140186
 30
0.0
 11
1091.627875830444
 21
1280.551688140186
 31
0.0
  0
LINE
  5
2714
330
26D5
100
AcDbEntity
  8
0
 62
     0
370
    -2
100
AcDbLine
 10
1086.238751959455
 20
1298.543778140186
 30
0.0
 11
1091.627875830444
 21
1298.543778140186
 31
0.0
  0
LINE
  5
2715
330
26D5
100
AcDbEntity
  8
0
 62
     0
370
    -2
100
AcDbLine
 10
1091.427875830444
 20
1280.751688140186
 30
0.0
 11
1091.427875830444
 21
1298.343778140186
 31
0.0
  0
SOLID
  5
2716
330
26D5
100
AcDbEntity
  8
0
 62
     0
100
AcDbTrace
 10
1091.394542497111
 20
1280.751688140186
 30
0.0
 11
1091.461209163778
 21
1280.751688140186
 31
0.0
 12
1091.427875830444
 22
1280.551688140186
 32
0.0
 13
1091.427875830444
 23
1280.551688140186
 33
0.0
  0
SOLID
  5
2717
330
26D5
100
AcDbEntity
  8
0
 62
     0
100
AcDbTrace
 10
1091.394542497111
 20
1298.343778140186
 30
0.0
 11
1091.461209163778
 21
1298.343778140186
 31
0.0
 12
1091.427875830444
 22
1298.543778140186
 32
0.0
 13
1091.427875830444
 23
1298.543778140186
 33
0.0
  0
MTEXT
  5
2718
330
26D5
100
AcDbEntity
  8
0
 62
     0
100
AcDbMText
 10
1091.181025830444
 20
1289.547733140186
 30
0.0
 40
0.3937
 41
0.0
 71
     5
 72
     1
  1
\A1;17.9921
  7
스타일2
 11
0.0000000000000001
 21
1.0
 31
0.0
 73
     1
 44
1.0
  0
POINT
  5
2719
330
26D5
100
AcDbEntity
  8
Defpoints
 62
     0
100
AcDbPoint
 10
1086.138751959455
 20
1280.551688140186
 30
0.0
  0
POINT
  5
271A
330
26D5
100
AcDbEntity
  8
Defpoints
 62
     0
100
AcDbPoint
 10
1086.138751959455
 20
1298.543778140186
 30
0.0
  0
POINT
  5
271B
330
26D5
100
AcDbEntity
  8
Defpoints
 62
     0
100
AcDbPoint
 10
1091.427875830444
 20
1298.543778140186
 30
0.0
  0
ENDBLK
  5
26E0
330
26D5
100
AcDbEntity
  8
0
100
AcDbBlockEnd
  0
BLOCK
  5
26EB
330
26E1
100
AcDbEntity
  8
0
100
AcDbBlockBegin
  2
*D15
 70
     1
 10
0.0
 20
0.0
 30
0.0
  3
*D15
  1

  0
LINE
  5
271C
330
26E1
100
AcDbEntity
  8
0
 62
     0
370
    -2
100
AcDbLine
 10
1086.238751959455
 20
1280.315468140186
 30
0.0
 11
1092.421705169364
 21
1280.315468140186
 31
0.0
  0
LINE
  5
271D
330
26E1
100
AcDbEntity
  8
0
 62
     0
370
    -2
100
AcDbLine
 10
1086.238751959455
 20
1298.779998140186
 30
0.0
 11
1092.421705169364
 21
1298.779998140186
 31
0.0
  0
LINE
  5
271E
330
26E1
100
AcDbEntity
  8
0
 62
     0
370
    -2
100
AcDbLine
 10
1092.221705169364
 20
1280.515468140186
 30
0.0
 11
1092.221705169364
 21
1298.579998140186
 31
0.0
  0
SOLID
  5
271F
330
26E1
100
AcDbEntity
  8
0
 62
     0
100
AcDbTrace
 10
1092.188371836031
 20
1280.515468140186
 30
0.0
 11
1092.255038502697
 21
1280.515468140186
 31
0.0
 12
1092.221705169364
 22
1280.315468140186
 32
0.0
 13
1092.221705169364
 23
1280.315468140186
 33
0.0
  0
SOLID
  5
2720
330
26E1
100
AcDbEntity
  8
0
 62
     0
100
AcDbTrace
 10
1092.188371836031
 20
1298.579998140186
 30
0.0
 11
1092.255038502697
 21
1298.579998140186
 31
0.0
 12
1092.221705169364
 22
1298.779998140186
 32
0.0
 13
1092.221705169364
 23
1298.779998140186
 33
0.0
  0
MTEXT
  5
2721
330
26E1
100
AcDbEntity
  8
0
 62
     0
100
AcDbMText
 10
1091.974855169364
 20
1289.547733140186
 30
0.0
 40
0.3937
 41
0.0
 71
     5
 72
     1
  1
\A1;18.4645
  7
스타일2
 11
0.0000000000000001
 21
1.0
 31
0.0
 73
     1
 44
1.0
  0
POINT
  5
2722
330
26E1
100
AcDbEntity
  8
Defpoints
 62
     0
100
AcDbPoint
 10
1086.138751959455
 20
1280.315468140186
 30
0.0
  0
POINT
  5
2723
330
26E1
100
AcDbEntity
  8
Defpoints
 62
     0
100
AcDbPoint
 10
1086.138751959455
 20
1298.779998140186
 30
0.0
  0
POINT
  5
2724
330
26E1
100
AcDbEntity
  8
Defpoints
 62
     0
100
AcDbPoint
 10
1092.221705169364
 20
1298.779998140186
 30
0.0
  0
ENDBLK
  5
26EC
330
26E1
100
AcDbEntity
  8
0
100
AcDbBlockEnd
  0
ENDSEC
  0
SECTION
  2
ENTITIES
  0
POINT
  5
37C
330
2
100
AcDbEntity
  8
0
 60
     1
100
AcDbPoint
 10
170.4737662487822
 20
-90.83440570086338
 30
0.0
1001
GENIUS_GENOBJ-N-TIT_13
1002
{
1000
OWNER
1000
GEN
1002
}
1001
GENIUS_GENOENT_13
1002
{
1000
MYREF
1005
37C
1002
}
1002
{
1000
GRP
1005
0
1002
}
1001
GENIUS_GENOLIS_13
1002
{
1000
ENT
1005
0
1005
0
1002
}
1001
GENIUS_GENTITLE_13
1002
{
1000
SCALE
1000
1:1
1002
}
1002
{
1000
BORDER
1000
GEN_A1
1002
}
1002
{
1000
TITLE
1000
GENTITLE
1002
}
1002
{
1000
UNCHG
1002
{
1000
GEN-TITLE-SCA
1000
GEN-TITLE-SIZ
1002
}
1002
}
1002
{
1000
HRA
1005
0
1002
}
1002
{
1000
HTIT
1005
0
1002
}
1002
{
1000
GENIUSID
1005
37C
1002
}
1001
GENIUS_GENODEF_13
1002
{
1000
HIER
1070
     1
1002
}
1002
{
1000
MANEDIT
1070
     0
1002
}
1002
{
1000
NOSEL
1070
     0
1002
}
1002
{
1000
BEHIND
1070
     0
1002
}
1002
{
1000
REACTOR
1002
}
  0
TEXT
  5
384
330
2
100
AcDbEntity
  8
0
 60
     1
100
AcDbText
 10
830.9999999999998
 20
-52.92726755347098
 30
0.0
 40
3.5
  1
!GENTITLE-INSERT
100
AcDbText
  0
TEXT
  5
385
330
2
100
AcDbEntity
  8
0
 60
     1
100
AcDbText
 10
10.0
 20
-47.92726755347098
 30
0.0
 40
3.5
  1
!GENTITLE-LL
100
AcDbText
  0
TEXT
  5
386
330
2
100
AcDbEntity
  8
0
 60
     1
100
AcDbText
 10
831.0
 20
526.072732446529
 30
0.0
 40
3.5
  1
!GENTITLE-RU
100
AcDbText
  0
TEXT
  5
387
330
2
100
AcDbEntity
  8
0
 60
     1
100
AcDbText
 10
841.0
 20
536.0727324465289
 30
0.0
 40
3.5
  1
!GENTITLE-MAX
100
AcDbText
  0
TEXT
  5
3FA
330
2
100
AcDbEntity
  8
0
 60
     1
100
AcDbText
 10
684.8812705983663
 20
141.8068575944205
 30
0.0
 40
3.5
  1
!GENTITLE-INSERT
100
AcDbText
  0
TEXT
  5
3FB
330
2
100
AcDbEntity
  8
0
 60
     1
100
AcDbText
 10
-136.1187294016335
 20
146.8068575944205
 30
0.0
 40
3.5
  1
!GENTITLE-LL
100
AcDbText
  0
TEXT
  5
3FC
330
2
100
AcDbEntity
  8
0
 60
     1
100
AcDbText
 10
684.8812705983664
 20
720.8068575944205
 30
0.0
 40
3.5
  1
!GENTITLE-RU
100
AcDbText
  0
TEXT
  5
3FD
330
2
100
AcDbEntity
  8
0
 60
     1
100
AcDbText
 10
694.8812705983664
 20
730.8068575944205
 30
0.0
 40
3.5
  1
!GENTITLE-MAX
100
AcDbText
  0
LINE
  5
2669
330
2
100
AcDbEntity
  8
0
100
AcDbLine
 10
1070.902561959455
 20
1280.315468140186
 30
0.0
 11
1065.587611959455
 21
1280.315468140186
 31
0.0
  0
LINE
  5
266A
330
2
100
AcDbEntity
  8
0
 62
     1
100
AcDbLine
 10
1070.902561959455
 20
1280.551688140186
 30
0.0
 11
1065.587611959455
 21
1280.551688140186
 31
0.0
  0
ARC
  5
266B
330
2
100
AcDbEntity
  8
0
100
AcDbCircle
 10
1064.319196419066
 20
1293.189114176715
 30
0.0
 40
3.22834
100
AcDbArc
 50
100.6704539039088
 51
169.7402667710828
  0
ARC
  5
266C
330
2
100
AcDbEntity
  8
0
 62
     1
100
AcDbCircle
 10
1064.319196419066
 20
1293.189114176715
 30
0.0
 40
2.99212
100
AcDbArc
 50
100.6704539039088
 51
169.7402667710828
  0
ARC
  5
266D
330
2
100
AcDbEntity
  8
0
100
AcDbCircle
 10
1065.587611959455
 20
1286.457188140186
 30
0.0
 40
10.07872
100
AcDbArc
 50
90.0
 51
100.6704539039088
  0
ARC
  5
266E
330
2
100
AcDbEntity
  8
0
 62
     1
100
AcDbCircle
 10
1065.587611959455
 20
1286.457188140186
 30
0.0
 40
9.842500000000001
100
AcDbArc
 50
90.0
 51
100.6704539039088
  0
LINE
  5
266F
330
2
100
AcDbEntity
  8
0
100
AcDbLine
 10
1060.981321959455
 20
1291.968988140186
 30
0.0
 11
1060.981321959455
 21
1284.882388140186
 31
0.0
  0
LINE
  5
2670
330
2
100
AcDbEntity
  8
0
 62
     1
100
AcDbLine
 10
1061.217541959455
 20
1291.968988140186
 30
0.0
 11
1061.217541959455
 21
1284.882388140186
 31
0.0
  0
ARC
  5
2671
330
2
100
AcDbEntity
  8
0
100
AcDbCircle
 10
1071.060041959455
 20
1291.968988140186
 30
0.0
 40
10.07872
100
AcDbArc
 50
169.7402667710828
 51
180.0
  0
ARC
  5
2672
330
2
100
AcDbEntity
  8
0
 62
     1
100
AcDbCircle
 10
1071.060041959455
 20
1291.968988140186
 30
0.0
 40
9.842500000000001
100
AcDbArc
 50
169.7402667710828
 51
180.0
  0
ARC
  5
2673
330
2
100
AcDbEntity
  8
0
100
AcDbCircle
 10
1071.060041959455
 20
1284.882388140186
 30
0.0
 40
10.07872
100
AcDbArc
 50
180.0
 51
190.2597332289172
  0
ARC
  5
2674
330
2
100
AcDbEntity
  8
0
 62
     1
100
AcDbCircle
 10
1071.060041959455
 20
1284.882388140186
 30
0.0
 40
9.842500000000001
100
AcDbArc
 50
180.0
 51
190.2597332289172
  0
ARC
  5
2675
330
2
100
AcDbEntity
  8
0
100
AcDbCircle
 10
1065.587611959455
 20
1290.394188140186
 30
0.0
 40
10.07872
100
AcDbArc
 50
259.3295460960911
 51
270.0
  0
ARC
  5
2676
330
2
100
AcDbEntity
  8
0
 62
     1
100
AcDbCircle
 10
1065.587611959455
 20
1290.394188140186
 30
0.0
 40
9.842500000000001
100
AcDbArc
 50
259.3295460960911
 51
270.0
  0
ARC
  5
2677
330
2
100
AcDbEntity
  8
0
100
AcDbCircle
 10
1064.319196419066
 20
1283.662262103657
 30
0.0
 40
3.22834
100
AcDbArc
 50
190.2597332289172
 51
259.3295460960911
  0
ARC
  5
2678
330
2
100
AcDbEntity
  8
0
 62
     1
100
AcDbCircle
 10
1064.319196419066
 20
1283.662262103657
 30
0.0
 40
2.99212
100
AcDbArc
 50
190.2597332289172
 51
259.3295460960911
  0
LINE
  5
2679
330
2
100
AcDbEntity
  8
0
100
AcDbLine
 10
1086.138751959455
 20
1280.315468140186
 30
0.0
 11
1080.823801959455
 21
1280.315468140186
 31
0.0
  0
LINE
  5
267A
330
2
100
AcDbEntity
  8
0
 62
     1
100
AcDbLine
 10
1086.138751959455
 20
1280.551688140186
 30
0.0
 11
1080.823801959455
 21
1280.551688140186
 31
0.0
  0
LINE
  5
267B
330
2
100
AcDbEntity
  8
0
100
AcDbLine
 10
1090.745041959455
 20
1294.213078140186
 30
0.0
 11
1090.745041959455
 21
1284.882388140186
 31
0.0
  0
LINE
  5
267C
330
2
100
AcDbEntity
  8
0
 62
     1
100
AcDbLine
 10
1090.508821959455
 20
1294.213078140186
 30
0.0
 11
1090.508821959455
 21
1284.882388140186
 31
0.0
  0
ARC
  5
267D
330
2
100
AcDbEntity
  8
0
100
AcDbCircle
 10
1080.666321959455
 20
1284.882388140186
 30
0.0
 40
10.07872
100
AcDbArc
 50
349.7402667710829
 51
0.000000000000007
  0
ARC
  5
267E
330
2
100
AcDbEntity
  8
0
 62
     1
100
AcDbCircle
 10
1080.666321959455
 20
1284.882388140186
 30
0.0
 40
9.842500000000001
100
AcDbArc
 50
349.7402667710829
 51
0.000000000000007
  0
ARC
  5
267F
330
2
100
AcDbEntity
  8
0
100
AcDbCircle
 10
1086.138751959455
 20
1290.394188140186
 30
0.0
 40
10.07872
100
AcDbArc
 50
270.0
 51
280.6704539039088
  0
ARC
  5
2680
330
2
100
AcDbEntity
  8
0
 62
     1
100
AcDbCircle
 10
1086.138751959455
 20
1290.394188140186
 30
0.0
 40
9.842500000000001
100
AcDbArc
 50
270.0
 51
280.6704539039088
  0
ARC
  5
2681
330
2
100
AcDbEntity
  8
0
100
AcDbCircle
 10
1087.407167499844
 20
1283.662262103657
 30
0.0
 40
3.22834
100
AcDbArc
 50
280.6704539039088
 51
349.7402667710829
  0
ARC
  5
2682
330
2
100
AcDbEntity
  8
0
 62
     1
100
AcDbCircle
 10
1087.407167499844
 20
1283.662262103657
 30
0.0
 40
2.99212
100
AcDbArc
 50
280.6704539039088
 51
349.7402667710829
  0
LINE
  5
2683
330
2
100
AcDbEntity
  8
0
100
AcDbLine
 10
1086.138751959455
 20
1298.779998140186
 30
0.0
 11
1080.823801959455
 21
1298.779998140186
 31
0.0
  0
LINE
  5
2684
330
2
100
AcDbEntity
  8
0
 62
     1
100
AcDbLine
 10
1086.138751959455
 20
1298.543778140186
 30
0.0
 11
1080.823801959455
 21
1298.543778140186
 31
0.0
  0
ARC
  5
2685
330
2
100
AcDbEntity
  8
0
100
AcDbCircle
 10
1087.407167499844
 20
1295.433204176715
 30
0.0
 40
3.22834
100
AcDbArc
 50
10.25973322891716
 51
79.32954609609116
  0
ARC
  5
2686
330
2
100
AcDbEntity
  8
0
 62
     1
100
AcDbCircle
 10
1087.407167499844
 20
1295.433204176715
 30
0.0
 40
2.99212
100
AcDbArc
 50
10.25973322891716
 51
79.32954609609116
  0
ARC
  5
2687
330
2
100
AcDbEntity
  8
0
100
AcDbCircle
 10
1086.138751959455
 20
1288.701278140186
 30
0.0
 40
10.07872
100
AcDbArc
 50
79.32954609609116
 51
90.0
  0
ARC
  5
2688
330
2
100
AcDbEntity
  8
0
 62
     1
100
AcDbCircle
 10
1086.138751959455
 20
1288.701278140186
 30
0.0
 40
9.842500000000001
100
AcDbArc
 50
79.32954609609116
 51
90.0
  0
ARC
  5
2689
330
2
100
AcDbEntity
  8
0
100
AcDbCircle
 10
1080.666321959455
 20
1294.213078140186
 30
0.0
 40
10.07872
100
AcDbArc
 50
0.000000000000007
 51
10.25973322891716
  0
ARC
  5
268A
330
2
100
AcDbEntity
  8
0
 62
     1
100
AcDbCircle
 10
1080.666321959455
 20
1294.213078140186
 30
0.0
 40
9.842500000000001
100
AcDbArc
 50
0.000000000000007
 51
10.25973322891716
  0
ARC
  5
268B
330
2
100
AcDbEntity
  8
0
100
AcDbCircle
 10
1080.823801959455
 20
1288.701278140186
 30
0.0
 40
10.07872
100
AcDbArc
 50
90.0
 51
100.6704539039088
  0
ARC
  5
268C
330
2
100
AcDbEntity
  8
0
 62
     1
100
AcDbCircle
 10
1080.823801959455
 20
1288.701278140186
 30
0.0
 40
9.842500000000001
100
AcDbArc
 50
90.0
 51
100.6704539039088
  0
ARC
  5
268D
330
2
100
AcDbEntity
  8
0
100
AcDbCircle
 10
1079.555386419066
 20
1295.433204176715
 30
0.0
 40
3.22834
100
AcDbArc
 50
100.6704539039088
 51
138.9963881849064
  0
ARC
  5
268E
330
2
100
AcDbEntity
  8
0
 62
     1
100
AcDbCircle
 10
1079.555386419066
 20
1295.433204176715
 30
0.0
 40
2.99212
100
AcDbArc
 50
100.6704539039088
 51
138.9963881849064
  0
ARC
  5
268F
330
2
100
AcDbEntity
  8
0
100
AcDbCircle
 10
1074.89071421855
 20
1299.488658140186
 30
0.0
 40
2.952749999999999
100
AcDbArc
 50
270.0
 51
318.9963881849113
  0
ARC
  5
2690
330
2
100
AcDbEntity
  8
0
 62
     1
100
AcDbCircle
 10
1074.89071421855
 20
1299.488658140186
 30
0.0
 40
3.188969999999999
100
AcDbArc
 50
270.0
 51
318.9963881849113
  0
LINE
  5
2691
330
2
100
AcDbEntity
  8
0
100
AcDbLine
 10
1070.902561959455
 20
1280.315468140186
 30
0.0
 11
1080.823801959455
 21
1280.315468140186
 31
0.0
  0
LINE
  5
2692
330
2
100
AcDbEntity
  8
0
 62
     1
100
AcDbLine
 10
1070.902561959455
 20
1280.551688140186
 30
0.0
 11
1080.823801959455
 21
1280.551688140186
 31
0.0
  0
LINE
  5
2693
330
2
100
AcDbEntity
  8
0
100
AcDbLine
 10
1074.89071421855
 20
1296.535908140186
 30
0.0
 11
1065.587611959455
 21
1296.535908140186
 31
0.0
  0
LINE
  5
2694
330
2
100
AcDbEntity
  8
0
 62
     1
100
AcDbLine
 10
1074.89071421855
 20
1296.299688140186
 30
0.0
 11
1065.587611959455
 21
1296.299688140186
 31
0.0
  0
DIMENSION
  5
2695
330
2
100
AcDbEntity
  8
0
100
AcDbDimension
  2
*D8
 10
1087.407167499844
 20
1295.433204176717
 30
0.0
 11
1088.553247998336
 21
1296.545712652448
 31
0.0
 70
   164
 71
     5
 42
3.228339999999207
  3
DIN
100
AcDbRadialDimension
 15
1089.723624335701
 25
1297.681805271443
 35
0.0
 40
0.0
1001
ACAD
1000
DSTYLE
1002
{
1070
    41
1040
0.2
1070
    42
1040
0.1
1070
    43
1040
0.039
1070
    44
1040
0.2
1070
    73
1070
     0
1070
   141
1040
0.039
1070
   147
1040
0.05
1070
   288
1070
     1
1070
   340
1005
B97
1002
}
  0
DIMENSION
  5
2696
330
2
100
AcDbEntity
  8
0
100
AcDbDimension
  2
*D9
 10
1086.138751959456
 20
1288.701278140184
 30
0.0
 11
1087.033902235465
 21
1297.035345926289
 31
0.0
 70
   164
 71
     5
 42
10.07872000000157
  3
DIN
100
AcDbRadialDimension
 15
1087.215101923902
 25
1298.722359299045
 35
0.0
 40
0.0
1001
ACAD
1000
DSTYLE
1002
{
1070
    41
1040
0.2
1070
    42
1040
0.1
1070
    43
1040
0.039
1070
    44
1040
0.2
1070
    73
1070
     0
1070
   141
1040
0.039
1070
   147
1040
0.05
1070
   288
1070
     1
1070
   340
1005
B97
1002
}
  0
DIMENSION
  5
2697
330
2
100
AcDbEntity
  8
0
100
AcDbDimension
  2
*D10
 10
1080.666321959455
 20
1294.213078140187
 30
0.0
 11
1089.036252146335
 21
1294.662798660934
 31
0.0
 70
   164
 71
     5
 42
10.07872000000043
  3
DIN
100
AcDbRadialDimension
 15
1090.73052492125
 25
1294.753832781603
 35
0.0
 40
0.0
1001
ACAD
1000
DSTYLE
1002
{
1070
    41
1040
0.2
1070
    42
1040
0.1
1070
    43
1040
0.039
1070
    44
1040
0.2
1070
    73
1070
     0
1070
   141
1040
0.039
1070
   147
1040
0.05
1070
   288
1070
     1
1070
   340
1005
B97
1002
}
  0
DIMENSION
  5
2698
330
2
100
AcDbEntity
  8
0
100
AcDbDimension
  2
*D11
 10
1074.89071421855
 20
1299.488658140187
 30
0.0
 11
1075.419190534567
 21
1298.277265757055
 31
0.0
 70
   164
 71
     5
 42
2.952750000000037
  3
DIN
100
AcDbRadialDimension
 15
1076.071403842972
 25
1296.782238997984
 35
0.0
 40
0.0
1001
ACAD
1000
DSTYLE
1002
{
1070
    41
1040
0.2
1070
    42
1040
0.1
1070
    43
1040
0.039
1070
    44
1040
0.2
1070
    73
1070
     0
1070
   141
1040
0.039
1070
   147
1040
0.05
1070
   288
1070
     1
1070
   340
1005
B97
1002
}
  0
DIMENSION
  5
2699
330
2
100
AcDbEntity
  8
0
100
AcDbDimension
  2
*D12
 10
1061.217541959455
 20
1279.533893042872
 30
0.0
 11
1075.863181959455
 21
1279.780743042872
 31
0.0
 70
    32
 71
     5
 42
29.29127999999991
  3
DIN
100
AcDbAlignedDimension
 13
1090.508821959455
 23
1284.882388140186
 33
0.0
 14
1061.217541959455
 24
1284.882388140186
 34
0.0
 50
180.0
100
AcDbRotatedDimension
1001
ACAD
1000
DSTYLE
1002
{
1070
    41
1040
0.2
1070
    42
1040
0.1
1070
    43
1040
0.039
1070
    44
1040
0.2
1070
    73
1070
     0
1070
   141
1040
0.039
1070
   147
1040
0.05
1070
   340
1005
B97
1002
}
  0
DIMENSION
  5
269A
330
2
100
AcDbEntity
  8
0
100
AcDbDimension
  2
*D13
 10
1060.981321959455
 20
1278.740667640076
 30
0.0
 11
1075.863181959455
 21
1278.987517640076
 31
0.0
 70
    32
 71
     5
 42
29.76372000000015
  3
DIN
100
AcDbAlignedDimension
 13
1090.745041959455
 23
1284.882388140186
 33
0.0
 14
1060.981321959455
 24
1284.882388140186
 34
0.0
 50
180.0
100
AcDbRotatedDimension
1001
ACAD
1000
DSTYLE
1002
{
1070
    41
1040
0.2
1070
    42
1040
0.1
1070
    43
1040
0.039
1070
    44
1040
0.2
1070
    73
1070
     0
1070
   141
1040
0.039
1070
   147
1040
0.05
1070
   340
1005
B97
1002
}
  0
DIMENSION
  5
269B
330
2
100
AcDbEntity
  8
0
100
AcDbDimension
  2
*D14
 10
1091.427875830444
 20
1298.543778140186
 30
0.0
 11
1091.181025830444
 21
1289.547733140186
 31
0.0
 70
    32
 71
     5
 42
17.99208999999996
  3
DIN
100
AcDbAlignedDimension
 13
1086.138751959455
 23
1280.551688140186
 33
0.0
 14
1086.138751959455
 24
1298.543778140186
 34
0.0
 50
90.0
100
AcDbRotatedDimension
1001
ACAD
1000
DSTYLE
1002
{
1070
    41
1040
0.2
1070
    42
1040
0.1
1070
    43
1040
0.039
1070
    44
1040
0.2
1070
    73
1070
     0
1070
   141
1040
0.039
1070
   147
1040
0.05
1070
   340
1005
B97
1002
}
  0
DIMENSION
  5
269C
330
2
100
AcDbEntity
  8
0
100
AcDbDimension
  2
*D15
 10
1092.221705169364
 20
1298.779998140186
 30
0.0
 11
1091.974855169364
 21
1289.547733140186
 31
0.0
 70
    32
 71
     5
 42
18.46452999999996
  3
DIN
100
AcDbAlignedDimension
 13
1086.138751959455
 23
1280.315468140186
 33
0.0
 14
1086.138751959455
 24
1298.779998140186
 34
0.0
 50
90.0
100
AcDbRotatedDimension
1001
ACAD
1000
DSTYLE
1002
{
1070
    41
1040
0.2
1070
    42
1040
0.1
1070
    43
1040
0.039
1070
    44
1040
0.2
1070
    73
1070
     0
1070
   141
1040
0.039
1070
   147
1040
0.05
1070
   340
1005
B97
1002
}
  0
MTEXT
  5
273E
330
2
100
AcDbEntity
  8
0
100
AcDbMText
 10
1076.321143000006
 20
1283.094656246876
 30
0.0
 40
0.3937
 41
13.37923833333333
 71
     1
 72
     5
  1
Outside line Reveal mount catting line\PInside line Flush mount catting line
  7
스타일2
 73
     1
 44
1.0
  0
MTEXT
  5
2747
330
2
100
AcDbEntity
  8
0
100
AcDbMText
 10
1072.80388319907
 20
1289.618319693321
 30
0.0
 40
0.7874
 41
13.04891486035922
 71
     1
 72
     5
  1
{\C2;SM-322L}
  7
스타일2
 73
     1
 44
1.0
  0
VIEWPORT
  5
74
330
C
100
AcDbEntity
 67
     1
  8
0
100
AcDbViewport
 10
490.633788896909
 20
297.0009369707932
 30
0.0
 40
1115.370256166983
 41
599.3755656108596
 68
     1
 69
     1
 12
490.633788896909
 22
297.0009369707932
 13
0.0
 23
0.0
 14
10.0
 24
10.0
 15
10.0
 25
10.0
 16
0.0
 26
0.0
 36
1.0
 17
0.0
 27
0.0
 37
0.0
 42
50.0
 43
0.0
 44
0.0
 45
599.3755656108596
 50
0.0
 51
0.0
 72
  1000
 90
    32800
  1

281
     0
 71
     1
 74
     0
110
0.0
120
0.0
130
0.0
111
1.0
121
0.0
131
0.0
112
0.0
122
1.0
132
0.0
 79
     0
146
0.0
170
     0
  0
ENDSEC
  0
SECTION
  2
OBJECTS
  0
DICTIONARY
  5
7
330
0
100
AcDbDictionary
281
     1
  3
ACAD_COLOR
350
5A3
  3
ACAD_GROUP
350
20
  3
ACAD_LAYOUT
350
B
  3
ACAD_MATERIAL
350
5A2
  3
ACAD_MLINESTYLE
350
21
  3
ACAD_PLOTSETTINGS
350
22
  3
ACAD_PLOTSTYLENAME
350
6
  3
ACAD_TABLESTYLE
350
5C3
  3
AcDbVariableDictionary
350
81
  0
DICTIONARY
  5
1CC0
330
10
100
AcDbDictionary
280
     1
281
     1
  3
ACAD_LAYERSTATES
360
1CC1
  0
DICTIONARY
  5
95E
330
2
100
AcDbDictionary
280
     1
281
     1
  3
ACAD_SORTENTS
360
95F
  0
DICTIONARY
  5
5A3
102
{ACAD_REACTORS
330
7
102
}
330
7
100
AcDbDictionary
281
     1
  0
DICTIONARY
  5
20
102
{ACAD_REACTORS
330
7
102
}
330
7
100
AcDbDictionary
281
     1
  0
DICTIONARY
  5
B
102
{ACAD_REACTORS
330
7
102
}
330
7
100
AcDbDictionary
281
     1
  3
DIN A1 Title Block
350
F
  3
Model
350
A
  0
DICTIONARY
  5
5A2
102
{ACAD_REACTORS
330
7
102
}
330
7
100
AcDbDictionary
281
     1
  0
DICTIONARY
  5
21
102
{ACAD_REACTORS
330
7
102
}
330
7
100
AcDbDictionary
281
     1
  3
Standard
350
23
  0
DICTIONARY
  5
22
102
{ACAD_REACTORS
330
7
102
}
330
7
100
AcDbDictionary
281
     1
  0
ACDBDICTIONARYWDFLT
  5
6
102
{ACAD_REACTORS
330
7
102
}
330
7
100
AcDbDictionary
281
     1
  3
Normal
350
5
100
AcDbDictionaryWithDefault
340
5
  0
DICTIONARY
  5
5C3
102
{ACAD_REACTORS
330
7
102
}
330
7
100
AcDbDictionary
281
     1
  3
Standard
350
5C4
  0
DICTIONARY
  5
81
102
{ACAD_REACTORS
330
7
102
}
330
7
100
AcDbDictionary
281
     1
  3
CTABLESTYLE
350
5EE
  3
DIMASSOC
350
82
  0
DICTIONARY
  5
1CC1
102
{ACAD_REACTORS
330
1CC0
102
}
330
1CC0
100
AcDbDictionary
281
     1
  0
SORTENTSTABLE
  5
95F
102
{ACAD_REACTORS
330
95E
102
}
330
95E
100
AcDbSortentsTable
330
2
331
37C
  5
37C
331
3FD
  5
3FD
331
3FC
  5
3FC
331
3FB
  5
3FB
331
3FA
  5
3FA
331
387
  5
387
331
386
  5
386
331
385
  5
385
331
384
  5
384
  0
LAYOUT
  5
F
102
{ACAD_REACTORS
330
B
102
}
330
B
100
AcDbPlotSettings
  1

  2
none_device
  4
ISO_A1_(841.00_x_594.00_MM)
  6

 40
7.549999999999999
 41
20.05
 42
7.549999999999999
 43
20.05
 44
841.0
 45
594.0
 46
-7.57
 47
-20.06
 48
0.0
 49
0.0
140
0.0
141
0.0
142
1.0
143
1.0
 70
   688
 72
     1
 73
     0
 74
     5
  7

 75
    16
147
1.0
 76
     0
 77
     2
 78
   300
148
0.0128164049386896
149
0.0090630292066862
100
AcDbLayout
  1
DIN A1 Title Block
 70
     1
 71
     1
 10
0.0071835950613108
 20
0.0009369707933118
 11
841.0071835950613
 21
594.0009369707933
 12
0.0
 22
0.0
 32
0.0
 14
1.000000000000000E+20
 24
1.000000000000000E+20
 34
1.000000000000000E+20
 15
-1.000000000000000E+20
 25
-1.000000000000000E+20
 35
-1.000000000000000E+20
146
0.0
 13
0.0
 23
0.0
 33
0.0
 16
1.0
 26
0.0
 36
0.0
 17
0.0
 27
1.0
 37
0.0
 76
     0
330
C
331
74
  0
LAYOUT
  5
A
102
{ACAD_REACTORS
330
B
102
}
330
B
100
AcDbPlotSettings
  1

  2
none_device
  4
ISO_A4_(297.00_x_210.00_MM)
  6

 40
7.5
 41
20.0
 42
7.5
 43
20.0
 44
297.0
 45
210.0
 46
0.0
 47
0.0
 48
969.1120635225747
 49
1410.089773188028
140
997.7071895623689
141
1431.243016253039
142
1.0
143
20.0
 70
 11952
 72
     1
 73
     0
 74
     4
  7

 75
    22
147
0.05
 76
     0
 77
     2
 78
   300
148
-969.1120635225747
149
-1410.089773188028
100
AcDbLayout
  1
Model
 70
     1
 71
     0
 10
0.0
 20
0.0
 11
12.0
 21
9.0
 12
0.0
 22
0.0
 32
0.0
 14
0.0
 24
0.0
 34
0.0
 15
0.0
 25
0.0
 35
0.0
146
0.0
 13
0.0
 23
0.0
 33
0.0
 16
1.0
 26
0.0
 36
0.0
 17
0.0
 27
1.0
 37
0.0
 76
     0
330
2
1001
ACAD_PSEXT
1000
없음
1000
없음
1000
적용 가능하지 않음
1000
배치가 새로운 플로터 구성을 선택할 때까지 플롯되지 않습니다.
1070
     0
  0
MLINESTYLE
  5
23
102
{ACAD_REACTORS
330
21
102
}
330
21
100
AcDbMlineStyle
  2
STANDARD
 70
     0
  3

 62
   256
 51
90.0
 52
90.0
 71
     2
 49
0.5
 62
   256
  6
BYLAYER
 49
-0.5
 62
   256
  6
BYLAYER
  0
ACDBPLACEHOLDER
  5
5
102
{ACAD_REACTORS
330
6
102
}
330
6
  0
TABLESTYLE
  5
5C4
102
{ACAD_REACTORS
330
5C3
102
}
330
5C3
100
AcDbTableStyle
  3
Standard
 70
     0
 71
     8
 40
1.5
 41
1.5
280
     0
281
     0
  7
Standard
140
4.5
170
     2
 62
     0
 63
     7
283
     0
274
    -2
284
     1
 64
     0
275
    -2
285
     1
 65
     0
276
    -2
286
     1
 66
     0
277
    -2
287
     1
 67
     0
278
    -2
288
     1
 68
     0
279
    -2
289
     1
 69
     0
  7
Standard
140
6.0
170
     5
 62
     0
 63
     7
283
     0
274
    -2
284
     1
 64
     0
275
    -2
285
     1
 65
     0
276
    -2
286
     1
 66
     0
277
    -2
287
     1
 67
     0
278
    -2
288
     1
 68
     0
279
    -2
289
     1
 69
     0
  7
Standard
140
4.5
170
     5
 62
     0
 63
     7
283
     0
274
    -2
284
     1
 64
     0
275
    -2
285
     1
 65
     0
276
    -2
286
     1
 66
     0
277
    -2
287
     1
 67
     0
278
    -2
288
     1
 68
     0
279
    -2
289
     1
 69
     0
  0
DICTIONARYVAR
  5
5EE
102
{ACAD_REACTORS
330
81
102
}
330
81
100
DictionaryVariables
280
     0
  1
STANDARD
  0
DICTIONARYVAR
  5
82
102
{ACAD_REACTORS
330
81
102
}
330
81
100
DictionaryVariables
280
     0
  1
1
  0
ENDSEC
  0
EOF
