  0
SECTION
  2
HEADER
  9
$ACADVER
  1
AC1018
  9
$ACADMAINTVER
 70
    39
  9
$DWGCODEPAGE
  3
ANSI_949
  9
$INSBASE
 10
0.0
 20
0.0
 30
0.0
  9
$EXTMIN
 10
1536.583426408543
 20
1462.555396439507
 30
-0.0015258207003583
  9
$EXTMAX
 10
1742.655991750656
 20
1582.436984167465
 30
0.0000000349246037
  9
$LIMMIN
 10
0.0
 20
0.0
  9
$LIMMAX
 10
420.0
 20
297.0
  9
$ORTHOMODE
 70
     0
  9
$REGENMODE
 70
     1
  9
$FILLMODE
 70
     1
  9
$QTEXTMODE
 70
     0
  9
$MIRRTEXT
 70
     0
  9
$LTSCALE
 40
1.0
  9
$ATTMODE
 70
     1
  9
$TEXTSIZE
 40
0.3937
  9
$TRACEWID
 40
1.0
  9
$TEXTSTYLE
  7
스타일2
  9
$CLAYER
  8
0
  9
$CELTYPE
  6
ByLayer
  9
$CECOLOR
 62
   256
  9
$CELTSCALE
 40
1.0
  9
$DISPSILH
 70
     0
  9
$DIMSCALE
 40
1.0
  9
$DIMASZ
 40
0.2
  9
$DIMEXO
 40
0.1
  9
$DIMDLI
 40
0.039
  9
$DIMRND
 40
0.0
  9
$DIMDLE
 40
0.0
  9
$DIMEXE
 40
0.2
  9
$DIMTP
 40
0.0
  9
$DIMTM
 40
0.0
  9
$DIMTXT
 40
2.5
  9
$DIMCEN
 40
0.039
  9
$DIMTSZ
 40
0.0
  9
$DIMTOL
 70
     0
  9
$DIMLIM
 70
     0
  9
$DIMTIH
 70
     0
  9
$DIMTOH
 70
     0
  9
$DIMSE1
 70
     0
  9
$DIMSE2
 70
     0
  9
$DIMTAD
 70
     1
  9
$DIMZIN
 70
     8
  9
$DIMBLK
  1

  9
$DIMASO
 70
     1
  9
$DIMSHO
 70
     1
  9
$DIMPOST
  1

  9
$DIMAPOST
  1

  9
$DIMALT
 70
     0
  9
$DIMALTD
 70
     2
  9
$DIMALTF
 40
0.0394
  9
$DIMLFAC
 40
1.0
  9
$DIMTOFL
 70
     1
  9
$DIMTVP
 40
1.0
  9
$DIMTIX
 70
     0
  9
$DIMSOXD
 70
     0
  9
$DIMSAH
 70
     0
  9
$DIMBLK1
  1

  9
$DIMBLK2
  1

  9
$DIMSTYLE
  2
DIN
  9
$DIMCLRD
 70
     0
  9
$DIMCLRE
 70
     0
  9
$DIMCLRT
 70
     0
  9
$DIMTFAC
 40
1.0
  9
$DIMGAP
 40
0.05
  9
$DIMJUST
 70
     0
  9
$DIMSD1
 70
     0
  9
$DIMSD2
 70
     0
  9
$DIMTOLJ
 70
     1
  9
$DIMTZIN
 70
     0
  9
$DIMALTZ
 70
     0
  9
$DIMALTTZ
 70
     0
  9
$DIMUPT
 70
     0
  9
$DIMDEC
 70
     4
  9
$DIMTDEC
 70
     4
  9
$DIMALTU
 70
     8
  9
$DIMALTTD
 70
     2
  9
$DIMTXSTY
  7
스타일2
  9
$DIMAUNIT
 70
     0
  9
$DIMADEC
 70
     0
  9
$DIMALTRND
 40
0.0
  9
$DIMAZIN
 70
     0
  9
$DIMDSEP
 70
    46
  9
$DIMATFIT
 70
     3
  9
$DIMFRAC
 70
     0
  9
$DIMLDRBLK
  1

  9
$DIMLUNIT
 70
     6
  9
$DIMLWD
 70
    -2
  9
$DIMLWE
 70
    -2
  9
$DIMTMOVE
 70
     0
  9
$LUNITS
 70
     3
  9
$LUPREC
 70
     4
  9
$SKETCHINC
 40
1.0
  9
$FILLETRAD
 40
1.376999999999999
  9
$AUNITS
 70
     0
  9
$AUPREC
 70
     0
  9
$MENU
  1
.
  9
$ELEVATION
 40
0.0
  9
$PELEVATION
 40
0.0
  9
$THICKNESS
 40
0.0
  9
$LIMCHECK
 70
     0
  9
$CHAMFERA
 40
0.0
  9
$CHAMFERB
 40
0.0
  9
$CHAMFERC
 40
0.0
  9
$CHAMFERD
 40
0.0
  9
$SKPOLY
 70
     0
  9
$TDCREATE
 40
2454393.679354919
  9
$TDUCREATE
 40
2454393.346021586
  9
$TDUPDATE
 40
2454960.504131574
  9
$TDUUPDATE
 40
2454960.170798241
  9
$TDINDWG
 40
0.5117200116
  9
$TDUSRTIMER
 40
0.5117200116
  9
$USRTIMER
 70
     1
  9
$ANGBASE
 50
0.0
  9
$ANGDIR
 70
     0
  9
$PDMODE
 70
     0
  9
$PDSIZE
 40
0.0
  9
$PLINEWID
 40
0.0
  9
$SPLFRAME
 70
     0
  9
$SPLINETYPE
 70
     6
  9
$SPLINESEGS
 70
     8
  9
$HANDSEED
  5
241F
  9
$SURFTAB1
 70
     6
  9
$SURFTAB2
 70
     6
  9
$SURFTYPE
 70
     6
  9
$SURFU
 70
     6
  9
$SURFV
 70
     6
  9
$UCSBASE
  2

  9
$UCSNAME
  2

  9
$UCSORG
 10
0.0
 20
0.0
 30
0.0
  9
$UCSXDIR
 10
1.0
 20
0.0
 30
0.0
  9
$UCSYDIR
 10
0.0
 20
1.0
 30
0.0
  9
$UCSORTHOREF
  2

  9
$UCSORTHOVIEW
 70
     0
  9
$UCSORGTOP
 10
0.0
 20
0.0
 30
0.0
  9
$UCSORGBOTTOM
 10
0.0
 20
0.0
 30
0.0
  9
$UCSORGLEFT
 10
0.0
 20
0.0
 30
0.0
  9
$UCSORGRIGHT
 10
0.0
 20
0.0
 30
0.0
  9
$UCSORGFRONT
 10
0.0
 20
0.0
 30
0.0
  9
$UCSORGBACK
 10
0.0
 20
0.0
 30
0.0
  9
$PUCSBASE
  2

  9
$PUCSNAME
  2

  9
$PUCSORG
 10
0.0
 20
0.0
 30
0.0
  9
$PUCSXDIR
 10
1.0
 20
0.0
 30
0.0
  9
$PUCSYDIR
 10
0.0
 20
1.0
 30
0.0
  9
$PUCSORTHOREF
  2

  9
$PUCSORTHOVIEW
 70
     0
  9
$PUCSORGTOP
 10
0.0
 20
0.0
 30
0.0
  9
$PUCSORGBOTTOM
 10
0.0
 20
0.0
 30
0.0
  9
$PUCSORGLEFT
 10
0.0
 20
0.0
 30
0.0
  9
$PUCSORGRIGHT
 10
0.0
 20
0.0
 30
0.0
  9
$PUCSORGFRONT
 10
0.0
 20
0.0
 30
0.0
  9
$PUCSORGBACK
 10
0.0
 20
0.0
 30
0.0
  9
$USERI1
 70
     0
  9
$USERI2
 70
     0
  9
$USERI3
 70
     0
  9
$USERI4
 70
     0
  9
$USERI5
 70
     0
  9
$USERR1
 40
0.0
  9
$USERR2
 40
0.0
  9
$USERR3
 40
0.0
  9
$USERR4
 40
0.0
  9
$USERR5
 40
0.0
  9
$WORLDVIEW
 70
     1
  9
$SHADEDGE
 70
     3
  9
$SHADEDIF
 70
    70
  9
$TILEMODE
 70
     1
  9
$MAXACTVP
 70
    64
  9
$PINSBASE
 10
0.0
 20
0.0
 30
0.0
  9
$PLIMCHECK
 70
     0
  9
$PEXTMIN
 10
1.000000000000000E+20
 20
1.000000000000000E+20
 30
1.000000000000000E+20
  9
$PEXTMAX
 10
-1.000000000000000E+20
 20
-1.000000000000000E+20
 30
-1.000000000000000E+20
  9
$PLIMMIN
 10
0.0071835950613108
 20
0.0009369707933118
  9
$PLIMMAX
 10
841.0071835950613
 20
594.0009369707933
  9
$UNITMODE
 70
     0
  9
$VISRETAIN
 70
     1
  9
$PLINEGEN
 70
     0
  9
$PSLTSCALE
 70
     1
  9
$TREEDEPTH
 70
  3020
  9
$CMLSTYLE
  2
Standard
  9
$CMLJUST
 70
     0
  9
$CMLSCALE
 40
20.0
  9
$PROXYGRAPHICS
 70
     1
  9
$MEASUREMENT
 70
     1
  9
$CELWEIGHT
370
    -1
  9
$ENDCAPS
280
     0
  9
$JOINSTYLE
280
     0
  9
$LWDISPLAY
290
     0
  9
$INSUNITS
 70
     1
  9
$HYPERLINKBASE
  1

  9
$STYLESHEET
  1

  9
$XEDIT
290
     1
  9
$CEPSNTYPE
380
     0
  9
$PSTYLEMODE
290
     1
  9
$FINGERPRINTGUID
  2
{AC2FA5CB-6F18-4BC2-9C5F-F25C10372E5B}
  9
$VERSIONGUID
  2
{F92EB055-7009-4ABD-8E56-19466795C2CA}
  9
$EXTNAMES
290
     1
  9
$PSVPSCALE
 40
0.0
  9
$OLESTARTUP
290
     0
  9
$SORTENTS
280
   127
  9
$INDEXCTL
280
     0
  9
$HIDETEXT
280
     0
  9
$XCLIPFRAME
290
     0
  9
$HALOGAP
280
     0
  9
$OBSCOLOR
 70
   257
  9
$OBSLTYPE
280
     0
  9
$INTERSECTIONDISPLAY
280
     0
  9
$INTERSECTIONCOLOR
 70
   257
  9
$DIMASSOC
280
     1
  9
$PROJECTNAME
  1

  0
ENDSEC
  0
SECTION
  2
CLASSES
  0
CLASS
  1
ACDBDICTIONARYWDFLT
  2
AcDbDictionaryWithDefault
  3
ObjectDBX Classes
 90
        0
 91
        1
280
     0
281
     0
  0
CLASS
  1
PLOTSETTINGS
  2
AcDbPlotSettings
  3
ObjectDBX Classes
 90
        0
 91
        0
280
     0
281
     0
  0
CLASS
  1
DICTIONARYVAR
  2
AcDbDictionaryVar
  3
ObjectDBX Classes
 90
        0
 91
        2
280
     0
281
     0
  0
CLASS
  1
TABLESTYLE
  2
AcDbTableStyle
  3
ObjectDBX Classes
 90
     2047
 91
        1
280
     0
281
     0
  0
CLASS
  1
DIMASSOC
  2
AcDbDimAssoc
  3
"AcDbDimAssoc|Product Desc:     AcDim ARX App For Dimension|Company:          Autodesk, Inc.|WEB Address:      www.autodesk.com"
 90
        0
 91
        0
280
     0
281
     0
  0
CLASS
  1
SORTENTSTABLE
  2
AcDbSortentsTable
  3
ObjectDBX Classes
 90
        0
 91
        3
280
     0
281
     0
  0
ENDSEC
  0
SECTION
  2
TABLES
  0
TABLE
  2
VPORT
  5
19
330
0
100
AcDbSymbolTable
 70
     4
  0
VPORT
  5
241E
330
19
100
AcDbSymbolTableRecord
100
AcDbViewportTableRecord
  2
*Active
 70
     0
 10
0.0
 20
0.0
 11
1.0
 21
1.0
 12
1641.40874470828
 22
1473.283822122748
 13
0.0
 23
0.0
 14
10.0
 24
10.0
 15
10.0
 25
10.0
 16
0.0
 26
0.0
 36
1.0
 17
0.0
 27
0.0
 37
0.0
 40
29.46606392729135
 41
1.950509461426491
 42
50.0
 43
0.0
 44
0.0
 50
0.0
 51
0.0
 71
     0
 72
  1000
 73
     1
 74
     3
 75
     0
 76
     0
 77
     0
 78
     0
281
     0
 65
     1
110
0.0
120
0.0
130
0.0
111
1.0
121
0.0
131
0.0
112
0.0
122
1.0
132
0.0
 79
     0
146
0.0
  0
ENDTAB
  0
TABLE
  2
LTYPE
  5
14
330
0
100
AcDbSymbolTable
 70
     2
  0
LTYPE
  5
15
330
14
100
AcDbSymbolTableRecord
100
AcDbLinetypeTableRecord
  2
ByBlock
 70
     0
  3

 72
    65
 73
     0
 40
0.0
  0
LTYPE
  5
16
330
14
100
AcDbSymbolTableRecord
100
AcDbLinetypeTableRecord
  2
ByLayer
 70
     0
  3

 72
    65
 73
     0
 40
0.0
  0
LTYPE
  5
8
330
14
100
AcDbSymbolTableRecord
100
AcDbLinetypeTableRecord
  2
Continuous
 70
     0
  3
Solid line
 72
    65
 73
     0
 40
0.0
  0
LTYPE
  5
204C
330
14
100
AcDbSymbolTableRecord
100
AcDbLinetypeTableRecord
  2
ACAD_ISO04W100
 70
     0
  3
ISO long-dash dot ____ . ____ . ____ . ____ . _
 72
    65
 73
     4
 40
30.0
 49
24.0
 74
     0
 49
-3.0
 74
     0
 49
0.0
 74
     0
 49
-3.0
 74
     0
  0
ENDTAB
  0
TABLE
  2
LAYER
  5
10
330
0
100
AcDbSymbolTable
 70
     9
  0
LAYER
  5
4
330
10
100
AcDbSymbolTableRecord
100
AcDbLayerTableRecord
  2
0
 70
     0
 62
     7
  6
Continuous
370
    -3
390
5
  0
LAYER
  5
8E
330
10
100
AcDbSymbolTableRecord
100
AcDbLayerTableRecord
  2
07
 70
     0
 62
     7
  6
Continuous
370
    -3
390
5
  0
LAYER
  5
8F
330
10
100
AcDbSymbolTableRecord
100
AcDbLayerTableRecord
  2
035
 70
     0
 62
     5
  6
Continuous
370
    -3
390
5
  0
LAYER
  5
90
330
10
100
AcDbSymbolTableRecord
100
AcDbLayerTableRecord
  2
05
 70
     0
 62
     6
  6
Continuous
370
    -3
390
5
  0
LAYER
  5
91
330
10
100
AcDbSymbolTableRecord
100
AcDbLayerTableRecord
  2
025
 70
     0
 62
     1
  6
Continuous
370
    -3
390
5
  0
LAYER
  5
5CE
330
10
100
AcDbSymbolTableRecord
100
AcDbLayerTableRecord
  2
Defpoints
 70
     0
 62
     7
  6
Continuous
290
     0
370
    -3
390
5
  0
LAYER
  5
62B
330
10
100
AcDbSymbolTableRecord
100
AcDbLayerTableRecord
  2
\M+5B4D6\M+5CAB5\M+5CFDF
 70
     0
 62
     7
  6
Continuous
370
    30
390
5
  0
LAYER
  5
62C
330
10
100
AcDbSymbolTableRecord
100
AcDbLayerTableRecord
  2
\M+5B1EA\M+5D7A2\M+5CFDF
 70
     0
 62
     7
  6
Continuous
370
    13
390
5
  0
LAYER
  5
204D
330
10
100
AcDbSymbolTableRecord
100
AcDbLayerTableRecord
  2
\M+5D6D0\M+5D0C4\M+5CFDF
 70
     0
 62
     7
  6
ACAD_ISO04W100
370
    18
390
5
  0
ENDTAB
  0
TABLE
  2
STYLE
  5
11
330
0
100
AcDbSymbolTable
 70
     5
  0
STYLE
  5
12
330
11
100
AcDbSymbolTableRecord
100
AcDbTextStyleTableRecord
  2
Standard
 70
     0
 40
0.0
 41
1.0
 50
0.0
 71
     0
 42
2.5
  3
txt
  4

  0
STYLE
  5
31
330
11
100
AcDbSymbolTableRecord
100
AcDbTextStyleTableRecord
  2
ISO Proportional
 70
     0
 40
0.0
 41
1.0
 50
0.0
 71
     0
 42
2.5
  3
isocp.shx
  4

  0
STYLE
  5
B96
330
11
100
AcDbSymbolTableRecord
100
AcDbTextStyleTableRecord
  2
스타일1
 70
     0
 40
0.1968
 41
1.0
 50
0.0
 71
     0
 42
2.5
  3
txt.shx
  4

  0
STYLE
  5
B97
330
11
100
AcDbSymbolTableRecord
100
AcDbTextStyleTableRecord
  2
스타일2
 70
     0
 40
0.3937
 41
1.0
 50
0.0
 71
     0
 42
0.3937
  3
txt.shx
  4

  0
ENDTAB
  0
TABLE
  2
VIEW
  5
17
330
0
100
AcDbSymbolTable
 70
     0
  0
ENDTAB
  0
TABLE
  2
UCS
  5
18
330
0
100
AcDbSymbolTable
 70
     0
  0
ENDTAB
  0
TABLE
  2
APPID
  5
1B
330
0
100
AcDbSymbolTable
 70
    12
  0
APPID
  5
1C
330
1B
100
AcDbSymbolTableRecord
100
AcDbRegAppTableRecord
  2
ACAD
 70
     0
  0
APPID
  5
346
330
1B
100
AcDbSymbolTableRecord
100
AcDbRegAppTableRecord
  2
GENIUS_GENTRA_14
 70
     0
  0
APPID
  5
347
330
1B
100
AcDbSymbolTableRecord
100
AcDbRegAppTableRecord
  2
GENIUS_GENODEF_13
 70
     0
  0
APPID
  5
348
330
1B
100
AcDbSymbolTableRecord
100
AcDbRegAppTableRecord
  2
GENIUS_GENOBJ-N-TIT_13
 70
     0
  0
APPID
  5
349
330
1B
100
AcDbSymbolTableRecord
100
AcDbRegAppTableRecord
  2
GENIUS_GENTITLE_13
 70
     0
  0
APPID
  5
34A
330
1B
100
AcDbSymbolTableRecord
100
AcDbRegAppTableRecord
  2
GENIUS_GENOENT_13
 70
     0
  0
APPID
  5
34B
330
1B
100
AcDbSymbolTableRecord
100
AcDbRegAppTableRecord
  2
GENIUS_GENOREF_13
 70
     0
  0
APPID
  5
34C
330
1B
100
AcDbSymbolTableRecord
100
AcDbRegAppTableRecord
  2
GENIUS_GENOLIS_13
 70
     0
  0
APPID
  5
34D
330
1B
100
AcDbSymbolTableRecord
100
AcDbRegAppTableRecord
  2
GENIUS_GENOBJ-N-SDF_13
 70
     0
  0
APPID
  5
34E
330
1B
100
AcDbSymbolTableRecord
100
AcDbRegAppTableRecord
  2
GENIUS_GENSCREG_13
 70
     0
  0
APPID
  5
886
330
1B
100
AcDbSymbolTableRecord
100
AcDbRegAppTableRecord
  2
ACAD_DSTYLE_DIMTEXT_FILL
 70
     0
  0
APPID
  5
B8B
330
1B
100
AcDbSymbolTableRecord
100
AcDbRegAppTableRecord
  2
ACAD_PSEXT
 70
     0
  0
ENDTAB
  0
TABLE
  2
DIMSTYLE
  5
1D
330
0
100
AcDbSymbolTable
 70
     5
100
AcDbDimStyleTable
 71
     1
340
1E
  0
DIMSTYLE
105
1E
102
{ACAD_REACTORS
330
22BC
330
22C9
330
22D2
330
22DB
330
22E4
330
22ED
330
22F6
330
22FF
330
2308
330
2399
330
23BD
330
23CA
330
23D7
330
23E4
330
23F1
102
}
330
1D
100
AcDbSymbolTableRecord
100
AcDbDimStyleTableRecord
  2
DIN
 70
     0
 41
2.5
 42
0.625
 43
3.75
 44
1.25
 74
     0
 77
     1
 78
     8
140
2.5
141
2.5
143
0.0394
145
1.0
147
0.625
172
     1
273
     8
277
     6
340
12
  0
DIMSTYLE
105
62D
330
1D
100
AcDbSymbolTableRecord
100
AcDbDimStyleTableRecord
  2
ISO-25
 70
     0
 41
10.0
 42
0.625
 43
3.75
 44
10.0
 73
     0
 74
     0
 77
     1
 78
     8
140
20.0
141
2.5
143
0.03937007874016
147
10.0
171
     3
172
     1
271
     2
272
     2
274
     3
278
    44
279
     1
283
     0
284
     8
340
12
  0
DIMSTYLE
105
62E
330
1D
100
AcDbSymbolTableRecord
100
AcDbDimStyleTableRecord
  2
\M+5B8B1\M+5B1BEISO-25
 70
     0
 41
15.0
 42
0.625
 43
3.75
 44
2.0
 73
     0
 74
     0
 77
     1
 78
     8
140
22.0
141
2.5
143
0.03937007874016
147
10.0
171
     3
179
     1
271
     1
272
     1
274
     3
278
    44
279
     1
283
     0
284
     8
340
12
  0
DIMSTYLE
105
62F
330
1D
100
AcDbSymbolTableRecord
100
AcDbDimStyleTableRecord
  2
\M+5B8B1\M+5B1BE (2)ISO-25
 70
     0
 41
10.0
 42
0.625
 43
3.75
 44
10.0
 73
     0
 74
     0
 77
     1
 78
     8
140
10.0
141
2.5
143
0.03937007874016
147
10.0
171
     3
172
     1
271
     2
272
     2
274
     3
278
    44
283
     0
284
     8
340
12
  0
ENDTAB
  0
TABLE
  2
BLOCK_RECORD
  5
1
330
0
100
AcDbSymbolTable
 70
    19
  0
BLOCK_RECORD
  5
2
102
{ACAD_XDICTIONARY
360
95E
102
}
330
1
100
AcDbSymbolTableRecord
100
AcDbBlockTableRecord
  2
*Model_Space
340
A
  0
BLOCK_RECORD
  5
C
330
1
100
AcDbSymbolTableRecord
100
AcDbBlockTableRecord
  2
*Paper_Space
340
F
  0
BLOCK_RECORD
  5
22BD
330
1
100
AcDbSymbolTableRecord
100
AcDbBlockTableRecord
  2
*D1
340
0
  0
BLOCK_RECORD
  5
22CA
330
1
100
AcDbSymbolTableRecord
100
AcDbBlockTableRecord
  2
*D2
340
0
  0
BLOCK_RECORD
  5
22D3
330
1
100
AcDbSymbolTableRecord
100
AcDbBlockTableRecord
  2
*D3
340
0
  0
BLOCK_RECORD
  5
22DC
330
1
100
AcDbSymbolTableRecord
100
AcDbBlockTableRecord
  2
*D4
340
0
  0
BLOCK_RECORD
  5
22E5
330
1
100
AcDbSymbolTableRecord
100
AcDbBlockTableRecord
  2
*D5
340
0
  0
BLOCK_RECORD
  5
22EE
330
1
100
AcDbSymbolTableRecord
100
AcDbBlockTableRecord
  2
*D6
340
0
  0
BLOCK_RECORD
  5
22F7
330
1
100
AcDbSymbolTableRecord
100
AcDbBlockTableRecord
  2
*D7
340
0
  0
BLOCK_RECORD
  5
2300
330
1
100
AcDbSymbolTableRecord
100
AcDbBlockTableRecord
  2
*D8
340
0
  0
BLOCK_RECORD
  5
2309
330
1
100
AcDbSymbolTableRecord
100
AcDbBlockTableRecord
  2
*D9
340
0
  0
BLOCK_RECORD
  5
239A
330
1
100
AcDbSymbolTableRecord
100
AcDbBlockTableRecord
  2
*D10
340
0
  0
BLOCK_RECORD
  5
23BE
330
1
100
AcDbSymbolTableRecord
100
AcDbBlockTableRecord
  2
*D11
340
0
  0
BLOCK_RECORD
  5
23CB
330
1
100
AcDbSymbolTableRecord
100
AcDbBlockTableRecord
  2
*D12
340
0
  0
BLOCK_RECORD
  5
23D8
330
1
100
AcDbSymbolTableRecord
100
AcDbBlockTableRecord
  2
*D13
340
0
  0
BLOCK_RECORD
  5
23E5
330
1
100
AcDbSymbolTableRecord
100
AcDbBlockTableRecord
  2
*D14
340
0
  0
BLOCK_RECORD
  5
23F2
330
1
100
AcDbSymbolTableRecord
100
AcDbBlockTableRecord
  2
*D15
340
0
  0
ENDTAB
  0
ENDSEC
  0
SECTION
  2
BLOCKS
  0
BLOCK
  5
3
330
2
100
AcDbEntity
  8
0
100
AcDbBlockBegin
  2
*Model_Space
 70
     2
 10
0.0
 20
0.0
 30
0.0
  3
*Model_Space
  1

  0
ENDBLK
  5
9
330
2
100
AcDbEntity
  8
0
100
AcDbBlockEnd
  0
BLOCK
  5
D
330
C
100
AcDbEntity
 67
     1
  8
0
100
AcDbBlockBegin
  2
*Paper_Space
 70
     0
 10
0.0
 20
0.0
 30
0.0
  3
*Paper_Space
  1

  0
ENDBLK
  5
E
330
C
100
AcDbEntity
 67
     1
  8
0
100
AcDbBlockEnd
  0
BLOCK
  5
22C7
330
22BD
100
AcDbEntity
  8
0
100
AcDbBlockBegin
  2
*D1
 70
     1
 10
0.0
 20
0.0
 30
0.0
  3
*D1
  1

  0
LINE
  5
22BE
330
22BD
100
AcDbEntity
  8
0
 62
     0
370
    -2
100
AcDbLine
 10
1624.257877268833
 20
1472.211470782281
 30
0.0
 11
1624.257877268833
 21
1462.574115911106
 31
0.0
  0
LINE
  5
22BF
330
22BD
100
AcDbEntity
  8
0
 62
     0
370
    -2
100
AcDbLine
 10
1655.043927675955
 20
1471.658989812657
 30
0.0
 11
1655.043927675955
 21
1462.574115911106
 31
0.0
  0
LINE
  5
22C0
330
22BD
100
AcDbEntity
  8
0
 62
     0
370
    -2
100
AcDbLine
 10
1624.457877268833
 20
1462.774115911106
 30
0.0
 11
1654.843927675955
 21
1462.774115911106
 31
0.0
  0
SOLID
  5
22C1
330
22BD
100
AcDbEntity
  8
0
 62
     0
100
AcDbTrace
 10
1624.457877268833
 20
1462.80744924444
 30
0.0
 11
1624.457877268833
 21
1462.740782577773
 31
0.0
 12
1624.257877268833
 22
1462.774115911106
 32
0.0
 13
1624.257877268833
 23
1462.774115911106
 33
0.0
  0
SOLID
  5
22C2
330
22BD
100
AcDbEntity
  8
0
 62
     0
100
AcDbTrace
 10
1654.843927675955
 20
1462.80744924444
 30
0.0
 11
1654.843927675955
 21
1462.740782577773
 31
0.0
 12
1655.043927675955
 22
1462.774115911106
 32
0.0
 13
1655.043927675955
 23
1462.774115911106
 33
0.0
  0
MTEXT
  5
22C3
330
22BD
100
AcDbEntity
  8
0
 62
     0
100
AcDbMText
 10
1639.650902472395
 20
1463.020965911106
 30
0.0
 40
0.3937
 41
0.0
 71
     5
 72
     1
  1
\A1;30.7861
  7
스타일2
 73
     1
 44
1.0
  0
POINT
  5
22C4
330
22BD
100
AcDbEntity
  8
Defpoints
 62
     0
100
AcDbPoint
 10
1624.257877268833
 20
1472.31147078228
 30
0.0
  0
POINT
  5
22C5
330
22BD
100
AcDbEntity
  8
Defpoints
 62
     0
100
AcDbPoint
 10
1655.043927675955
 20
1471.758989812657
 30
0.0
  0
POINT
  5
22C6
330
22BD
100
AcDbEntity
  8
Defpoints
 62
     0
100
AcDbPoint
 10
1655.043927675955
 20
1462.774115911106
 30
0.0
  0
ENDBLK
  5
22C8
330
22BD
100
AcDbEntity
  8
0
100
AcDbBlockEnd
  0
BLOCK
  5
22D0
330
22CA
100
AcDbEntity
  8
0
100
AcDbBlockBegin
  2
*D2
 70
     1
 10
0.0
 20
0.0
 30
0.0
  3
*D2
  1

  0
LINE
  5
22CB
330
22CA
100
AcDbEntity
  8
0
 62
     0
370
    -2
100
AcDbLine
 10
1634.565755344063
 20
1477.764217856571
 30
0.0
 11
1634.978806229539
 21
1482.751519519834
 31
0.0
  0
MTEXT
  5
22CC
330
22CA
100
AcDbEntity
  8
0
 62
     0
100
AcDbMText
 10
1634.426775916337
 20
1479.076884514479
 30
0.0
 40
0.3937
 41
0.0
 71
     5
 72
     1
  1
\A1;R19.9212
  7
스타일2
 11
0.0825379237988877
 21
0.996587924437663
 31
0.0
 73
     1
 44
1.0
  0
SOLID
  5
22CD
330
22CA
100
AcDbEntity
  8
0
 62
     0
100
AcDbTrace
 10
1634.945586632058
 20
1482.754270783961
 30
0.0
 11
1635.012025827021
 21
1482.748768255708
 31
0.0
 12
1634.9953138143
 22
1482.950837104722
 32
0.0
 13
1634.9953138143
 23
1482.950837104722
 33
0.0
  0
POINT
  5
22CE
330
22CA
100
AcDbEntity
  8
Defpoints
 62
     0
100
AcDbPoint
 10
1634.9953138143
 20
1482.950837104722
 30
0.0
  0
POINT
  5
22CF
330
22CA
100
AcDbEntity
  8
Defpoints
 62
     0
100
AcDbPoint
 10
1633.351057675959
 20
1463.097589812659
 30
0.0
  0
ENDBLK
  5
22D1
330
22CA
100
AcDbEntity
  8
0
100
AcDbBlockEnd
  0
BLOCK
  5
22D9
330
22D3
100
AcDbEntity
  8
0
100
AcDbBlockBegin
  2
*D3
 70
     1
 10
0.0
 20
0.0
 30
0.0
  3
*D3
  1

  0
LINE
  5
22D4
330
22D3
100
AcDbEntity
  8
0
 62
     0
370
    -2
100
AcDbLine
 10
1629.122673468218
 20
1478.068125514776
 30
0.0
 11
1626.463949898505
 21
1480.938101487051
 31
0.0
  0
MTEXT
  5
22D5
330
22D3
100
AcDbEntity
  8
0
 62
     0
100
AcDbMText
 10
1628.556299373643
 20
1479.042734150044
 30
0.0
 40
0.3937
 41
0.0
 71
     5
 72
     1
  1
\A1;R6.1417
  7
스타일2
 11
0.6795922031693124
 21
-0.7335901017540245
 31
0.0
 73
     1
 44
1.0
  0
SOLID
  5
22D6
330
22D3
100
AcDbEntity
  8
0
 62
     0
100
AcDbTrace
 10
1626.488402901897
 20
1480.96075456049
 30
0.0
 11
1626.439496895114
 21
1480.915448413612
 31
0.0
 12
1626.328031457871
 22
1481.084819507402
 32
0.0
 13
1626.328031457871
 23
1481.084819507402
 33
0.0
  0
POINT
  5
22D7
330
22D3
100
AcDbEntity
  8
Defpoints
 62
     0
100
AcDbPoint
 10
1626.328031457871
 20
1481.084819507402
 30
0.0
  0
POINT
  5
22D8
330
22D3
100
AcDbEntity
  8
Defpoints
 62
     0
100
AcDbPoint
 10
1630.50189648392
 20
1476.579314507657
 30
0.0
  0
ENDBLK
  5
22DA
330
22D3
100
AcDbEntity
  8
0
100
AcDbBlockEnd
  0
BLOCK
  5
22E2
330
22DC
100
AcDbEntity
  8
0
100
AcDbBlockBegin
  2
*D4
 70
     1
 10
0.0
 20
0.0
 30
0.0
  3
*D4
  1

  0
LINE
  5
22DD
330
22DC
100
AcDbEntity
  8
0
 62
     0
370
    -2
100
AcDbLine
 10
1629.565608771602
 20
1474.422687640856
 30
0.0
 11
1624.48937727818
 21
1474.542307968815
 31
0.0
  0
MTEXT
  5
22DE
330
22DC
100
AcDbEntity
  8
0
 62
     0
100
AcDbMText
 10
1628.07827197453
 20
1474.704654948101
 30
0.0
 40
0.3937
 41
0.0
 71
     5
 72
     1
  1
\A1;R118.3462
  7
스타일2
 11
0.9997224659220989
 21
-0.0235582497362996
 31
0.0
 73
     1
 44
1.0
  0
SOLID
  5
22DF
330
22DC
100
AcDbEntity
  8
0
 62
     0
100
AcDbTrace
 10
1624.490162553172
 20
1474.575632051013
 30
0.0
 11
1624.48859200319
 21
1474.508983886618
 31
0.0
 12
1624.289432784996
 22
1474.547019618763
 32
0.0
 13
1624.289432784996
 23
1474.547019618763
 33
0.0
  0
POINT
  5
22E0
330
22DC
100
AcDbEntity
  8
Defpoints
 62
     0
100
AcDbPoint
 10
1624.289432784996
 20
1474.547019618763
 30
0.0
  0
POINT
  5
22E1
330
22DC
100
AcDbEntity
  8
Defpoints
 62
     0
100
AcDbPoint
 10
1742.602807675957
 20
1471.758989812656
 30
0.0
  0
ENDBLK
  5
22E3
330
22DC
100
AcDbEntity
  8
0
100
AcDbBlockEnd
  0
BLOCK
  5
22EB
330
22E5
100
AcDbEntity
  8
0
100
AcDbBlockBegin
  2
*D5
 70
     1
 10
0.0
 20
0.0
 30
0.0
  3
*D5
  1

  0
LINE
  5
22E6
330
22E5
100
AcDbEntity
  8
0
 62
     0
370
    -2
100
AcDbLine
 10
1627.764640167615
 20
1467.560120896669
 30
0.0
 11
1625.750812597691
 21
1465.222757455003
 31
0.0
  0
MTEXT
  5
22E7
330
22E5
100
AcDbEntity
  8
0
 62
     0
100
AcDbMText
 10
1626.795470511489
 20
1466.813429515611
 30
0.0
 40
0.3937
 41
0.0
 71
     5
 72
     1
  1
\A1;R3.7402
  7
스타일2
 11
0.6527274554463885
 21
0.757592812074193
 31
0.0
 73
     1
 44
1.0
  0
SOLID
  5
22E8
330
22E5
100
AcDbEntity
  8
0
 62
     0
100
AcDbTrace
 10
1625.725559503955
 20
1465.244515036851
 30
0.0
 11
1625.776065691426
 21
1465.200999873155
 31
0.0
 12
1625.620267106602
 22
1465.071238892589
 32
0.0
 13
1625.620267106602
 23
1465.071238892589
 33
0.0
  0
POINT
  5
22E9
330
22E5
100
AcDbEntity
  8
Defpoints
 62
     0
100
AcDbPoint
 10
1625.620267106602
 20
1465.071238892589
 30
0.0
  0
POINT
  5
22EA
330
22E5
100
AcDbEntity
  8
Defpoints
 62
     0
100
AcDbPoint
 10
1628.061565699091
 20
1467.904749648669
 30
0.0
  0
ENDBLK
  5
22EC
330
22E5
100
AcDbEntity
  8
0
100
AcDbBlockEnd
  0
BLOCK
  5
22F4
330
22EE
100
AcDbEntity
  8
0
100
AcDbBlockBegin
  2
*D6
 70
     1
 10
0.0
 20
0.0
 30
0.0
  3
*D6
  1

  0
LINE
  5
22EF
330
22EE
100
AcDbEntity
  8
0
 62
     0
370
    -2
100
AcDbLine
 10
1629.972490536027
 20
1467.479260733424
 30
0.0
 11
1629.878822916853
 21
1464.293504110334
 31
0.0
  0
MTEXT
  5
22F0
330
22EE
100
AcDbEntity
  8
0
 62
     0
100
AcDbMText
 10
1629.681852285513
 20
1465.993593974822
 30
0.0
 40
0.3937
 41
0.0
 71
     5
 72
     1
  1
\A1;R118.3462
  7
스타일2
 11
0.0293893004710627
 21
0.9995680412147148
 31
0.0
 73
     1
 44
1.0
  0
SOLID
  5
22F1
330
22EE
100
AcDbEntity
  8
0
 62
     0
100
AcDbTrace
 10
1629.845503982146
 20
1464.294483753683
 30
0.0
 11
1629.91214185156
 21
1464.292524466985
 31
0.0
 12
1629.872945056759
 22
1464.093590502091
 32
0.0
 13
1629.872945056759
 23
1464.093590502091
 33
0.0
  0
POINT
  5
22F2
330
22EE
100
AcDbEntity
  8
Defpoints
 62
     0
100
AcDbPoint
 10
1629.872945056759
 20
1464.093590502091
 30
0.0
  0
POINT
  5
22F3
330
22EE
100
AcDbEntity
  8
Defpoints
 62
     0
100
AcDbPoint
 10
1633.351057675953
 20
1582.388689812657
 30
0.0
  0
ENDBLK
  5
22F5
330
22EE
100
AcDbEntity
  8
0
100
AcDbBlockEnd
  0
BLOCK
  5
22FD
330
22F7
100
AcDbEntity
  8
0
100
AcDbBlockBegin
  2
*D7
 70
     1
 10
0.0
 20
0.0
 30
0.0
  3
*D7
  1

  0
LINE
  5
22F8
330
22F7
100
AcDbEntity
  8
0
 62
     0
370
    -2
100
AcDbLine
 10
1651.257285764993
 20
1467.792490666222
 30
0.0
 11
1653.797060660531
 21
1465.369051720119
 31
0.0
  0
MTEXT
  5
22F9
330
22F7
100
AcDbEntity
  8
0
 62
     0
100
AcDbMText
 10
1652.247167310815
 20
1467.189148223354
 30
0.0
 40
0.3937
 41
0.0
 71
     5
 72
     1
  1
\A1;R3.7401
  7
스타일2
 11
0.7234823907288268
 21
-0.6903428353400223
 31
0.0
 73
     1
 44
1.0
  0
SOLID
  5
22FA
330
22F7
100
AcDbEntity
  8
0
 62
     0
100
AcDbTrace
 10
1653.820072088375
 20
1465.39316779981
 30
0.0
 11
1653.774049232686
 21
1465.344935640428
 31
0.0
 12
1653.941757138677
 22
1465.230983153052
 32
0.0
 13
1653.941757138677
 23
1465.230983153052
 33
0.0
  0
POINT
  5
22FB
330
22F7
100
AcDbEntity
  8
Defpoints
 62
     0
100
AcDbPoint
 10
1653.941757138677
 20
1465.230983153052
 30
0.0
  0
POINT
  5
22FC
330
22F7
100
AcDbEntity
  8
Defpoints
 62
     0
100
AcDbPoint
 10
1651.235824474993
 20
1467.812968908648
 30
0.0
  0
ENDBLK
  5
22FE
330
22F7
100
AcDbEntity
  8
0
100
AcDbBlockEnd
  0
BLOCK
  5
2306
330
2300
100
AcDbEntity
  8
0
100
AcDbBlockBegin
  2
*D8
 70
     1
 10
0.0
 20
0.0
 30
0.0
  3
*D8
  1

  0
LINE
  5
2301
330
2300
100
AcDbEntity
  8
0
 62
     0
370
    -2
100
AcDbLine
 10
1651.119253322324
 20
1472.507262782823
 30
0.0
 11
1654.841401402256
 21
1472.531604201945
 31
0.0
  0
MTEXT
  5
2302
330
2300
100
AcDbEntity
  8
0
 62
     0
100
AcDbMText
 10
1652.611173782957
 20
1472.76387464814
 30
0.0
 40
0.3937
 41
0.0
 71
     5
 72
     1
  1
\A1;R118.3462
  7
스타일2
 11
0.9999786173971573
 21
0.0065394761617227
 31
0.0
 73
     1
 44
1.0
  0
SOLID
  5
2303
330
2300
100
AcDbEntity
  8
0
 62
     0
100
AcDbTrace
 10
1654.841183419717
 20
1472.564936822525
 30
0.0
 11
1654.841619384795
 21
1472.498271581365
 31
0.0
 12
1655.041397125735
 22
1472.532912097177
 32
0.0
 13
1655.041397125735
 23
1472.532912097177
 33
0.0
  0
POINT
  5
2304
330
2300
100
AcDbEntity
  8
Defpoints
 62
     0
100
AcDbPoint
 10
1655.041397125735
 20
1472.532912097177
 30
0.0
  0
POINT
  5
2305
330
2300
100
AcDbEntity
  8
Defpoints
 62
     0
100
AcDbPoint
 10
1536.697707675956
 20
1471.758989812657
 30
0.0
  0
ENDBLK
  5
2307
330
2300
100
AcDbEntity
  8
0
100
AcDbBlockEnd
  0
BLOCK
  5
230F
330
2309
100
AcDbEntity
  8
0
100
AcDbBlockBegin
  2
*D9
 70
     1
 10
0.0
 20
0.0
 30
0.0
  3
*D9
  1

  0
LINE
  5
230A
330
2309
100
AcDbEntity
  8
0
 62
     0
370
    -2
100
AcDbLine
 10
1650.425062410877
 20
1467.950831782764
 30
0.0
 11
1650.486178220718
 21
1464.490939962083
 31
0.0
  0
MTEXT
  5
230B
330
2309
100
AcDbEntity
  8
0
 62
     0
100
AcDbMText
 10
1650.690140135273
 20
1466.92110279656
 30
0.0
 40
0.3937
 41
0.0
 71
     5
 72
     1
  1
\A1;R78.74
  7
스타일2
 11
0.0176613260091862
 21
-0.9998440266179507
 31
0.0
 73
     1
 44
1.0
  0
SOLID
  5
230C
330
2309
100
AcDbEntity
  8
0
 62
     0
100
AcDbTrace
 10
1650.519506354939
 20
1464.49152867295
 30
0.0
 11
1650.452850086498
 21
1464.490351251216
 31
0.0
 12
1650.48971048592
 22
1464.290971156759
 32
0.0
 13
1650.48971048592
 23
1464.290971156759
 33
0.0
  0
POINT
  5
230D
330
2309
100
AcDbEntity
  8
Defpoints
 62
     0
100
AcDbPoint
 10
1650.48971048592
 20
1464.290971156759
 30
0.0
  0
POINT
  5
230E
330
2309
100
AcDbEntity
  8
Defpoints
 62
     0
100
AcDbPoint
 10
1649.099057675957
 20
1543.018689812655
 30
0.0
  0
ENDBLK
  5
2310
330
2309
100
AcDbEntity
  8
0
100
AcDbBlockEnd
  0
BLOCK
  5
23A0
330
239A
100
AcDbEntity
  8
0
100
AcDbBlockBegin
  2
*D10
 70
     1
 10
0.0
 20
0.0
 30
0.0
  3
*D10
  1

  0
LINE
  5
239B
330
239A
100
AcDbEntity
  8
0
 62
     0
370
    -2
100
AcDbLine
 10
1643.528217431693
 20
1482.463629855621
 30
0.0
 11
1641.706071342148
 21
1479.892171717431
 31
0.0
  0
MTEXT
  5
239C
330
239A
100
AcDbEntity
  8
0
 62
     0
100
AcDbMText
 10
1642.766778110363
 20
1481.816022245352
 30
0.0
 40
0.3937
 41
0.0
 71
     5
 72
     1
  1
\A1;R1.377
  7
스타일2
 11
0.5781645092413759
 21
0.8159202168433376
 31
0.0
 73
     1
 44
1.0
  0
SOLID
  5
239D
330
239A
100
AcDbEntity
  8
0
 62
     0
100
AcDbTrace
 10
1641.678874001587
 20
1479.911443867739
 30
0.0
 11
1641.73326868271
 21
1479.872899567123
 31
0.0
 12
1641.5904384403
 22
1479.728987674062
 32
0.0
 13
1641.5904384403
 23
1479.728987674062
 33
0.0
  0
POINT
  5
239E
330
239A
100
AcDbEntity
  8
Defpoints
 62
     0
100
AcDbPoint
 10
1641.5904384403
 20
1479.728987674062
 30
0.0
  0
POINT
  5
239F
330
239A
100
AcDbEntity
  8
Defpoints
 62
     0
100
AcDbPoint
 10
1642.386570969526
 20
1480.852509812656
 30
0.0
  0
ENDBLK
  5
23A1
330
239A
100
AcDbEntity
  8
0
100
AcDbBlockEnd
  0
BLOCK
  5
23C8
330
23BE
100
AcDbEntity
  8
0
100
AcDbBlockBegin
  2
*D11
 70
     1
 10
0.0
 20
0.0
 30
0.0
  3
*D11
  1

  0
LINE
  5
23BF
330
23BE
100
AcDbEntity
  8
0
 62
     0
370
    -2
100
AcDbLine
 10
1633.251057675953
 20
1464.278689812657
 30
0.0
 11
1623.385542817591
 21
1464.278689812657
 31
0.0
  0
LINE
  5
23C0
330
23BE
100
AcDbEntity
  8
0
 62
     0
370
    -2
100
AcDbLine
 10
1633.251057675956
 20
1482.782589812656
 30
0.0
 11
1623.385542817591
 21
1482.782589812656
 31
0.0
  0
LINE
  5
23C1
330
23BE
100
AcDbEntity
  8
0
 62
     0
370
    -2
100
AcDbLine
 10
1623.585542817591
 20
1464.478689812657
 30
0.0
 11
1623.585542817591
 21
1482.582589812656
 31
0.0
  0
SOLID
  5
23C2
330
23BE
100
AcDbEntity
  8
0
 62
     0
100
AcDbTrace
 10
1623.552209484257
 20
1464.478689812657
 30
0.0
 11
1623.618876150924
 21
1464.478689812657
 31
0.0
 12
1623.585542817591
 22
1464.278689812657
 32
0.0
 13
1623.585542817591
 23
1464.278689812657
 33
0.0
  0
SOLID
  5
23C3
330
23BE
100
AcDbEntity
  8
0
 62
     0
100
AcDbTrace
 10
1623.552209484257
 20
1482.582589812656
 30
0.0
 11
1623.618876150924
 21
1482.582589812656
 31
0.0
 12
1623.585542817591
 22
1482.782589812656
 32
0.0
 13
1623.585542817591
 23
1482.782589812656
 33
0.0
  0
MTEXT
  5
23C4
330
23BE
100
AcDbEntity
  8
0
 62
     0
100
AcDbMText
 10
1623.338692817591
 20
1473.530639812657
 30
0.0
 40
0.3937
 41
0.0
 71
     5
 72
     1
  1
\A1;18.5039
  7
스타일2
 11
0.0000000000000001
 21
1.0
 31
0.0
 73
     1
 44
1.0
  0
POINT
  5
23C5
330
23BE
100
AcDbEntity
  8
Defpoints
 62
     0
100
AcDbPoint
 10
1633.351057675953
 20
1464.278689812657
 30
0.0
  0
POINT
  5
23C6
330
23BE
100
AcDbEntity
  8
Defpoints
 62
     0
100
AcDbPoint
 10
1633.351057675955
 20
1482.782589812656
 30
0.0
  0
POINT
  5
23C7
330
23BE
100
AcDbEntity
  8
Defpoints
 62
     0
100
AcDbPoint
 10
1623.585542817591
 20
1482.782589812656
 30
0.0
  0
ENDBLK
  5
23C9
330
23BE
100
AcDbEntity
  8
0
100
AcDbBlockEnd
  0
BLOCK
  5
23D5
330
23CB
100
AcDbEntity
  8
0
100
AcDbBlockBegin
  2
*D12
 70
     1
 10
0.0
 20
0.0
 30
0.0
  3
*D12
  1

  0
LINE
  5
23CC
330
23CB
100
AcDbEntity
  8
0
 62
     0
370
    -2
100
AcDbLine
 10
1633.251057675953
 20
1464.042469812657
 30
0.0
 11
1622.431682840577
 21
1464.042469812657
 31
0.0
  0
LINE
  5
23CD
330
23CB
100
AcDbEntity
  8
0
 62
     0
370
    -2
100
AcDbLine
 10
1633.251057675956
 20
1483.018809812656
 30
0.0
 11
1622.431682840577
 21
1483.018809812656
 31
0.0
  0
LINE
  5
23CE
330
23CB
100
AcDbEntity
  8
0
 62
     0
370
    -2
100
AcDbLine
 10
1622.631682840577
 20
1464.242469812656
 30
0.0
 11
1622.631682840577
 21
1482.818809812656
 31
0.0
  0
SOLID
  5
23CF
330
23CB
100
AcDbEntity
  8
0
 62
     0
100
AcDbTrace
 10
1622.598349507244
 20
1464.242469812656
 30
0.0
 11
1622.665016173911
 21
1464.242469812656
 31
0.0
 12
1622.631682840577
 22
1464.042469812657
 32
0.0
 13
1622.631682840577
 23
1464.042469812657
 33
0.0
  0
SOLID
  5
23D0
330
23CB
100
AcDbEntity
  8
0
 62
     0
100
AcDbTrace
 10
1622.598349507244
 20
1482.818809812656
 30
0.0
 11
1622.665016173911
 21
1482.818809812656
 31
0.0
 12
1622.631682840577
 22
1483.018809812656
 32
0.0
 13
1622.631682840577
 23
1483.018809812656
 33
0.0
  0
MTEXT
  5
23D1
330
23CB
100
AcDbEntity
  8
0
 62
     0
100
AcDbMText
 10
1622.384832840577
 20
1473.530639812657
 30
0.0
 40
0.3937
 41
0.0
 71
     5
 72
     1
  1
\A1;18.9763
  7
스타일2
 11
0.0000000000000001
 21
1.0
 31
0.0
 73
     1
 44
1.0
  0
POINT
  5
23D2
330
23CB
100
AcDbEntity
  8
Defpoints
 62
     0
100
AcDbPoint
 10
1633.351057675953
 20
1464.042469812657
 30
0.0
  0
POINT
  5
23D3
330
23CB
100
AcDbEntity
  8
Defpoints
 62
     0
100
AcDbPoint
 10
1633.351057675955
 20
1483.018809812656
 30
0.0
  0
POINT
  5
23D4
330
23CB
100
AcDbEntity
  8
Defpoints
 62
     0
100
AcDbPoint
 10
1622.631682840577
 20
1483.018809812656
 30
0.0
  0
ENDBLK
  5
23D6
330
23CB
100
AcDbEntity
  8
0
100
AcDbBlockEnd
  0
BLOCK
  5
23E2
330
23D8
100
AcDbEntity
  8
0
100
AcDbBlockBegin
  2
*D13
 70
     1
 10
0.0
 20
0.0
 30
0.0
  3
*D13
  1

  0
LINE
  5
23D9
330
23D8
100
AcDbEntity
  8
0
 62
     0
370
    -2
100
AcDbLine
 10
1650.317311111784
 20
1464.286630845212
 30
0.0
 11
1656.21678845388
 21
1464.286630845212
 31
0.0
  0
LINE
  5
23DA
330
23D8
100
AcDbEntity
  8
0
 62
     0
370
    -2
100
AcDbLine
 10
1650.317311111784
 20
1479.231348780101
 30
0.0
 11
1656.21678845388
 21
1479.231348780101
 31
0.0
  0
LINE
  5
23DB
330
23D8
100
AcDbEntity
  8
0
 62
     0
370
    -2
100
AcDbLine
 10
1656.016788453879
 20
1464.486630845212
 30
0.0
 11
1656.016788453879
 21
1479.031348780101
 31
0.0
  0
SOLID
  5
23DC
330
23D8
100
AcDbEntity
  8
0
 62
     0
100
AcDbTrace
 10
1655.983455120546
 20
1464.486630845212
 30
0.0
 11
1656.050121787213
 21
1464.486630845212
 31
0.0
 12
1656.016788453879
 22
1464.286630845212
 32
0.0
 13
1656.016788453879
 23
1464.286630845212
 33
0.0
  0
SOLID
  5
23DD
330
23D8
100
AcDbEntity
  8
0
 62
     0
100
AcDbTrace
 10
1655.983455120546
 20
1479.031348780101
 30
0.0
 11
1656.050121787213
 21
1479.031348780101
 31
0.0
 12
1656.016788453879
 22
1479.231348780101
 32
0.0
 13
1656.016788453879
 23
1479.231348780101
 33
0.0
  0
MTEXT
  5
23DE
330
23D8
100
AcDbEntity
  8
0
 62
     0
100
AcDbMText
 10
1655.769938453879
 20
1471.758989812657
 30
0.0
 40
0.3937
 41
0.0
 71
     5
 72
     1
  1
\A1;14.9447
  7
스타일2
 11
0.0000000000000001
 21
1.0
 31
0.0
 73
     1
 44
1.0
  0
POINT
  5
23DF
330
23D8
100
AcDbEntity
  8
Defpoints
 62
     0
100
AcDbPoint
 10
1650.217311111784
 20
1464.286630845212
 30
0.0
  0
POINT
  5
23E0
330
23D8
100
AcDbEntity
  8
Defpoints
 62
     0
100
AcDbPoint
 10
1650.217311111784
 20
1479.231348780101
 30
0.0
  0
POINT
  5
23E1
330
23D8
100
AcDbEntity
  8
Defpoints
 62
     0
100
AcDbPoint
 10
1656.016788453879
 20
1479.231348780101
 30
0.0
  0
ENDBLK
  5
23E3
330
23D8
100
AcDbEntity
  8
0
100
AcDbBlockEnd
  0
BLOCK
  5
23EF
330
23E5
100
AcDbEntity
  8
0
100
AcDbBlockBegin
  2
*D14
 70
     1
 10
0.0
 20
0.0
 30
0.0
  3
*D14
  1

  0
LINE
  5
23E6
330
23E5
100
AcDbEntity
  8
0
 62
     0
370
    -2
100
AcDbLine
 10
1650.320665872091
 20
1464.050434668309
 30
0.0
 11
1657.011671850337
 21
1464.050434668309
 31
0.0
  0
LINE
  5
23E7
330
23E5
100
AcDbEntity
  8
0
 62
     0
370
    -2
100
AcDbLine
 10
1650.320665872091
 20
1479.467544957004
 30
0.0
 11
1657.011671850337
 21
1479.467544957004
 31
0.0
  0
LINE
  5
23E8
330
23E5
100
AcDbEntity
  8
0
 62
     0
370
    -2
100
AcDbLine
 10
1656.811671850337
 20
1464.250434668309
 30
0.0
 11
1656.811671850337
 21
1479.267544957004
 31
0.0
  0
SOLID
  5
23E9
330
23E5
100
AcDbEntity
  8
0
 62
     0
100
AcDbTrace
 10
1656.778338517004
 20
1464.250434668309
 30
0.0
 11
1656.845005183671
 21
1464.250434668309
 31
0.0
 12
1656.811671850337
 22
1464.050434668309
 32
0.0
 13
1656.811671850337
 23
1464.050434668309
 33
0.0
  0
SOLID
  5
23EA
330
23E5
100
AcDbEntity
  8
0
 62
     0
100
AcDbTrace
 10
1656.778338517004
 20
1479.267544957004
 30
0.0
 11
1656.845005183671
 21
1479.267544957004
 31
0.0
 12
1656.811671850337
 22
1479.467544957004
 32
0.0
 13
1656.811671850337
 23
1479.467544957004
 33
0.0
  0
MTEXT
  5
23EB
330
23E5
100
AcDbEntity
  8
0
 62
     0
100
AcDbMText
 10
1656.564821850337
 20
1471.758989812657
 30
0.0
 40
0.3937
 41
0.0
 71
     5
 72
     1
  1
\A1;15.4171
  7
스타일2
 11
0.0000000000000001
 21
1.0
 31
0.0
 73
     1
 44
1.0
  0
POINT
  5
23EC
330
23E5
100
AcDbEntity
  8
Defpoints
 62
     0
100
AcDbPoint
 10
1650.220665872091
 20
1464.050434668309
 30
0.0
  0
POINT
  5
23ED
330
23E5
100
AcDbEntity
  8
Defpoints
 62
     0
100
AcDbPoint
 10
1650.220665872091
 20
1479.467544957004
 30
0.0
  0
POINT
  5
23EE
330
23E5
100
AcDbEntity
  8
Defpoints
 62
     0
100
AcDbPoint
 10
1656.811671850337
 20
1479.467544957004
 30
0.0
  0
ENDBLK
  5
23F0
330
23E5
100
AcDbEntity
  8
0
100
AcDbBlockEnd
  0
BLOCK
  5
23F8
330
23F2
100
AcDbEntity
  8
0
100
AcDbBlockBegin
  2
*D15
 70
     1
 10
0.0
 20
0.0
 30
0.0
  3
*D15
  1

  0
LINE
  5
23F3
330
23F2
100
AcDbEntity
  8
0
 62
     0
370
    -2
100
AcDbLine
 10
1637.485794162024
 20
1478.04375953187
 30
0.0
 11
1640.120092529035
 21
1481.044583484982
 31
0.0
  0
MTEXT
  5
23F4
330
23F2
100
AcDbEntity
  8
0
 62
     0
100
AcDbMText
 10
1638.025888062489
 20
1479.033173593638
 30
0.0
 40
0.3937
 41
0.0
 71
     5
 72
     1
  1
\A1;R6.1417
  7
스타일2
 11
0.6597203606099886
 21
0.7515111747649711
 31
0.0
 73
     1
 44
1.0
  0
SOLID
  5
23F5
330
23F2
100
AcDbEntity
  8
0
 62
     0
100
AcDbTrace
 10
1640.095042156543
 20
1481.066574163669
 30
0.0
 11
1640.145142901527
 21
1481.022592806295
 31
0.0
 12
1640.252036601157
 22
1481.194885719934
 32
0.0
 13
1640.252036601157
 23
1481.194885719934
 33
0.0
  0
POINT
  5
23F6
330
23F2
100
AcDbEntity
  8
Defpoints
 62
     0
100
AcDbPoint
 10
1640.252036601157
 20
1481.194885719934
 30
0.0
  0
POINT
  5
23F7
330
23F2
100
AcDbEntity
  8
Defpoints
 62
     0
100
AcDbPoint
 10
1636.200218867992
 20
1476.579314507658
 30
0.0
  0
ENDBLK
  5
23F9
330
23F2
100
AcDbEntity
  8
0
100
AcDbBlockEnd
  0
ENDSEC
  0
SECTION
  2
ENTITIES
  0
POINT
  5
37C
330
2
100
AcDbEntity
  8
0
 60
     1
100
AcDbPoint
 10
170.4737662487822
 20
-90.83440570086338
 30
0.0
1001
GENIUS_GENOBJ-N-TIT_13
1002
{
1000
OWNER
1000
GEN
1002
}
1001
GENIUS_GENOENT_13
1002
{
1000
MYREF
1005
37C
1002
}
1002
{
1000
GRP
1005
0
1002
}
1001
GENIUS_GENOLIS_13
1002
{
1000
ENT
1005
0
1005
0
1002
}
1001
GENIUS_GENTITLE_13
1002
{
1000
SCALE
1000
1:1
1002
}
1002
{
1000
BORDER
1000
GEN_A1
1002
}
1002
{
1000
TITLE
1000
GENTITLE
1002
}
1002
{
1000
UNCHG
1002
{
1000
GEN-TITLE-SCA
1000
GEN-TITLE-SIZ
1002
}
1002
}
1002
{
1000
HRA
1005
0
1002
}
1002
{
1000
HTIT
1005
0
1002
}
1002
{
1000
GENIUSID
1005
37C
1002
}
1001
GENIUS_GENODEF_13
1002
{
1000
HIER
1070
     1
1002
}
1002
{
1000
MANEDIT
1070
     0
1002
}
1002
{
1000
NOSEL
1070
     0
1002
}
1002
{
1000
BEHIND
1070
     0
1002
}
1002
{
1000
REACTOR
1002
}
  0
TEXT
  5
384
330
2
100
AcDbEntity
  8
0
 60
     1
100
AcDbText
 10
830.9999999999998
 20
-52.92726755347098
 30
0.0
 40
3.5
  1
!GENTITLE-INSERT
100
AcDbText
  0
TEXT
  5
385
330
2
100
AcDbEntity
  8
0
 60
     1
100
AcDbText
 10
10.0
 20
-47.92726755347098
 30
0.0
 40
3.5
  1
!GENTITLE-LL
100
AcDbText
  0
TEXT
  5
386
330
2
100
AcDbEntity
  8
0
 60
     1
100
AcDbText
 10
831.0
 20
526.072732446529
 30
0.0
 40
3.5
  1
!GENTITLE-RU
100
AcDbText
  0
TEXT
  5
387
330
2
100
AcDbEntity
  8
0
 60
     1
100
AcDbText
 10
841.0
 20
536.0727324465289
 30
0.0
 40
3.5
  1
!GENTITLE-MAX
100
AcDbText
  0
TEXT
  5
3FA
330
2
100
AcDbEntity
  8
0
 60
     1
100
AcDbText
 10
684.8812705983663
 20
141.8068575944205
 30
0.0
 40
3.5
  1
!GENTITLE-INSERT
100
AcDbText
  0
TEXT
  5
3FB
330
2
100
AcDbEntity
  8
0
 60
     1
100
AcDbText
 10
-136.1187294016335
 20
146.8068575944205
 30
0.0
 40
3.5
  1
!GENTITLE-LL
100
AcDbText
  0
TEXT
  5
3FC
330
2
100
AcDbEntity
  8
0
 60
     1
100
AcDbText
 10
684.8812705983664
 20
720.8068575944205
 30
0.0
 40
3.5
  1
!GENTITLE-RU
100
AcDbText
  0
TEXT
  5
3FD
330
2
100
AcDbEntity
  8
0
 60
     1
100
AcDbText
 10
694.8812705983664
 20
730.8068575944205
 30
0.0
 40
3.5
  1
!GENTITLE-MAX
100
AcDbText
  0
ARC
  5
182C
330
2
100
AcDbEntity
  8
\M+5B4D6\M+5CAB5\M+5CFDF
 62
     1
100
AcDbCircle
 10
1630.50189648392
 20
1476.579314507657
 30
0.0
 40
5.905499999999999
100
AcDbArc
 50
101.9330222309904
 51
177.5378056610677
  0
ARC
  5
182D
330
2
100
AcDbEntity
  8
\M+5B4D6\M+5CAB5\M+5CFDF
100
AcDbCircle
 10
1630.50189648392
 20
1476.579314507657
 30
0.0
 40
6.14172
100
AcDbArc
 50
101.9330222309904
 51
177.5378056610677
  0
LWPOLYLINE
  5
182E
330
2
100
AcDbEntity
  8
\M+5B4D6\M+5CAB5\M+5CFDF
 62
     1
100
AcDbPolyline
 90
        2
 70
     0
 43
0.0
 10
1629.280827401072
 20
1482.357196519685
 42
-0.1045133233852687
 10
1637.421287950839
 20
1482.357196519685
  0
LWPOLYLINE
  5
182F
330
2
100
AcDbEntity
  8
\M+5B4D6\M+5CAB5\M+5CFDF
100
AcDbPolyline
 90
        2
 70
     0
 43
0.0
 10
1629.231984637774
 20
1482.588311800169
 42
-0.1045133233852693
 10
1637.470130714138
 20
1482.588311800169
 42
-0.1045133233852693
  0
ARC
  5
1830
330
2
100
AcDbEntity
  8
\M+5B4D6\M+5CAB5\M+5CFDF
 62
     1
100
AcDbCircle
 10
1651.235824474993
 20
1475.705010716663
 30
0.0
 40
3.503929999999999
100
AcDbArc
 50
1.97315063132107
 51
88.37253349570223
  0
ARC
  5
1831
330
2
100
AcDbEntity
  8
\M+5B4D6\M+5CAB5\M+5CFDF
100
AcDbCircle
 10
1651.235824474993
 20
1475.705010716663
 30
0.0
 40
3.74015
100
AcDbArc
 50
1.97315063132107
 51
88.37253349570223
  0
ARC
  5
1832
330
2
100
AcDbEntity
  8
\M+5B4D6\M+5CAB5\M+5CFDF
 62
     1
100
AcDbCircle
 10
1649.099057675956
 20
1400.499289812656
 30
0.0
 40
78.74000000000001
100
AcDbArc
 50
88.37253349570223
 51
90.0
  0
ARC
  5
1833
330
2
100
AcDbEntity
  8
\M+5B4D6\M+5CAB5\M+5CFDF
100
AcDbCircle
 10
1649.099057675956
 20
1400.499289812656
 30
0.0
 40
78.97622
100
AcDbArc
 50
88.37253349570223
 51
90.0
  0
ARC
  5
1835
330
2
100
AcDbEntity
  8
\M+5B4D6\M+5CAB5\M+5CFDF
100
AcDbCircle
 10
1636.200218867991
 20
1476.579314507657
 30
0.0
 40
6.14172
100
AcDbArc
 50
34.6346052276344
 51
78.06697776900958
  0
ARC
  5
1836
330
2
100
AcDbEntity
  8
\M+5B4D6\M+5CAB5\M+5CFDF
 62
     1
100
AcDbCircle
 10
1633.351057675953
 20
1582.388689812656
 30
0.0
 40
118.11
100
AcDbArc
 50
267.3546491409597
 51
270.0
  0
ARC
  5
1837
330
2
100
AcDbEntity
  8
\M+5B4D6\M+5CAB5\M+5CFDF
100
AcDbCircle
 10
1633.351057675953
 20
1582.388689812656
 30
0.0
 40
118.34622
100
AcDbArc
 50
267.3546491409597
 51
270.0
  0
ARC
  5
1838
330
2
100
AcDbEntity
  8
\M+5B4D6\M+5CAB5\M+5CFDF
 62
     1
100
AcDbCircle
 10
1628.061565699089
 20
1467.904749648668
 30
0.0
 40
3.503929999999999
100
AcDbArc
 50
181.9272394785263
 51
267.3546491409597
  0
ARC
  5
1839
330
2
100
AcDbEntity
  8
\M+5B4D6\M+5CAB5\M+5CFDF
100
AcDbCircle
 10
1628.061565699089
 20
1467.904749648668
 30
0.0
 40
3.74015
100
AcDbArc
 50
181.9272394785263
 51
267.3546491409597
  0
ARC
  5
183A
330
2
100
AcDbEntity
  8
\M+5B4D6\M+5CAB5\M+5CFDF
 62
     1
100
AcDbCircle
 10
1649.099057675956
 20
1543.018689812656
 30
0.0
 40
78.74000000000001
100
AcDbArc
 50
270.0
 51
271.6274665042978
  0
ARC
  5
183B
330
2
100
AcDbEntity
  8
\M+5B4D6\M+5CAB5\M+5CFDF
100
AcDbCircle
 10
1649.099057675956
 20
1543.018689812656
 30
0.0
 40
78.97622
100
AcDbArc
 50
270.0
 51
271.6274665042978
  0
ARC
  5
183C
330
2
100
AcDbEntity
  8
\M+5B4D6\M+5CAB5\M+5CFDF
 62
     1
100
AcDbCircle
 10
1651.235824474993
 20
1467.812968908649
 30
0.0
 40
3.503929999999999
100
AcDbArc
 50
271.6274665042978
 51
358.0268493686789
  0
ARC
  5
183D
330
2
100
AcDbEntity
  8
\M+5B4D6\M+5CAB5\M+5CFDF
100
AcDbCircle
 10
1651.235824474993
 20
1467.812968908649
 30
0.0
 40
3.74015
100
AcDbArc
 50
271.6274665042978
 51
358.0268493686789
  0
ARC
  5
183E
330
2
100
AcDbEntity
  8
\M+5B4D6\M+5CAB5\M+5CFDF
 62
     1
100
AcDbCircle
 10
1742.602807675956
 20
1471.758989812657
 30
0.0
 40
118.11
100
AcDbArc
 50
177.5378056610677
 51
181.9272394785263
  0
ARC
  5
183F
330
2
100
AcDbEntity
  8
\M+5B4D6\M+5CAB5\M+5CFDF
100
AcDbCircle
 10
1742.602807675956
 20
1471.758989812657
 30
0.0
 40
118.34622
100
AcDbArc
 50
177.5378056610677
 51
181.9272394785263
  0
ARC
  5
1840
330
2
100
AcDbEntity
  8
\M+5B4D6\M+5CAB5\M+5CFDF
 62
     1
100
AcDbCircle
 10
1536.697707675955
 20
1471.758989812657
 30
0.0
 40
118.11
100
AcDbArc
 50
358.0268493686789
 51
1.97315063132107
  0
ARC
  5
1841
330
2
100
AcDbEntity
  8
\M+5B4D6\M+5CAB5\M+5CFDF
100
AcDbCircle
 10
1536.697707675955
 20
1471.758989812657
 30
0.0
 40
118.34622
100
AcDbArc
 50
358.0268493686789
 51
1.97315063132107
  0
LINE
  5
1842
330
2
100
AcDbEntity
  8
\M+5B1EA\M+5D7A2\M+5CFDF
 48
3.0
100
AcDbLine
 10
1649.099057675956
 20
1479.475509812657
 30
0.0
 11
1642.386570969525
 21
1479.475509812657
 31
0.0
  0
LINE
  5
1843
330
2
100
AcDbEntity
  8
\M+5B1EA\M+5D7A2\M+5CFDF
 48
3.0
100
AcDbLine
 10
1649.099057675956
 20
1464.042469812657
 30
0.0
 11
1633.351057675953
 21
1464.042469812657
 31
0.0
  0
LINE
  5
1844
330
2
100
AcDbEntity
  8
\M+5B1EA\M+5D7A2\M+5CFDF
 62
     1
 48
3.0
100
AcDbLine
 10
1633.351057675953
 20
1464.278689812657
 30
0.0
 11
1649.099057675956
 21
1464.278689812657
 31
0.0
  0
DIMENSION
  5
22BC
330
2
100
AcDbEntity
  8
0
100
AcDbDimension
  2
*D1
 10
1655.043927675955
 20
1462.774115911106
 30
0.0
 11
1639.650902472395
 21
1463.020965911106
 31
0.0
 70
    32
 71
     5
 42
30.78605040712205
  3
DIN
100
AcDbAlignedDimension
 13
1624.257877268833
 23
1472.31147078228
 33
0.0
 14
1655.043927675955
 24
1471.758989812657
 34
0.0
100
AcDbRotatedDimension
1001
ACAD
1000
DSTYLE
1002
{
1070
    41
1040
0.2
1070
    42
1040
0.1
1070
    43
1040
0.039
1070
    44
1040
0.2
1070
    73
1070
     0
1070
   141
1040
0.039
1070
   147
1040
0.05
1070
   340
1005
B97
1002
}
  0
DIMENSION
  5
22C9
330
2
100
AcDbEntity
  8
0
100
AcDbDimension
  2
*D2
 10
1633.351057675959
 20
1463.097589812659
 30
0.0
 11
1634.672783645484
 21
1479.056510027989
 31
0.0
 70
   164
 71
     5
 42
19.92121999999608
  3
DIN
100
AcDbRadialDimension
 15
1634.9953138143
 25
1482.950837104722
 35
0.0
 40
0.0
1001
ACAD
1000
DSTYLE
1002
{
1070
    41
1040
0.2
1070
    42
1040
0.1
1070
    43
1040
0.039
1070
    44
1040
0.2
1070
    73
1070
     0
1070
   141
1040
0.039
1070
   147
1040
0.05
1070
   288
1070
     1
1070
   340
1005
B97
1002
}
  0
DIMENSION
  5
22D2
330
2
100
AcDbEntity
  8
0
100
AcDbDimension
  2
*D3
 10
1630.50189648392
 20
1476.579314507657
 30
0.0
 11
1628.375212657025
 21
1478.874976814692
 31
0.0
 70
   164
 71
     5
 42
6.141720000000077
  3
DIN
100
AcDbRadialDimension
 15
1626.328031457871
 25
1481.084819507402
 35
0.0
 40
0.0
1001
ACAD
1000
DSTYLE
1002
{
1070
    41
1040
0.2
1070
    42
1040
0.1
1070
    43
1040
0.039
1070
    44
1040
0.2
1070
    73
1070
     0
1070
   141
1040
0.039
1070
   147
1040
0.05
1070
   288
1070
     1
1070
   340
1005
B97
1002
}
  0
DIMENSION
  5
22DB
330
2
100
AcDbEntity
  8
0
100
AcDbDimension
  2
*D4
 10
1742.602807675957
 20
1471.758989812656
 30
0.0
 11
1628.072456620583
 21
1474.457873457388
 31
0.0
 70
   164
 71
     5
 42
118.346220000001
  3
DIN
100
AcDbRadialDimension
 15
1624.289432784996
 25
1474.547019618763
 35
0.0
 40
0.0
1001
ACAD
1000
DSTYLE
1002
{
1070
    41
1040
0.2
1070
    42
1040
0.1
1070
    43
1040
0.039
1070
    44
1040
0.2
1070
    73
1070
     0
1070
   141
1040
0.039
1070
   147
1040
0.05
1070
   288
1070
     1
1070
   340
1005
B97
1002
}
  0
DIMENSION
  5
22E4
330
2
100
AcDbEntity
  8
0
100
AcDbDimension
  2
*D5
 10
1628.061565699091
 20
1467.904749648669
 30
0.0
 11
1626.982482297149
 21
1466.652303743234
 31
0.0
 70
   164
 71
     5
 42
3.740150000002358
  3
DIN
100
AcDbRadialDimension
 15
1625.620267106602
 25
1465.071238892589
 35
0.0
 40
0.0
1001
ACAD
1000
DSTYLE
1002
{
1070
    41
1040
0.2
1070
    42
1040
0.1
1070
    43
1040
0.039
1070
    44
1040
0.2
1070
    73
1070
     0
1070
   141
1040
0.039
1070
   147
1040
0.05
1070
   288
1070
     1
1070
   340
1005
B97
1002
}
  0
DIMENSION
  5
22ED
330
2
100
AcDbEntity
  8
0
100
AcDbDimension
  2
*D6
 10
1633.351057675953
 20
1582.388689812657
 30
0.0
 11
1629.928595656487
 21
1465.986339226001
 31
0.0
 70
   164
 71
     5
 42
118.3462200000003
  3
DIN
100
AcDbRadialDimension
 15
1629.872945056759
 25
1464.093590502091
 35
0.0
 40
0.0
1001
ACAD
1000
DSTYLE
1002
{
1070
    41
1040
0.2
1070
    42
1040
0.1
1070
    43
1040
0.039
1070
    44
1040
0.2
1070
    73
1070
     0
1070
   141
1040
0.039
1070
   147
1040
0.05
1070
   288
1070
     1
1070
   340
1005
B97
1002
}
  0
DIMENSION
  5
22F6
330
2
100
AcDbEntity
  8
0
100
AcDbDimension
  2
*D7
 10
1651.235824474993
 20
1467.812968908648
 30
0.0
 11
1652.076756181912
 21
1467.010556595203
 31
0.0
 70
   164
 71
     5
 42
3.740149999999403
  3
DIN
100
AcDbRadialDimension
 15
1653.941757138677
 25
1465.230983153052
 35
0.0
 40
0.0
1001
ACAD
1000
DSTYLE
1002
{
1070
    41
1040
0.2
1070
    42
1040
0.1
1070
    43
1040
0.039
1070
    44
1040
0.2
1070
    73
1070
     0
1070
   141
1040
0.039
1070
   147
1040
0.05
1070
   288
1070
     1
1070
   340
1005
B97
1002
}
  0
DIMENSION
  5
22FF
330
2
100
AcDbEntity
  8
0
100
AcDbDimension
  2
*D8
 10
1536.697707675956
 20
1471.758989812657
 30
0.0
 11
1652.612788052647
 21
1472.517029926436
 31
0.0
 70
   164
 71
     5
 42
118.3462199999992
  3
DIN
100
AcDbRadialDimension
 15
1655.041397125735
 25
1472.532912097177
 35
0.0
 40
0.0
1001
ACAD
1000
DSTYLE
1002
{
1070
    41
1040
0.2
1070
    42
1040
0.1
1070
    43
1040
0.039
1070
    44
1040
0.2
1070
    73
1070
     0
1070
   141
1040
0.039
1070
   147
1040
0.05
1070
   288
1070
     1
1070
   340
1005
B97
1002
}
  0
DIMENSION
  5
2308
330
2
100
AcDbEntity
  8
0
100
AcDbDimension
  2
*D9
 10
1649.099057675957
 20
1543.018689812655
 30
0.0
 11
1650.443328637302
 21
1466.916743098234
 31
0.0
 70
   164
 71
     5
 42
78.73999999999887
  3
DIN
100
AcDbRadialDimension
 15
1650.48971048592
 25
1464.290971156759
 35
0.0
 40
0.0
1001
ACAD
1000
DSTYLE
1002
{
1070
    41
1040
0.2
1070
    42
1040
0.1
1070
    43
1040
0.039
1070
    44
1040
0.2
1070
    73
1070
     0
1070
   141
1040
0.039
1070
   147
1040
0.05
1070
   288
1070
     1
1070
   340
1005
B97
1002
}
  0
ARC
  5
2356
330
2
100
AcDbEntity
  8
0
100
AcDbCircle
 10
1642.386570969524
 20
1480.852509812656
 30
0.0
 40
1.376999999999999
100
AcDbArc
 50
214.6346052276336
 51
270.0000000000094
  0
ARC
  5
2357
330
2
100
AcDbEntity
  8
\M+5B4D6\M+5CAB5\M+5CFDF
 62
     1
100
AcDbCircle
 10
1636.200218867991
 20
1476.579314507657
 30
0.0
 40
5.905499999999999
100
AcDbArc
 50
34.6346052276344
 51
78.06697776900958
  0
ARC
  5
2358
330
2
100
AcDbEntity
  8
0
 62
     1
100
AcDbCircle
 10
1642.386570969524
 20
1480.852509812656
 30
0.0
 40
1.613219999999999
100
AcDbArc
 50
214.6346052276336
 51
270.0000000000094
  0
LINE
  5
2359
330
2
100
AcDbEntity
  8
\M+5B1EA\M+5D7A2\M+5CFDF
 62
     1
 48
3.0
100
AcDbLine
 10
1649.099057675956
 20
1479.239289812656
 30
0.0
 11
1642.386570969525
 21
1479.239289812656
 31
0.0
  0
DIMENSION
  5
2399
330
2
100
AcDbEntity
  8
0
100
AcDbDimension
  2
*D10
 10
1642.386570969526
 20
1480.852509812656
 30
0.0
 11
1642.968188015891
 21
1481.673302336246
 31
0.0
 70
   164
 71
     5
 42
1.377000000000407
  3
DIN
100
AcDbRadialDimension
 15
1641.5904384403
 25
1479.728987674062
 35
0.0
 40
0.0
1001
ACAD
1000
DSTYLE
1002
{
1070
    41
1040
0.2
1070
    42
1040
0.1
1070
    43
1040
0.039
1070
    44
1040
0.2
1070
    73
1070
     0
1070
   141
1040
0.039
1070
   147
1040
0.05
1070
   279
1070
     1
1070
   288
1070
     1
1070
   340
1005
B97
1002
}
  0
DIMENSION
  5
23BD
330
2
100
AcDbEntity
  8
0
100
AcDbDimension
  2
*D11
 10
1623.585542817591
 20
1482.782589812656
 30
0.0
 11
1623.338692817591
 21
1473.530639812657
 31
0.0
 70
    32
 71
     5
 42
18.50389999999947
  3
DIN
100
AcDbAlignedDimension
 13
1633.351057675953
 23
1464.278689812657
 33
0.0
 14
1633.351057675955
 24
1482.782589812656
 34
0.0
 50
90.0
100
AcDbRotatedDimension
1001
ACAD
1000
DSTYLE
1002
{
1070
    41
1040
0.2
1070
    42
1040
0.1
1070
    43
1040
0.039
1070
    44
1040
0.2
1070
    73
1070
     0
1070
   141
1040
0.039
1070
   147
1040
0.05
1070
   340
1005
B97
1002
}
  0
DIMENSION
  5
23CA
330
2
100
AcDbEntity
  8
0
100
AcDbDimension
  2
*D12
 10
1622.631682840577
 20
1483.018809812656
 30
0.0
 11
1622.384832840577
 21
1473.530639812657
 31
0.0
 70
    32
 71
     5
 42
18.97633999999971
  3
DIN
100
AcDbAlignedDimension
 13
1633.351057675953
 23
1464.042469812657
 33
0.0
 14
1633.351057675955
 24
1483.018809812656
 34
0.0
 50
90.0
100
AcDbRotatedDimension
1001
ACAD
1000
DSTYLE
1002
{
1070
    41
1040
0.2
1070
    42
1040
0.1
1070
    43
1040
0.039
1070
    44
1040
0.2
1070
    73
1070
     0
1070
   141
1040
0.039
1070
   147
1040
0.05
1070
   340
1005
B97
1002
}
  0
DIMENSION
  5
23D7
330
2
100
AcDbEntity
  8
0
100
AcDbDimension
  2
*D13
 10
1656.016788453879
 20
1479.231348780101
 30
0.0
 11
1655.769938453879
 21
1471.758989812657
 31
0.0
 70
    32
 71
     5
 42
14.94471793488992
  3
DIN
100
AcDbAlignedDimension
 13
1650.217311111784
 23
1464.286630845212
 33
0.0
 14
1650.217311111784
 24
1479.231348780101
 34
0.0
 50
90.0
100
AcDbRotatedDimension
1001
ACAD
1000
DSTYLE
1002
{
1070
    41
1040
0.2
1070
    42
1040
0.1
1070
    43
1040
0.039
1070
    44
1040
0.2
1070
    73
1070
     0
1070
   141
1040
0.039
1070
   147
1040
0.05
1070
   340
1005
B97
1002
}
  0
DIMENSION
  5
23E4
330
2
100
AcDbEntity
  8
0
100
AcDbDimension
  2
*D14
 10
1656.811671850337
 20
1479.467544957004
 30
0.0
 11
1656.564821850337
 21
1471.758989812657
 31
0.0
 70
    32
 71
     5
 42
15.41711028869485
  3
DIN
100
AcDbAlignedDimension
 13
1650.220665872091
 23
1464.050434668309
 33
0.0
 14
1650.220665872091
 24
1479.467544957004
 34
0.0
 50
90.0
100
AcDbRotatedDimension
1001
ACAD
1000
DSTYLE
1002
{
1070
    41
1040
0.2
1070
    42
1040
0.1
1070
    43
1040
0.039
1070
    44
1040
0.2
1070
    73
1070
     0
1070
   141
1040
0.039
1070
   147
1040
0.05
1070
   340
1005
B97
1002
}
  0
DIMENSION
  5
23F1
330
2
100
AcDbEntity
  8
0
100
AcDbDimension
  2
*D15
 10
1636.200218867992
 20
1476.579314507658
 30
0.0
 11
1638.21139859598
 21
1478.870321622621
 31
0.0
 70
   164
 71
     5
 42
6.141719999997803
  3
DIN
100
AcDbRadialDimension
 15
1640.252036601157
 25
1481.194885719934
 35
0.0
 40
0.0
1001
ACAD
1000
DSTYLE
1002
{
1070
    41
1040
0.2
1070
    42
1040
0.1
1070
    43
1040
0.039
1070
    44
1040
0.2
1070
    73
1070
     0
1070
   141
1040
0.039
1070
   147
1040
0.05
1070
   288
1070
     1
1070
   340
1005
B97
1002
}
  0
MTEXT
  5
2412
330
2
100
AcDbEntity
  8
0
100
AcDbMText
 10
1632.794098143015
 20
1466.820020266977
 30
0.0
 40
0.3937
 41
13.37923833333333
 71
     1
 72
     5
  1
Outside line Reveal mount catting line\PInside line Flush mount catting line
  7
스타일2
 73
     1
 44
1.0
  0
MTEXT
  5
241B
330
2
100
AcDbEntity
  8
0
100
AcDbMText
 10
1635.537069978042
 20
1473.407379024128
 30
0.0
 40
0.7874
 41
13.04891486035922
 71
     1
 72
     5
  1
{\C2;SP-321R}
  7
스타일2
 73
     1
 44
1.0
  0
VIEWPORT
  5
74
330
C
100
AcDbEntity
 67
     1
  8
0
100
AcDbViewport
 10
490.633788896909
 20
297.0009369707932
 30
0.0
 40
1115.370256166983
 41
599.3755656108596
 68
     1
 69
     1
 12
490.633788896909
 22
297.0009369707932
 13
0.0
 23
0.0
 14
10.0
 24
10.0
 15
10.0
 25
10.0
 16
0.0
 26
0.0
 36
1.0
 17
0.0
 27
0.0
 37
0.0
 42
50.0
 43
0.0
 44
0.0
 45
599.3755656108596
 50
0.0
 51
0.0
 72
  1000
 90
    32800
  1

281
     0
 71
     1
 74
     0
110
0.0
120
0.0
130
0.0
111
1.0
121
0.0
131
0.0
112
0.0
122
1.0
132
0.0
 79
     0
146
0.0
170
     0
  0
ENDSEC
  0
SECTION
  2
OBJECTS
  0
DICTIONARY
  5
7
330
0
100
AcDbDictionary
281
     1
  3
ACAD_COLOR
350
5A3
  3
ACAD_GROUP
350
20
  3
ACAD_LAYOUT
350
B
  3
ACAD_MATERIAL
350
5A2
  3
ACAD_MLINESTYLE
350
21
  3
ACAD_PLOTSETTINGS
350
22
  3
ACAD_PLOTSTYLENAME
350
6
  3
ACAD_TABLESTYLE
350
5C3
  3
AcDbVariableDictionary
350
81
  0
DICTIONARY
  5
95E
330
2
100
AcDbDictionary
280
     1
281
     1
  3
ACAD_SORTENTS
360
95F
  0
DICTIONARY
  5
5A3
102
{ACAD_REACTORS
330
7
102
}
330
7
100
AcDbDictionary
281
     1
  0
DICTIONARY
  5
20
102
{ACAD_REACTORS
330
7
102
}
330
7
100
AcDbDictionary
281
     1
  0
DICTIONARY
  5
B
102
{ACAD_REACTORS
330
7
102
}
330
7
100
AcDbDictionary
281
     1
  3
DIN A1 Title Block
350
F
  3
Model
350
A
  0
DICTIONARY
  5
5A2
102
{ACAD_REACTORS
330
7
102
}
330
7
100
AcDbDictionary
281
     1
  0
DICTIONARY
  5
21
102
{ACAD_REACTORS
330
7
102
}
330
7
100
AcDbDictionary
281
     1
  3
Standard
350
23
  0
DICTIONARY
  5
22
102
{ACAD_REACTORS
330
7
102
}
330
7
100
AcDbDictionary
281
     1
  0
ACDBDICTIONARYWDFLT
  5
6
102
{ACAD_REACTORS
330
7
102
}
330
7
100
AcDbDictionary
281
     1
  3
Normal
350
5
100
AcDbDictionaryWithDefault
340
5
  0
DICTIONARY
  5
5C3
102
{ACAD_REACTORS
330
7
102
}
330
7
100
AcDbDictionary
281
     1
  3
Standard
350
5C4
  0
DICTIONARY
  5
81
102
{ACAD_REACTORS
330
7
102
}
330
7
100
AcDbDictionary
281
     1
  3
CTABLESTYLE
350
5EE
  3
DIMASSOC
350
82
  0
SORTENTSTABLE
  5
95F
102
{ACAD_REACTORS
330
95E
102
}
330
95E
100
AcDbSortentsTable
330
2
331
182F
  5
182F
331
1832
  5
1832
331
22BC
  5
2323
331
385
  5
385
331
1835
  5
1835
331
1838
  5
183B
331
22DB
  5
2326
331
3FB
  5
3FB
331
183B
  5
183E
331
183E
  5
1841
331
22E4
  5
2327
331
22ED
  5
2328
331
2357
  5
1836
331
22F6
  5
2335
331
1840
  5
1843
331
1843
  5
20B0
331
182D
  5
182D
331
1830
  5
1830
331
1833
  5
1833
331
386
  5
386
331
1836
  5
1839
331
1839
  5
183C
331
3FC
  5
3FC
331
183C
  5
183F
331
183F
  5
1842
331
22C9
  5
2324
331
22D2
  5
2325
331
2358
  5
1838
331
1841
  5
1844
331
1844
  5
20B2
331
182E
  5
182E
331
1831
  5
1831
331
384
  5
384
331
1837
  5
183A
331
387
  5
387
331
3FA
  5
3FA
331
183A
  5
183D
331
3FD
  5
3FD
331
183D
  5
1840
331
22FF
  5
2356
331
2356
  5
1837
331
2359
  5
20AF
331
2308
  5
2357
331
1842
  5
1845
331
37C
  5
37C
331
182C
  5
182C
  0
LAYOUT
  5
F
102
{ACAD_REACTORS
330
B
102
}
330
B
100
AcDbPlotSettings
  1

  2
none_device
  4
ISO_A1_(841.00_x_594.00_MM)
  6

 40
7.549999999999999
 41
20.05
 42
7.549999999999999
 43
20.05
 44
841.0
 45
594.0
 46
-7.57
 47
-20.06
 48
0.0
 49
0.0
140
0.0
141
0.0
142
1.0
143
1.0
 70
   688
 72
     1
 73
     0
 74
     5
  7

 75
    16
147
1.0
 76
     0
 77
     2
 78
   300
148
0.0128164049386896
149
0.0090630292066862
100
AcDbLayout
  1
DIN A1 Title Block
 70
     1
 71
     1
 10
0.0071835950613108
 20
0.0009369707933118
 11
841.0071835950613
 21
594.0009369707933
 12
0.0
 22
0.0
 32
0.0
 14
1.000000000000000E+20
 24
1.000000000000000E+20
 34
1.000000000000000E+20
 15
-1.000000000000000E+20
 25
-1.000000000000000E+20
 35
-1.000000000000000E+20
146
0.0
 13
0.0
 23
0.0
 33
0.0
 16
1.0
 26
0.0
 36
0.0
 17
0.0
 27
1.0
 37
0.0
 76
     0
330
C
331
74
  0
LAYOUT
  5
A
102
{ACAD_REACTORS
330
B
102
}
330
B
100
AcDbPlotSettings
  1

  2
none_device
  4
ISO_A4_(297.00_x_210.00_MM)
  6

 40
7.5
 41
20.0
 42
7.5
 43
20.0
 44
297.0
 45
210.0
 46
0.0
 47
0.0
 48
969.1120635225747
 49
1410.089773188028
140
997.7071895623689
141
1431.243016253039
142
1.0
143
20.0
 70
 11952
 72
     1
 73
     0
 74
     4
  7

 75
    22
147
0.05
 76
     0
 77
     2
 78
   300
148
-969.1120635225747
149
-1410.089773188028
100
AcDbLayout
  1
Model
 70
     1
 71
     0
 10
0.0
 20
0.0
 11
12.0
 21
9.0
 12
0.0
 22
0.0
 32
0.0
 14
0.0
 24
0.0
 34
0.0
 15
0.0
 25
0.0
 35
0.0
146
0.0
 13
0.0
 23
0.0
 33
0.0
 16
1.0
 26
0.0
 36
0.0
 17
0.0
 27
1.0
 37
0.0
 76
     0
330
2
1001
ACAD_PSEXT
1000
없음
1000
없음
1000
적용 가능하지 않음
1000
배치가 새로운 플로터 구성을 선택할 때까지 플롯되지 않습니다.
1070
     0
  0
MLINESTYLE
  5
23
102
{ACAD_REACTORS
330
21
102
}
330
21
100
AcDbMlineStyle
  2
STANDARD
 70
     0
  3

 62
   256
 51
90.0
 52
90.0
 71
     2
 49
0.5
 62
   256
  6
BYLAYER
 49
-0.5
 62
   256
  6
BYLAYER
  0
ACDBPLACEHOLDER
  5
5
102
{ACAD_REACTORS
330
6
102
}
330
6
  0
TABLESTYLE
  5
5C4
102
{ACAD_REACTORS
330
5C3
102
}
330
5C3
100
AcDbTableStyle
  3
Standard
 70
     0
 71
     8
 40
1.5
 41
1.5
280
     0
281
     0
  7
Standard
140
4.5
170
     2
 62
     0
 63
     7
283
     0
274
    -2
284
     1
 64
     0
275
    -2
285
     1
 65
     0
276
    -2
286
     1
 66
     0
277
    -2
287
     1
 67
     0
278
    -2
288
     1
 68
     0
279
    -2
289
     1
 69
     0
  7
Standard
140
6.0
170
     5
 62
     0
 63
     7
283
     0
274
    -2
284
     1
 64
     0
275
    -2
285
     1
 65
     0
276
    -2
286
     1
 66
     0
277
    -2
287
     1
 67
     0
278
    -2
288
     1
 68
     0
279
    -2
289
     1
 69
     0
  7
Standard
140
4.5
170
     5
 62
     0
 63
     7
283
     0
274
    -2
284
     1
 64
     0
275
    -2
285
     1
 65
     0
276
    -2
286
     1
 66
     0
277
    -2
287
     1
 67
     0
278
    -2
288
     1
 68
     0
279
    -2
289
     1
 69
     0
  0
DICTIONARYVAR
  5
5EE
102
{ACAD_REACTORS
330
81
102
}
330
81
100
DictionaryVariables
280
     0
  1
STANDARD
  0
DICTIONARYVAR
  5
82
102
{ACAD_REACTORS
330
81
102
}
330
81
100
DictionaryVariables
280
     0
  1
1
  0
ENDSEC
  0
EOF
