  0
SECTION
  2
HEADER
  9
$ACADVER
  1
AC1018
  9
$ACADMAINTVER
 70
   104
  9
$DWGCODEPAGE
  3
ANSI_936
  9
$LASTSAVEDBY
  1
Administrator
  9
$INSBASE
 10
0.0
 20
0.0
 30
0.0
  9
$EXTMIN
 10
-688.0852058588604
 20
1121.107462814844
 30
0.0
  9
$EXTMAX
 10
-652.5153242033688
 20
1203.482063234153
 30
0.0
  9
$LIMMIN
 10
0.0
 20
0.0
  9
$LIMMAX
 10
12.0
 20
9.0
  9
$ORTHOMODE
 70
     1
  9
$REGENMODE
 70
     1
  9
$FILLMODE
 70
     1
  9
$QTEXTMODE
 70
     0
  9
$MIRRTEXT
 70
     0
  9
$LTSCALE
 40
1.0
  9
$ATTMODE
 70
     1
  9
$TEXTSIZE
 40
0.2
  9
$TRACEWID
 40
0.05
  9
$TEXTSTYLE
  7
STANDARD
  9
$CLAYER
  8
标注
  9
$CELTYPE
  6
ByLayer
  9
$CECOLOR
 62
   256
  9
$CELTSCALE
 40
1.0
  9
$DISPSILH
 70
     0
  9
$DIMSCALE
 40
1.0
  9
$DIMASZ
 40
0.65
  9
$DIMEXO
 40
0.88
  9
$DIMDLI
 40
0.015
  9
$DIMRND
 40
0.0
  9
$DIMDLE
 40
0.0
  9
$DIMEXE
 40
0.32
  9
$DIMTP
 40
0.0
  9
$DIMTM
 40
0.0
  9
$DIMTXT
 40
0.65
  9
$DIMCEN
 40
0.09
  9
$DIMTSZ
 40
0.0
  9
$DIMTOL
 70
     0
  9
$DIMLIM
 70
     0
  9
$DIMTIH
 70
     0
  9
$DIMTOH
 70
     0
  9
$DIMSE1
 70
     0
  9
$DIMSE2
 70
     0
  9
$DIMTAD
 70
     0
  9
$DIMZIN
 70
     8
  9
$DIMBLK
  1

  9
$DIMASO
 70
     1
  9
$DIMSHO
 70
     1
  9
$DIMPOST
  1

  9
$DIMAPOST
  1
"
  9
$DIMALT
 70
     0
  9
$DIMALTD
 70
     1
  9
$DIMALTF
 40
0.03937
  9
$DIMLFAC
 40
1.0
  9
$DIMTOFL
 70
     1
  9
$DIMTVP
 40
0.0
  9
$DIMTIX
 70
     0
  9
$DIMSOXD
 70
     0
  9
$DIMSAH
 70
     0
  9
$DIMBLK1
  1

  9
$DIMBLK2
  1

  9
$DIMSTYLE
  2
副本STANDARD
  9
$DIMCLRD
 70
   256
  9
$DIMCLRE
 70
   256
  9
$DIMCLRT
 70
   256
  9
$DIMTFAC
 40
1.0
  9
$DIMGAP
 40
0.2
  9
$DIMJUST
 70
     0
  9
$DIMSD1
 70
     0
  9
$DIMSD2
 70
     0
  9
$DIMTOLJ
 70
     1
  9
$DIMTZIN
 70
     8
  9
$DIMALTZ
 70
     8
  9
$DIMALTTZ
 70
     8
  9
$DIMUPT
 70
     0
  9
$DIMDEC
 70
     3
  9
$DIMTDEC
 70
     3
  9
$DIMALTU
 70
     2
  9
$DIMALTTD
 70
     1
  9
$DIMTXSTY
  7
STANDARD
  9
$DIMAUNIT
 70
     0
  9
$DIMADEC
 70
     0
  9
$DIMALTRND
 40
0.0
  9
$DIMAZIN
 70
     0
  9
$DIMDSEP
 70
    46
  9
$DIMATFIT
 70
     3
  9
$DIMFRAC
 70
     2
  9
$DIMLDRBLK
  1

  9
$DIMLUNIT
 70
     5
  9
$DIMLWD
 70
    -2
  9
$DIMLWE
 70
    -2
  9
$DIMTMOVE
 70
     2
  9
$LUNITS
 70
     2
  9
$LUPREC
 70
     4
  9
$SKETCHINC
 40
0.1
  9
$FILLETRAD
 40
0.0
  9
$AUNITS
 70
     0
  9
$AUPREC
 70
     0
  9
$MENU
  1
.
  9
$ELEVATION
 40
0.0
  9
$PELEVATION
 40
0.0
  9
$THICKNESS
 40
0.0
  9
$LIMCHECK
 70
     0
  9
$CHAMFERA
 40
0.0
  9
$CHAMFERB
 40
0.0
  9
$CHAMFERC
 40
0.0
  9
$CHAMFERD
 40
0.0
  9
$SKPOLY
 70
     0
  9
$TDCREATE
 40
2455434.724808658
  9
$TDUCREATE
 40
2455434.391475324
  9
$TDUPDATE
 40
2458690.413976297
  9
$TDUUPDATE
 40
2458690.080642963
  9
$TDINDWG
 40
0.2581324537
  9
$TDUSRTIMER
 40
0.2581154630
  9
$USRTIMER
 70
     1
  9
$ANGBASE
 50
0.0
  9
$ANGDIR
 70
     0
  9
$PDMODE
 70
     0
  9
$PDSIZE
 40
0.0
  9
$PLINEWID
 40
0.0
  9
$SPLFRAME
 70
     0
  9
$SPLINETYPE
 70
     6
  9
$SPLINESEGS
 70
     8
  9
$HANDSEED
  5
1FB9
  9
$SURFTAB1
 70
     6
  9
$SURFTAB2
 70
     6
  9
$SURFTYPE
 70
     6
  9
$SURFU
 70
     6
  9
$SURFV
 70
     6
  9
$UCSBASE
  2

  9
$UCSNAME
  2

  9
$UCSORG
 10
0.0
 20
0.0
 30
0.0
  9
$UCSXDIR
 10
1.0
 20
0.0
 30
0.0
  9
$UCSYDIR
 10
0.0
 20
1.0
 30
0.0
  9
$UCSORTHOREF
  2

  9
$UCSORTHOVIEW
 70
     0
  9
$UCSORGTOP
 10
0.0
 20
0.0
 30
0.0
  9
$UCSORGBOTTOM
 10
0.0
 20
0.0
 30
0.0
  9
$UCSORGLEFT
 10
0.0
 20
0.0
 30
0.0
  9
$UCSORGRIGHT
 10
0.0
 20
0.0
 30
0.0
  9
$UCSORGFRONT
 10
0.0
 20
0.0
 30
0.0
  9
$UCSORGBACK
 10
0.0
 20
0.0
 30
0.0
  9
$PUCSBASE
  2

  9
$PUCSNAME
  2

  9
$PUCSORG
 10
0.0
 20
0.0
 30
0.0
  9
$PUCSXDIR
 10
1.0
 20
0.0
 30
0.0
  9
$PUCSYDIR
 10
0.0
 20
1.0
 30
0.0
  9
$PUCSORTHOREF
  2

  9
$PUCSORTHOVIEW
 70
     0
  9
$PUCSORGTOP
 10
0.0
 20
0.0
 30
0.0
  9
$PUCSORGBOTTOM
 10
0.0
 20
0.0
 30
0.0
  9
$PUCSORGLEFT
 10
0.0
 20
0.0
 30
0.0
  9
$PUCSORGRIGHT
 10
0.0
 20
0.0
 30
0.0
  9
$PUCSORGFRONT
 10
0.0
 20
0.0
 30
0.0
  9
$PUCSORGBACK
 10
0.0
 20
0.0
 30
0.0
  9
$USERI1
 70
     0
  9
$USERI2
 70
     0
  9
$USERI3
 70
     0
  9
$USERI4
 70
     0
  9
$USERI5
 70
     0
  9
$USERR1
 40
0.0
  9
$USERR2
 40
0.0
  9
$USERR3
 40
0.0
  9
$USERR4
 40
0.0
  9
$USERR5
 40
2.5
  9
$WORLDVIEW
 70
     1
  9
$SHADEDGE
 70
     3
  9
$SHADEDIF
 70
    70
  9
$TILEMODE
 70
     1
  9
$MAXACTVP
 70
    64
  9
$PINSBASE
 10
0.0
 20
0.0
 30
0.0
  9
$PLIMCHECK
 70
     0
  9
$PEXTMIN
 10
1.000000000000000E+20
 20
1.000000000000000E+20
 30
1.000000000000000E+20
  9
$PEXTMAX
 10
-1.000000000000000E+20
 20
-1.000000000000000E+20
 30
-1.000000000000000E+20
  9
$PLIMMIN
 10
0.0
 20
0.0
  9
$PLIMMAX
 10
12.0
 20
9.0
  9
$UNITMODE
 70
     0
  9
$VISRETAIN
 70
     1
  9
$PLINEGEN
 70
     0
  9
$PSLTSCALE
 70
     1
  9
$TREEDEPTH
 70
  3020
  9
$CMLSTYLE
  2
Standard
  9
$CMLJUST
 70
     0
  9
$CMLSCALE
 40
1.0
  9
$PROXYGRAPHICS
 70
     1
  9
$MEASUREMENT
 70
     0
  9
$CELWEIGHT
370
    -1
  9
$ENDCAPS
280
     0
  9
$JOINSTYLE
280
     0
  9
$LWDISPLAY
290
     0
  9
$INSUNITS
 70
     0
  9
$HYPERLINKBASE
  1

  9
$STYLESHEET
  1

  9
$XEDIT
290
     1
  9
$CEPSNTYPE
380
     0
  9
$PSTYLEMODE
290
     1
  9
$FINGERPRINTGUID
  2
{0C2D2BA5-08B8-4A7C-BDFC-C2EED1469FF4}
  9
$VERSIONGUID
  2
{9B971DE0-706A-4FA3-81B1-38AF07B53CF4}
  9
$EXTNAMES
290
     1
  9
$PSVPSCALE
 40
0.0
  9
$OLESTARTUP
290
     0
  9
$SORTENTS
280
   127
  9
$INDEXCTL
280
     0
  9
$HIDETEXT
280
     0
  9
$XCLIPFRAME
290
     0
  9
$HALOGAP
280
     0
  9
$OBSCOLOR
 70
   257
  9
$OBSLTYPE
280
     0
  9
$INTERSECTIONDISPLAY
280
     0
  9
$INTERSECTIONCOLOR
 70
   257
  9
$DIMASSOC
280
     1
  9
$PROJECTNAME
  1

  0
ENDSEC
  0
SECTION
  2
CLASSES
  0
CLASS
  1
ACDBDICTIONARYWDFLT
  2
AcDbDictionaryWithDefault
  3
ObjectDBX Classes
 90
        0
 91
        1
280
     0
281
     0
  0
CLASS
  1
MATERIAL
  2
AcDbMaterial
  3
ObjectDBX Classes
 90
     1024
 91
        3
280
     0
281
     0
  0
CLASS
  1
VISUALSTYLE
  2
AcDbVisualStyle
  3
ObjectDBX Classes
 90
     4095
 91
       16
280
     0
281
     0
  0
CLASS
  1
TABLESTYLE
  2
AcDbTableStyle
  3
ObjectDBX Classes
 90
     4095
 91
        1
280
     0
281
     0
  0
CLASS
  1
SORTENTSTABLE
  2
AcDbSortentsTable
  3
ObjectDBX Classes
 90
        0
 91
        1
280
     0
281
     0
  0
CLASS
  1
DICTIONARYVAR
  2
AcDbDictionaryVar
  3
ObjectDBX Classes
 90
        0
 91
        1
280
     0
281
     0
  0
ENDSEC
  0
SECTION
  2
TABLES
  0
TABLE
  2
VPORT
  5
1D84
330
0
100
AcDbSymbolTable
 70
     1
  0
VPORT
  5
1DB7
330
1D84
100
AcDbSymbolTableRecord
100
AcDbViewportTableRecord
  2
*ACTIVE
 70
     0
 10
0.0
 20
0.0
 11
1.0
 21
1.0
 12
-699.2273112389125
 22
1164.099034698938
 13
0.0
 23
0.0
 14
0.5
 24
0.5
 15
0.5
 25
0.5
 16
0.0
 26
0.0
 36
1.0
 17
0.0
 27
0.0
 37
0.0
 40
114.8249055367596
 41
2.205741626794258
 42
50.0
 43
0.0
 44
0.0
 50
0.0
 51
0.0
 71
     0
 72
  1000
 73
     1
 74
     3
 75
     0
 76
     0
 77
     0
 78
     0
281
     0
 65
     1
110
0.0
120
0.0
130
0.0
111
1.0
121
0.0
131
0.0
112
0.0
122
1.0
132
0.0
 79
     0
146
0.0
  0
ENDTAB
  0
TABLE
  2
LTYPE
  5
1D81
330
0
100
AcDbSymbolTable
 70
    19
  0
LTYPE
  5
1DA4
330
1D81
100
AcDbSymbolTableRecord
100
AcDbLinetypeTableRecord
  2
ByBlock
 70
     0
  3

 72
    65
 73
     0
 40
0.0
  0
LTYPE
  5
1DA5
330
1D81
100
AcDbSymbolTableRecord
100
AcDbLinetypeTableRecord
  2
ByLayer
 70
     0
  3

 72
    65
 73
     0
 40
0.0
  0
LTYPE
  5
1DA6
330
1D81
100
AcDbSymbolTableRecord
100
AcDbLinetypeTableRecord
  2
CONTINUOUS
 70
     0
  3
Solid line
 72
    65
 73
     0
 40
0.0
  0
LTYPE
  5
1DB8
330
1D81
100
AcDbSymbolTableRecord
100
AcDbLinetypeTableRecord
  2
CENTER2
 70
     0
  3
Center (.5x) ___ _ ___ _ ___ _ ___ _ ___ _ ___
 72
    65
 73
     4
 40
28.575
 49
19.05
 74
     0
 49
-3.174999999999998
 74
     0
 49
3.174999999999998
 74
     0
 49
-3.174999999999998
 74
     0
  0
LTYPE
  5
1DB9
330
1D81
100
AcDbSymbolTableRecord
100
AcDbLinetypeTableRecord
  2
HIDDEN2
 70
     0
  3
Hidden (.5x) _ _ _ _ _ _ _ _ _ _ _ _ _ _ _ _ _
 72
    65
 73
     2
 40
4.762499999999998
 49
3.174999999999998
 74
     0
 49
-1.587499999999999
 74
     0
  0
LTYPE
  5
1DBA
330
1D81
100
AcDbSymbolTableRecord
100
AcDbLinetypeTableRecord
  2
HIDDEN
 70
     0
  3
Hidden __ __ __ __ __ __ __ __ __ __ __ __ __ _
 72
    65
 73
     2
 40
0.375
 49
0.25
 74
     0
 49
-0.125
 74
     0
  0
LTYPE
  5
1DBB
330
1D81
100
AcDbSymbolTableRecord
100
AcDbLinetypeTableRecord
  2
PHANTOM2
 70
     0
  3
Phantom (.5x) ___ _ _ ___ _ _ ___ _ _ ___ _ _
 72
    65
 73
     6
 40
1.25
 49
0.625
 74
     0
 49
-0.125
 74
     0
 49
0.125
 74
     0
 49
-0.125
 74
     0
 49
0.125
 74
     0
 49
-0.125
 74
     0
  0
LTYPE
  5
1DBC
330
1D81
100
AcDbSymbolTableRecord
100
AcDbLinetypeTableRecord
  2
CENTER
 70
     0
  3
Center ____ _ ____ _ ____ _ ____ _ ____ _ ____
 72
    65
 73
     4
 40
2.0
 49
1.25
 74
     0
 49
-0.25
 74
     0
 49
0.25
 74
     0
 49
-0.25
 74
     0
  0
LTYPE
  5
1DBD
330
1D81
100
AcDbSymbolTableRecord
100
AcDbLinetypeTableRecord
  2
AM_ISO02W050
 70
     0
  3
__ __ __ __ __ __ __ __ __ __ __ __ __ __ __
 72
    65
 73
     2
 40
7.5
 49
6.0
 74
     0
 49
-1.5
 74
     0
  0
LTYPE
  5
1DBE
330
1D81
100
AcDbSymbolTableRecord
100
AcDbLinetypeTableRecord
  2
AM_ISO08W050
 70
     0
  3
____ . ____ . ____ . ____ . ____ . ____ . ____
 72
    65
 73
     4
 40
18.0
 49
12.0
 74
     0
 49
-1.5
 74
     0
 49
3.0
 74
     0
 49
-1.5
 74
     0
  0
LTYPE
  5
1DBF
330
1D81
100
AcDbSymbolTableRecord
100
AcDbLinetypeTableRecord
  2
AM_ISO09W050
 70
     0
  3
_____ . . _____ . . _____ . . ____ .. ____
 72
    65
 73
     6
 40
22.5
 49
12.0
 74
     0
 49
-1.5
 74
     0
 49
3.0
 74
     0
 49
-1.5
 74
     0
 49
3.0
 74
     0
 49
-1.5
 74
     0
  0
LTYPE
  5
1DC0
330
1D81
100
AcDbSymbolTableRecord
100
AcDbLinetypeTableRecord
  2
AMCONSTR
 70
     0
  3
_______________________
 72
    65
 73
     2
 40
9999.0
 49
9999.0
 74
     0
 49
0.0
 74
     0
  0
LTYPE
  5
1DC1
330
1D81
100
AcDbSymbolTableRecord
100
AcDbLinetypeTableRecord
  2
AM_ISO08W050X2
 70
     0
  3
__ . __ . __ . __ . __ . __
 72
    65
 73
     4
 40
9.0
 49
6.0
 74
     0
 49
-0.75
 74
     0
 49
1.5
 74
     0
 49
-0.75
 74
     0
  0
LTYPE
  5
1DC2
330
1D81
100
AcDbSymbolTableRecord
100
AcDbLinetypeTableRecord
  2
AM_ISO02W050X2
 70
     0
  3
 _ _ _ _ _ _ _ _ _ _ _ _
 72
    65
 73
     2
 40
3.75
 49
3.0
 74
     0
 49
-0.75
 74
     0
  0
LTYPE
  5
1DC3
330
1D81
100
AcDbSymbolTableRecord
100
AcDbLinetypeTableRecord
  2
AMZIGZAG
 70
     0
  3
/\/-/\/-/\/-/\/-/\/-/\/
 72
    65
 73
     2
 40
11.0001
 49
0.0001
 74
     0
 49
-11.0
 74
     0
  0
LTYPE
  5
1DC4
330
1D81
100
AcDbSymbolTableRecord
100
AcDbLinetypeTableRecord
  2
AMZIGZAG2
 70
     0
  3
/\/-/\/-/\/-/\/-/\/-/\/
 72
    65
 73
     2
 40
0.4401
 49
0.0001
 74
     0
 49
-0.4400000000000003
 74
     0
  0
LTYPE
  5
1DC5
330
1D81
100
AcDbSymbolTableRecord
100
AcDbLinetypeTableRecord
  2
ACANSTGB
 70
     0
  3
__ . . __ . .
 72
    65
 73
     6
 40
0.35433070866
 49
0.15748031496
 74
     0
 49
-0.03937007874
 74
     0
 49
0.03937007874
 74
     0
 49
-0.03937007874
 74
     0
 49
0.03937007874
 74
     0
 49
-0.03937007874
 74
     0
  0
LTYPE
  5
1DC6
330
1D81
100
AcDbSymbolTableRecord
100
AcDbLinetypeTableRecord
  2
ACANSTGL
 70
     0
  3
_ _ _ _ _
 72
    65
 73
     2
 40
0.11811023622
 49
0.07874015748
 74
     0
 49
-0.03937007874
 74
     0
  0
LTYPE
  5
1DC7
330
1D81
100
AcDbSymbolTableRecord
100
AcDbLinetypeTableRecord
  2
ACISOWELD
 70
     0
  3
_ _ _ _ _
 72
    65
 73
     2
 40
2.0
 49
2.0
 74
     0
 49
-1.0
 74
     0
  0
LTYPE
  5
1DC8
330
1D81
100
AcDbSymbolTableRecord
100
AcDbLinetypeTableRecord
  2
ACISOTGB
 70
     0
  3
__ . . __ . .
 72
    65
 73
     6
 40
9.0
 49
4.0
 74
     0
 49
-1.0
 74
     0
 49
1.0
 74
     0
 49
-1.0
 74
     0
 49
1.0
 74
     0
 49
-1.0
 74
     0
  0
LTYPE
  5
1DC9
330
1D81
100
AcDbSymbolTableRecord
100
AcDbLinetypeTableRecord
  2
ACISOTGL
 70
     0
  3
_ _ _ _ _
 72
    65
 73
     2
 40
3.0
 49
2.0
 74
     0
 49
-1.0
 74
     0
  0
ENDTAB
  0
TABLE
  2
LAYER
  5
1D7E
330
0
100
AcDbSymbolTable
 70
     8
  0
LAYER
  5
1DA1
330
1D7E
100
AcDbSymbolTableRecord
100
AcDbLayerTableRecord
  2
0
 70
     0
 62
     7
  6
CONTINUOUS
370
    -3
390
1D8B
  0
LAYER
  5
1DB6
330
1D7E
100
AcDbSymbolTableRecord
100
AcDbLayerTableRecord
  2
标注
 70
     0
 62
    80
  6
CONTINUOUS
370
    -3
390
1D8B
  0
LAYER
  5
1DCA
330
1D7E
100
AcDbSymbolTableRecord
100
AcDbLayerTableRecord
  2
中心线
 70
     0
 62
     1
  6
CENTER2
370
    -3
390
1D8B
  0
LAYER
  5
1DCB
330
1D7E
100
AcDbSymbolTableRecord
100
AcDbLayerTableRecord
  2
虚线
 70
     0
 62
     4
  6
HIDDEN2
370
    -3
390
1D8B
  0
LAYER
  5
1DCC
330
1D7E
100
AcDbSymbolTableRecord
100
AcDbLayerTableRecord
  2
DEFPOINTS
 70
     0
 62
     7
  6
CONTINUOUS
290
     0
370
    -3
390
1D8B
  0
LAYER
  5
1DCD
330
1D7E
100
AcDbSymbolTableRecord
100
AcDbLayerTableRecord
  2
细实线
 70
     0
 62
     7
  6
CONTINUOUS
370
    -3
390
1D8B
  0
LAYER
  5
1DCE
330
1D7E
100
AcDbSymbolTableRecord
100
AcDbLayerTableRecord
  2
标注线
 70
     0
 62
     3
  6
CONTINUOUS
370
    -3
390
1D8B
  0
LAYER
  5
1DCF
330
1D7E
100
AcDbSymbolTableRecord
100
AcDbLayerTableRecord
  2
截面层
 70
     0
 62
     6
  6
CONTINUOUS
370
    -3
390
1D8B
  0
ENDTAB
  0
TABLE
  2
STYLE
  5
1D7F
330
0
100
AcDbSymbolTable
 70
     6
  0
STYLE
  5
1DA2
330
1D7F
100
AcDbSymbolTableRecord
100
AcDbTextStyleTableRecord
  2
STANDARD
 70
     0
 40
0.0
 41
1.0
 50
0.0
 71
     0
 42
0.2
  3
ARIALUNI.TTF
  4

1001
ACAD
1000
@Arial Unicode MS
1071
    34338
  0
STYLE
  5
1DD0
330
1D7F
100
AcDbSymbolTableRecord
100
AcDbTextStyleTableRecord
  2

 70
     1
 40
0.0
 41
1.0
 50
0.0
 71
     0
 42
0.2
  3
genltshp.shx
  4

  0
STYLE
  5
1DD1
330
1D7F
100
AcDbSymbolTableRecord
100
AcDbTextStyleTableRecord
  2
ACANSGDT
 70
     0
 40
0.0
 41
1.0
 50
0.0
 71
     0
 42
0.2
  3
amgdt.shx
  4

  0
STYLE
  5
1DD2
330
1D7F
100
AcDbSymbolTableRecord
100
AcDbTextStyleTableRecord
  2
ACISOGDT
 70
     0
 40
0.0
 41
1.0
 50
0.0
 71
     0
 42
2.5
  3
amgdt.shx
  4

  0
STYLE
  5
1DD3
330
1D7F
100
AcDbSymbolTableRecord
100
AcDbTextStyleTableRecord
  2
ACANSTS
 70
     0
 40
1.0
 41
1.0
 50
0.0
 71
     0
 42
0.2
  3
romans.shx
  4
gbcbig.shx
  0
STYLE
  5
1DD4
330
1D7F
100
AcDbSymbolTableRecord
100
AcDbTextStyleTableRecord
  2
A35
 70
     0
 40
17.5
 41
1.0
 50
0.0
 71
     0
 42
17.5
  3
txt.shx
  4

  0
ENDTAB
  0
TABLE
  2
VIEW
  5
1D82
330
0
100
AcDbSymbolTable
 70
     0
  0
ENDTAB
  0
TABLE
  2
UCS
  5
1D83
330
0
100
AcDbSymbolTable
 70
     0
  0
ENDTAB
  0
TABLE
  2
APPID
  5
1D85
330
0
100
AcDbSymbolTable
 70
    24
  0
APPID
  5
1DA3
330
1D85
100
AcDbSymbolTableRecord
100
AcDbRegAppTableRecord
  2
ACAD
 70
     0
  0
APPID
  5
1DD5
330
1D85
100
AcDbSymbolTableRecord
100
AcDbRegAppTableRecord
  2
ACAECLAYERSTANDARD
 70
     0
  0
APPID
  5
1DD6
330
1D85
100
AcDbSymbolTableRecord
100
AcDbRegAppTableRecord
  2
ACAD_DSTYLE_DIMEXT_LENGTH
 70
     0
  0
APPID
  5
1DD7
330
1D85
100
AcDbSymbolTableRecord
100
AcDbRegAppTableRecord
  2
ACAD_DSTYLE_DIMEXT_ENABLED
 70
     0
  0
APPID
  5
1DD8
330
1D85
100
AcDbSymbolTableRecord
100
AcDbRegAppTableRecord
  2
ACAD_DSTYLE_DIMJOGGED_JOGA
 70
     0
  0
APPID
  5
1DD9
330
1D85
100
AcDbSymbolTableRecord
100
AcDbRegAppTableRecord
  2
ACAD_DSTYLE_DIMARC_LENGTH_
 70
     0
  0
APPID
  5
1DDA
330
1D85
100
AcDbSymbolTableRecord
100
AcDbRegAppTableRecord
  2
ACAD_PSEXT
 70
     0
  0
APPID
  5
1DDB
330
1D85
100
AcDbSymbolTableRecord
100
AcDbRegAppTableRecord
  2
MCAD_NO_VIS
 70
     0
  0
APPID
  5
1DDC
330
1D85
100
AcDbSymbolTableRecord
100
AcDbRegAppTableRecord
  2
ACAD_TEMP_GRAPHIC
 70
     0
  0
APPID
  5
1DDD
330
1D85
100
AcDbSymbolTableRecord
100
AcDbRegAppTableRecord
  2
AD_DRAW
 70
     0
  0
APPID
  5
1DDE
330
1D85
100
AcDbSymbolTableRecord
100
AcDbRegAppTableRecord
  2
ACATTRIBSERVICES
 70
     0
  0
APPID
  5
1DDF
330
1D85
100
AcDbSymbolTableRecord
100
AcDbRegAppTableRecord
  2
DESIGNERASSEMBLIES
 70
     0
  0
APPID
  5
1DE0
330
1D85
100
AcDbSymbolTableRecord
100
AcDbRegAppTableRecord
  2
ACADM_DIM_EDIT
 70
     0
  0
APPID
  5
1DE1
330
1D85
100
AcDbSymbolTableRecord
100
AcDbRegAppTableRecord
  2
AMDT_DM_ADJ
 70
     0
  0
APPID
  5
1DE2
330
1D85
100
AcDbSymbolTableRecord
100
AcDbRegAppTableRecord
  2
ACAD_DSTYLE_DIMJAG
 70
     0
  0
APPID
  5
1DE3
330
1D85
100
AcDbSymbolTableRecord
100
AcDbRegAppTableRecord
  2
ACAD_DSTYLE_DIMBREAK
 70
     0
  0
APPID
  5
1DE4
330
1D85
100
AcDbSymbolTableRecord
100
AcDbRegAppTableRecord
  2
ACAD_DSTYLE_DIMTALN
 70
     0
  0
APPID
  5
1DE5
330
1D85
100
AcDbSymbolTableRecord
100
AcDbRegAppTableRecord
  2
GENIUS_GENODEF_13
 70
     0
  0
APPID
  5
1DE6
330
1D85
100
AcDbSymbolTableRecord
100
AcDbRegAppTableRecord
  2
GENIUS_GENOBJ-N-FIL_13
 70
     0
  0
APPID
  5
1DE7
330
1D85
100
AcDbSymbolTableRecord
100
AcDbRegAppTableRecord
  2
ACAD_EXEMPT_FROM_CAD_STANDARDS
 70
     0
  0
APPID
  5
1DE8
330
1D85
100
AcDbSymbolTableRecord
100
AcDbRegAppTableRecord
  2
ACAD_MLEADERVER
 70
     0
  0
APPID
  5
1DE9
330
1D85
100
AcDbSymbolTableRecord
100
AcDbRegAppTableRecord
  2
ACAD_DSTYLE_DIM_LINETYPE
 70
     0
  0
APPID
  5
1DEA
330
1D85
100
AcDbSymbolTableRecord
100
AcDbRegAppTableRecord
  2
ACAD_DSTYLE_DIM_EXT1_LINETYPE
 70
     0
  0
APPID
  5
1DEB
330
1D85
100
AcDbSymbolTableRecord
100
AcDbRegAppTableRecord
  2
ACAD_DSTYLE_DIM_EXT2_LINETYPE
 70
     0
  0
ENDTAB
  0
TABLE
  2
DIMSTYLE
  5
1D86
330
0
100
AcDbSymbolTable
 70
    19
100
AcDbDimStyleTable
 71
     3
340
1DED
340
1DEC
340
1DFE
  0
DIMSTYLE
105
1DEC
330
1D86
100
AcDbSymbolTableRecord
100
AcDbDimStyleTableRecord
  2
STANDARD
 70
     0
274
     1
279
     2
284
     8
285
     8
286
     8
340
1DA2
  0
DIMSTYLE
105
1DED
102
{ACAD_REACTORS
330
1CB6
330
1CD0
330
1BD9
330
1BBF
330
1BA5
330
1B8B
330
1BF3
102
}
330
1D86
100
AcDbSymbolTableRecord
100
AcDbDimStyleTableRecord
  2
副本STANDARD
 70
     0
  4
"
 41
0.65
 42
0.88
 43
0.015
 44
0.32
 73
     0
 74
     0
 78
     8
140
0.65
143
0.03937
147
0.2
171
     1
172
     1
176
   256
177
   256
178
   256
271
     3
272
     3
274
     1
276
     2
277
     5
279
     2
284
     8
285
     8
286
     8
340
1DA2
  0
DIMSTYLE
105
1DEE
330
1D86
100
AcDbSymbolTableRecord
100
AcDbDimStyleTableRecord
  2
AM_ANSI
 70
     0
  4
mm
 41
0.12
 42
0.05
 43
0.5
 44
0.1
 47
0.1
 48
0.1
 78
     7
140
0.12
141
0.0
146
0.71
147
0.06
176
   256
177
   256
178
     2
274
     1
279
     2
284
     8
285
     8
286
     8
340
1DA2
  0
DIMSTYLE
105
1DEF
330
1D86
100
AcDbSymbolTableRecord
100
AcDbDimStyleTableRecord
  2
AM_ANSI$3
 70
     0
  4
mm
 41
0.12
 42
0.05
 43
0.5
 44
0.1
 47
0.1
 48
0.1
 78
     7
140
0.12
141
0.0
146
0.71
147
0.06
176
   256
177
   256
178
     2
274
     1
279
     2
284
     8
285
     8
286
     8
340
1DA2
  0
DIMSTYLE
105
1DF0
330
1D86
100
AcDbSymbolTableRecord
100
AcDbDimStyleTableRecord
  2
AM_ANSI$4
 70
     0
  4
mm
 41
0.12
 42
0.05
 43
0.5
 44
0.1
 47
0.1
 48
0.1
 78
     7
140
0.12
141
0.0
146
0.71
147
0.06
176
   256
177
   256
178
     2
274
     1
279
     2
284
     8
285
     8
286
     8
340
1DA2
  0
DIMSTYLE
105
1DF1
330
1D86
100
AcDbSymbolTableRecord
100
AcDbDimStyleTableRecord
  2
AM_ANSI$7
 70
     0
  4
mm
 41
0.12
 42
0.05
 43
0.5
 44
0.1
 47
0.1
 48
0.1
 78
     7
140
0.12
141
0.0
146
0.71
147
0.06
176
   256
177
   256
178
     2
274
     1
279
     2
284
     8
285
     8
286
     8
340
1DA2
  0
DIMSTYLE
105
1DF2
330
1D86
100
AcDbSymbolTableRecord
100
AcDbDimStyleTableRecord
  2
AM_ANSI$SF
 70
     0
  4
mm
 41
0.12
 42
0.05
 43
0.5
 44
0.1
 47
0.1
 48
0.1
 75
     1
 76
     1
 78
     7
140
0.12
141
0.0
146
0.71
147
0.06
176
   256
177
   256
178
     2
274
     1
279
     2
284
     8
285
     8
286
     8
340
1DA2
  0
DIMSTYLE
105
1DF3
330
1D86
100
AcDbSymbolTableRecord
100
AcDbDimStyleTableRecord
  2
AM_ANSI$SH
 70
     0
  4
mm
 41
0.12
 42
0.05
 43
0.5
 44
0.1
 47
0.1
 48
0.1
 75
     1
 76
     1
 78
     7
140
0.12
141
0.0
146
0.71
147
0.06
173
     1
176
   256
177
   256
178
     2
274
     1
279
     2
284
     8
285
     8
286
     8
340
1DA2
  0
DIMSTYLE
105
1DF4
330
1D86
100
AcDbSymbolTableRecord
100
AcDbDimStyleTableRecord
  2
AM_ISO
 70
     0
  4
"
 41
3.5
 42
1.0
 43
10.0
 44
1.0
 47
0.1
 48
0.1
 73
     0
 74
     0
 77
     1
 78
     8
140
3.5
141
0.0
143
0.0393701
146
0.71
147
1.5
172
     1
176
   256
177
   256
178
     2
274
     1
279
     2
284
     8
285
     8
286
     8
340
1DA2
  0
DIMSTYLE
105
1DF5
330
1D86
100
AcDbSymbolTableRecord
100
AcDbDimStyleTableRecord
  2
AM_ISO$3
 70
     0
  4
"
 41
3.5
 42
1.0
 43
10.0
 44
1.0
 47
0.1
 48
0.1
 73
     0
 77
     1
 78
     8
140
3.5
141
0.0
143
0.0393701
146
0.71
147
1.5
176
   256
177
   256
178
     2
274
     1
279
     2
284
     8
285
     8
286
     8
340
1DA2
  0
DIMSTYLE
105
1DF6
330
1D86
100
AcDbSymbolTableRecord
100
AcDbDimStyleTableRecord
  2
AM_ISO$4
 70
     0
  4
"
 41
3.5
 42
1.0
 43
10.0
 44
1.0
 47
0.1
 48
0.1
 73
     0
 77
     1
 78
     8
140
3.5
141
0.0
143
0.0393701
146
0.71
147
1.5
176
   256
177
   256
178
     2
274
     1
279
     2
284
     8
285
     8
286
     8
340
1DA2
  0
DIMSTYLE
105
1DF7
330
1D86
100
AcDbSymbolTableRecord
100
AcDbDimStyleTableRecord
  2
AM_ISO$6
 70
     0
  4
"
 41
3.5
 42
1.0
 43
10.0
 44
1.0
 47
0.1
 48
0.1
 73
     0
 74
     0
 78
     8
140
3.5
141
0.0
143
0.0393701
146
0.71
147
1.5
172
     1
176
   256
177
   256
178
     2
274
     1
279
     2
284
     8
285
     8
286
     8
340
1DA2
  0
DIMSTYLE
105
1DF8
330
1D86
100
AcDbSymbolTableRecord
100
AcDbDimStyleTableRecord
  2
AM_ISO$7
 70
     0
  4
"
 41
3.5
 42
1.0
 43
10.0
 44
1.0
 47
0.1
 48
0.1
 73
     0
 74
     0
 77
     1
 78
     8
140
3.5
141
0.0
143
0.0393701
146
0.71
147
1.5
172
     1
176
   256
177
   256
178
     2
274
     1
279
     2
284
     8
285
     8
286
     8
340
1DA2
  0
DIMSTYLE
105
1DF9
330
1D86
100
AcDbSymbolTableRecord
100
AcDbDimStyleTableRecord
  2
AM_ISO$SF
 70
     0
  4
"
 41
3.5
 42
1.0
 43
10.0
 44
1.0
 47
0.1
 48
0.1
 73
     0
 74
     0
 75
     1
 76
     1
 77
     1
 78
     8
140
3.5
141
0.0
143
0.0393701
146
0.71
147
1.5
172
     1
176
   256
177
   256
178
     2
274
     1
279
     2
284
     8
285
     8
286
     8
340
1DA2
  0
DIMSTYLE
105
1DFA
330
1D86
100
AcDbSymbolTableRecord
100
AcDbDimStyleTableRecord
  2
AM_ISO$SH
 70
     0
  4
"
 41
3.5
 42
1.0
 43
10.0
 44
1.0
 47
0.1
 48
0.1
 73
     0
 74
     0
 75
     1
 76
     1
 77
     1
 78
     8
140
3.5
141
0.0
143
0.0393701
144
2.0
146
0.71
147
1.5
172
     1
173
     1
176
   256
177
   256
178
     2
274
     1
279
     2
284
     8
285
     8
286
     8
340
1DA2
  0
DIMSTYLE
105
1DFB
330
1D86
100
AcDbSymbolTableRecord
100
AcDbDimStyleTableRecord
  2
090319-
 70
     0
 41
16.0
 42
20.0
 43
1.5
 44
3.0
 73
     0
 74
     0
 77
     1
 78
     8
140
20.0
141
3.0
143
0.03937007874016
147
7.0
171
     3
172
     1
274
     1
279
     2
284
     8
285
     8
286
     8
340
1DA2
  0
DIMSTYLE
105
1DFC
330
1D86
100
AcDbSymbolTableRecord
100
AcDbDimStyleTableRecord
  2
A35
 70
     0
 40
0.0
 41
17.5
 42
9.0
 43
1.0
 44
9.0
 73
     0
 74
     0
 77
     1
 78
    12
140
17.5
141
0.0
147
9.0
172
     1
176
   256
177
   256
178
   256
274
     1
279
     2
284
     8
285
     8
286
     8
340
1DA2
  0
DIMSTYLE
105
1DFD
330
1D86
100
AcDbSymbolTableRecord
100
AcDbDimStyleTableRecord
  2
副本__2_STANDARD
 70
     0
  4
"
 41
16.0
 42
22.0
 44
8.0
 73
     0
 74
     0
 78
     8
140
16.0
143
0.03937
147
5.0
170
     1
171
     1
172
     1
176
     3
177
     3
178
     3
274
     1
279
     2
284
     8
285
     8
286
     8
340
1DA2
  0
DIMSTYLE
105
1DFE
330
1D86
100
AcDbSymbolTableRecord
100
AcDbDimStyleTableRecord
  2
副本__3_STANDARD
 70
     0
  4
"
 41
16.0
 42
22.0
 44
8.0
 73
     0
 74
     0
 78
     8
140
16.0
141
0.0
143
0.03937
147
5.0
171
     3
172
     1
175
     1
176
     3
177
     3
178
     3
274
     1
279
     2
284
     8
285
     8
286
     8
340
1DA2
  0
ENDTAB
  0
TABLE
  2
BLOCK_RECORD
  5
1D7D
330
0
100
AcDbSymbolTable
 70
    45
  0
BLOCK_RECORD
  5
1DB2
102
{ACAD_XDICTIONARY
360
1EB7
102
}
330
1D7D
100
AcDbSymbolTableRecord
100
AcDbBlockTableRecord
  2
*Model_Space
340
1DB5
  0
BLOCK_RECORD
  5
1DAE
330
1D7D
100
AcDbSymbolTableRecord
100
AcDbBlockTableRecord
  2
*Paper_Space
340
1DB1
  0
BLOCK_RECORD
  5
1E04
330
1D7D
100
AcDbSymbolTableRecord
100
AcDbBlockTableRecord
  2
$MODEL_SPACE
340
0
  0
BLOCK_RECORD
  5
1E06
330
1D7D
100
AcDbSymbolTableRecord
100
AcDbBlockTableRecord
  2
$PAPER_SPACE
340
0
  0
BLOCK_RECORD
  5
1E08
330
1D7D
100
AcDbSymbolTableRecord
100
AcDbBlockTableRecord
  2
GENAXEH
340
0
  0
BLOCK_RECORD
  5
1E0A
330
1D7D
100
AcDbSymbolTableRecord
100
AcDbBlockTableRecord
  2
*D3
340
0
  0
BLOCK_RECORD
  5
1E0C
330
1D7D
100
AcDbSymbolTableRecord
100
AcDbBlockTableRecord
  2
*U4
340
0
102
{BLKREFS
331
18F0
102
}
  0
BLOCK_RECORD
  5
1E0D
330
1D7D
100
AcDbSymbolTableRecord
100
AcDbBlockTableRecord
  2
*D5
340
0
  0
BLOCK_RECORD
  5
1E0F
330
1D7D
100
AcDbSymbolTableRecord
100
AcDbBlockTableRecord
  2
*U6
340
0
102
{BLKREFS
331
1909
102
}
  0
BLOCK_RECORD
  5
1E10
330
1D7D
100
AcDbSymbolTableRecord
100
AcDbBlockTableRecord
  2
*D7
340
0
  0
BLOCK_RECORD
  5
1E12
330
1D7D
100
AcDbSymbolTableRecord
100
AcDbBlockTableRecord
  2
*U8
340
0
102
{BLKREFS
331
1923
102
}
  0
BLOCK_RECORD
  5
1E13
330
1D7D
100
AcDbSymbolTableRecord
100
AcDbBlockTableRecord
  2
*D9
340
0
  0
BLOCK_RECORD
  5
1E15
330
1D7D
100
AcDbSymbolTableRecord
100
AcDbBlockTableRecord
  2
*U10
340
0
102
{BLKREFS
331
193D
102
}
  0
BLOCK_RECORD
  5
1E16
330
1D7D
100
AcDbSymbolTableRecord
100
AcDbBlockTableRecord
  2
*D11
340
0
  0
BLOCK_RECORD
  5
1E18
330
1D7D
100
AcDbSymbolTableRecord
100
AcDbBlockTableRecord
  2
*U12
340
0
102
{BLKREFS
331
1957
102
}
  0
BLOCK_RECORD
  5
1E19
330
1D7D
100
AcDbSymbolTableRecord
100
AcDbBlockTableRecord
  2
*D13
340
0
  0
BLOCK_RECORD
  5
1E1B
330
1D7D
100
AcDbSymbolTableRecord
100
AcDbBlockTableRecord
  2
*U14
340
0
102
{BLKREFS
331
1971
102
}
  0
BLOCK_RECORD
  5
1E1C
330
1D7D
100
AcDbSymbolTableRecord
100
AcDbBlockTableRecord
  2
*D15
340
0
  0
BLOCK_RECORD
  5
1E1E
330
1D7D
100
AcDbSymbolTableRecord
100
AcDbBlockTableRecord
  2
*U16
340
0
102
{BLKREFS
331
198B
102
}
  0
BLOCK_RECORD
  5
1E1F
330
1D7D
100
AcDbSymbolTableRecord
100
AcDbBlockTableRecord
  2
_NONE
340
0
  0
BLOCK_RECORD
  5
1E21
330
1D7D
100
AcDbSymbolTableRecord
100
AcDbBlockTableRecord
  2
*D18
340
0
  0
BLOCK_RECORD
  5
1E23
330
1D7D
100
AcDbSymbolTableRecord
100
AcDbBlockTableRecord
  2
*U19
340
0
102
{BLKREFS
331
1C81
102
}
  0
BLOCK_RECORD
  5
1E24
330
1D7D
100
AcDbSymbolTableRecord
100
AcDbBlockTableRecord
  2
*D20
340
0
  0
BLOCK_RECORD
  5
1E26
330
1D7D
100
AcDbSymbolTableRecord
100
AcDbBlockTableRecord
  2
*U21
340
0
102
{BLKREFS
331
1C8B
102
}
  0
BLOCK_RECORD
  5
1E27
330
1D7D
100
AcDbSymbolTableRecord
100
AcDbBlockTableRecord
  2
*D22
340
0
  0
BLOCK_RECORD
  5
1E29
330
1D7D
100
AcDbSymbolTableRecord
100
AcDbBlockTableRecord
  2
*U23
340
0
102
{BLKREFS
331
1C95
102
}
  0
BLOCK_RECORD
  5
1E2A
330
1D7D
100
AcDbSymbolTableRecord
100
AcDbBlockTableRecord
  2
*D24
340
0
  0
BLOCK_RECORD
  5
1E2C
330
1D7D
100
AcDbSymbolTableRecord
100
AcDbBlockTableRecord
  2
*U25
340
0
102
{BLKREFS
331
1C9F
102
}
  0
BLOCK_RECORD
  5
1E2D
330
1D7D
100
AcDbSymbolTableRecord
100
AcDbBlockTableRecord
  2
*D26
340
0
  0
BLOCK_RECORD
  5
1E2F
330
1D7D
100
AcDbSymbolTableRecord
100
AcDbBlockTableRecord
  2
*U27
340
0
102
{BLKREFS
331
1C31
102
}
  0
BLOCK_RECORD
  5
1E30
330
1D7D
100
AcDbSymbolTableRecord
100
AcDbBlockTableRecord
  2
*D28
340
0
  0
BLOCK_RECORD
  5
1E32
330
1D7D
100
AcDbSymbolTableRecord
100
AcDbBlockTableRecord
  2
*U29
340
0
102
{BLKREFS
331
1CCB
102
}
  0
BLOCK_RECORD
  5
1E33
330
1D7D
100
AcDbSymbolTableRecord
100
AcDbBlockTableRecord
  2
*D30
340
0
  0
BLOCK_RECORD
  5
1E35
330
1D7D
100
AcDbSymbolTableRecord
100
AcDbBlockTableRecord
  2
*U31
340
0
102
{BLKREFS
331
1CE5
102
}
  0
BLOCK_RECORD
  5
1E3D
330
1D7D
100
AcDbSymbolTableRecord
100
AcDbBlockTableRecord
  2
*U32
340
0
102
{BLKREFS
331
1B89
102
}
  0
BLOCK_RECORD
  5
1E3F
330
1D7D
100
AcDbSymbolTableRecord
100
AcDbBlockTableRecord
  2
*U33
340
0
102
{BLKREFS
331
1B8A
102
}
  0
BLOCK_RECORD
  5
1E48
330
1D7D
100
AcDbSymbolTableRecord
100
AcDbBlockTableRecord
  2
*U34
340
0
  0
BLOCK_RECORD
  5
1E4A
330
1D7D
100
AcDbSymbolTableRecord
100
AcDbBlockTableRecord
  2
*U35
340
0
102
{BLKREFS
331
1CF1
102
}
  0
BLOCK_RECORD
  5
1E4D
330
1D7D
100
AcDbSymbolTableRecord
100
AcDbBlockTableRecord
  2
*D36
340
0
  0
BLOCK_RECORD
  5
1E5A
330
1D7D
100
AcDbSymbolTableRecord
100
AcDbBlockTableRecord
  2
*D37
340
0
  0
BLOCK_RECORD
  5
1E67
330
1D7D
100
AcDbSymbolTableRecord
100
AcDbBlockTableRecord
  2
*D38
340
0
  0
BLOCK_RECORD
  5
1E74
330
1D7D
100
AcDbSymbolTableRecord
100
AcDbBlockTableRecord
  2
*D39
340
0
  0
BLOCK_RECORD
  5
1E81
330
1D7D
100
AcDbSymbolTableRecord
100
AcDbBlockTableRecord
  2
*D40
340
0
  0
BLOCK_RECORD
  5
1E8E
330
1D7D
100
AcDbSymbolTableRecord
100
AcDbBlockTableRecord
  2
*D41
340
0
  0
BLOCK_RECORD
  5
1E9B
330
1D7D
100
AcDbSymbolTableRecord
100
AcDbBlockTableRecord
  2
*D42
340
0
  0
BLOCK_RECORD
  5
1EA9
330
1D7D
100
AcDbSymbolTableRecord
100
AcDbBlockTableRecord
  2
*D43
340
0
  0
BLOCK_RECORD
  5
1EBA
330
1D7D
100
AcDbSymbolTableRecord
100
AcDbBlockTableRecord
  2
*D44
340
0
  0
ENDTAB
  0
ENDSEC
  0
SECTION
  2
BLOCKS
  0
BLOCK
  5
1DB3
330
1DB2
100
AcDbEntity
  8
0
100
AcDbBlockBegin
  2
*Model_Space
 70
     0
 10
0.0
 20
0.0
 30
0.0
  3
*Model_Space
  1

  0
ENDBLK
  5
1DB4
330
1DB2
100
AcDbEntity
  8
0
100
AcDbBlockEnd
  0
BLOCK
  5
1DAF
330
1DAE
100
AcDbEntity
 67
     1
  8
0
100
AcDbBlockBegin
  2
*Paper_Space
 70
     0
 10
0.0
 20
0.0
 30
0.0
  3
*Paper_Space
  1

  0
ENDBLK
  5
1DB0
330
1DAE
100
AcDbEntity
 67
     1
  8
0
100
AcDbBlockEnd
  0
BLOCK
  5
1E05
330
1E04
100
AcDbEntity
  8
0
100
AcDbBlockBegin
  2
$MODEL_SPACE
 70
     0
 10
0.0
 20
0.0
 30
0.0
  3
$MODEL_SPACE
  1

  0
ENDBLK
  5
23
330
1E04
100
AcDbEntity
  8
0
100
AcDbBlockEnd
  0
BLOCK
  5
1E07
330
1E06
100
AcDbEntity
  8
0
100
AcDbBlockBegin
  2
$PAPER_SPACE
 70
     0
 10
0.0
 20
0.0
 30
0.0
  3
$PAPER_SPACE
  1

  0
ENDBLK
  5
1F
330
1E06
100
AcDbEntity
  8
0
100
AcDbBlockEnd
  0
BLOCK
  5
1E09
330
1E08
100
AcDbEntity
  8
0
100
AcDbBlockBegin
  2
GENAXEH
 70
     0
 10
0.0
 20
0.0
 30
0.0
  3
GENAXEH
  1

  0
LINE
  5
1722
330
1E08
100
AcDbEntity
  8
0
100
AcDbLine
 10
-1.0
 20
0.0
 30
0.0
 11
1.0
 21
0.0
 31
0.0
  0
ENDBLK
  5
1724
330
1E08
100
AcDbEntity
  8
0
100
AcDbBlockEnd
  0
BLOCK
  5
1E0B
330
1E0A
100
AcDbEntity
  8
0
100
AcDbBlockBegin
  2
*D3
 70
     1
 10
0.0
 20
0.0
 30
0.0
  3
*D3
  1

  0
LINE
  5
18EA
330
1E0A
100
AcDbEntity
  8
标注
100
AcDbLine
 10
276.5813558359345
 20
193.6364489045088
 30
0.0
 11
278.10357533348
 21
193.6364489045088
 31
0.0
  0
LINE
  5
18EB
330
1E0A
100
AcDbEntity
  8
标注
100
AcDbLine
 10
276.5347393344531
 20
184.6364489045489
 30
0.0
 11
278.10357533348
 21
184.6364489045489
 31
0.0
  0
LINE
  5
18EC
330
1E0A
100
AcDbEntity
  8
标注
100
AcDbLine
 10
277.78357533348
 20
192.9864489045089
 30
0.0
 11
277.78357533348
 21
189.7697822378621
 31
0.0
  0
LINE
  5
18ED
330
1E0A
100
AcDbEntity
  8
标注
100
AcDbLine
 10
277.78357533348
 20
185.2864489045489
 30
0.0
 11
277.78357533348
 21
188.5031155711956
 31
0.0
  0
SOLID
  5
18EE
330
1E0A
100
AcDbEntity
  8
标注
100
AcDbTrace
 10
277.6752420001466
 20
192.9864489045089
 30
0.0
 11
277.8919086668133
 21
192.9864489045089
 31
0.0
 12
277.78357533348
 22
193.6364489045088
 32
0.0
 13
277.78357533348
 23
193.6364489045088
 33
0.0
  0
SOLID
  5
18EF
330
1E0A
100
AcDbEntity
  8
标注
100
AcDbTrace
 10
277.6752420001466
 20
185.2864489045489
 30
0.0
 11
277.8919086668133
 21
185.2864489045489
 31
0.0
 12
277.78357533348
 22
184.6364489045489
 32
0.0
 13
277.78357533348
 23
184.6364489045489
 33
0.0
  0
INSERT
  5
18F0
330
1E0A
100
AcDbEntity
  8
标注
100
AcDbBlockReference
  2
*U4
 10
0.0
 20
0.0
 30
0.0
  0
POINT
  5
18F1
330
1E0A
100
AcDbEntity
  8
DEFPOINTS
 62
     0
100
AcDbPoint
 10
275.7013558359345
 20
193.6364489045088
 30
0.0
  0
POINT
  5
18F2
330
1E0A
100
AcDbEntity
  8
DEFPOINTS
 62
     0
100
AcDbPoint
 10
275.6547393344531
 20
184.6364489045489
 30
0.0
  0
POINT
  5
18F3
330
1E0A
100
AcDbEntity
  8
DEFPOINTS
 62
     0
100
AcDbPoint
 10
277.78357533348
 20
184.6364489045489
 30
0.0
  0
ENDBLK
  5
18B3
330
1E0A
100
AcDbEntity
  8
0
100
AcDbBlockEnd
  0
BLOCK
  5
1E36
330
1E0C
100
AcDbEntity
  8
0
100
AcDbBlockBegin
  2
*U4
 70
     1
 10
0.0
 20
0.0
 30
0.0
  3
*U4
  1

  0
TEXT
  5
1D33
330
1E0C
100
AcDbEntity
  8
标注
100
AcDbText
 10
278.1085753334799
 20
188.7031155711957
 30
0.0
 40
0.65
  1
9"
 50
90.0
100
AcDbText
  0
ENDBLK
  5
1D35
330
1E0C
100
AcDbEntity
  8
0
100
AcDbBlockEnd
  0
BLOCK
  5
1E0E
330
1E0D
100
AcDbEntity
  8
0
100
AcDbBlockBegin
  2
*D5
 70
     1
 10
0.0
 20
0.0
 30
0.0
  3
*D5
  1

  0
LINE
  5
1903
330
1E0D
100
AcDbEntity
  8
标注
100
AcDbLine
 10
246.7485999305377
 20
154.9616398515416
 30
0.0
 11
246.7485999305377
 21
152.3216958017757
 31
0.0
  0
LINE
  5
1904
330
1E0D
100
AcDbEntity
  8
标注
100
AcDbLine
 10
274.7013558359381
 20
154.9143957570547
 30
0.0
 11
274.7013558359381
 21
152.3216958017757
 31
0.0
  0
LINE
  5
1905
330
1E0D
100
AcDbEntity
  8
标注
100
AcDbLine
 10
247.3985999305376
 20
152.6416958017757
 30
0.0
 11
259.7666445499046
 21
152.6416958017757
 31
0.0
  0
LINE
  5
1906
330
1E0D
100
AcDbEntity
  8
标注
100
AcDbLine
 10
274.0513558359381
 20
152.6416958017757
 30
0.0
 11
261.6833112165712
 21
152.6416958017757
 31
0.0
  0
SOLID
  5
1907
330
1E0D
100
AcDbEntity
  8
标注
100
AcDbTrace
 10
247.3985999305376
 20
152.7500291351091
 30
0.0
 11
247.3985999305376
 21
152.5333624684424
 31
0.0
 12
246.7485999305377
 22
152.6416958017757
 32
0.0
 13
246.7485999305377
 23
152.6416958017757
 33
0.0
  0
SOLID
  5
1908
330
1E0D
100
AcDbEntity
  8
标注
100
AcDbTrace
 10
274.0513558359381
 20
152.7500291351091
 30
0.0
 11
274.0513558359381
 21
152.5333624684424
 31
0.0
 12
274.7013558359381
 22
152.6416958017757
 32
0.0
 13
274.7013558359381
 23
152.6416958017757
 33
0.0
  0
INSERT
  5
1909
330
1E0D
100
AcDbEntity
  8
标注
100
AcDbBlockReference
  2
*U6
 10
0.0
 20
0.0
 30
0.0
  0
POINT
  5
190A
330
1E0D
100
AcDbEntity
  8
DEFPOINTS
 62
     0
100
AcDbPoint
 10
246.7485999305377
 20
155.8416398515416
 30
0.0
  0
POINT
  5
190B
330
1E0D
100
AcDbEntity
  8
DEFPOINTS
 62
     0
100
AcDbPoint
 10
274.7013558359381
 20
155.7943957570547
 30
0.0
  0
POINT
  5
190C
330
1E0D
100
AcDbEntity
  8
DEFPOINTS
 62
     0
100
AcDbPoint
 10
274.7013558359381
 20
152.6416958017757
 30
0.0
  0
ENDBLK
  5
18F7
330
1E0D
100
AcDbEntity
  8
0
100
AcDbBlockEnd
  0
BLOCK
  5
1E37
330
1E0F
100
AcDbEntity
  8
0
100
AcDbBlockBegin
  2
*U6
 70
     1
 10
0.0
 20
0.0
 30
0.0
  3
*U6
  1

  0
TEXT
  5
1D37
330
1E0F
100
AcDbEntity
  8
标注
100
AcDbText
 10
259.9666445499046
 20
152.3166958017756
 30
0.0
 40
0.65
  1
28"
100
AcDbText
  0
ENDBLK
  5
1D39
330
1E0F
100
AcDbEntity
  8
0
100
AcDbBlockEnd
  0
BLOCK
  5
1E11
330
1E10
100
AcDbEntity
  8
0
100
AcDbBlockBegin
  2
*D7
 70
     1
 10
0.0
 20
0.0
 30
0.0
  3
*D7
  1

  0
LINE
  5
191D
330
1E10
100
AcDbEntity
  8
标注
100
AcDbLine
 10
245.7013558360545
 20
153.9143957570584
 30
0.0
 11
245.7013558360545
 21
150.490492165465
 31
0.0
  0
LINE
  5
191E
330
1E10
100
AcDbEntity
  8
标注
100
AcDbLine
 10
275.7013558359345
 20
153.9143957570584
 30
0.0
 11
275.7013558359345
 21
150.490492165465
 31
0.0
  0
LINE
  5
191F
330
1E10
100
AcDbEntity
  8
标注
100
AcDbLine
 10
246.3513558360545
 20
150.8104921654648
 30
0.0
 11
259.7971891693279
 21
150.8104921654648
 31
0.0
  0
LINE
  5
1920
330
1E10
100
AcDbEntity
  8
标注
100
AcDbLine
 10
275.0513558359345
 20
150.8104921654648
 30
0.0
 11
261.6055225026611
 21
150.8104921654648
 31
0.0
  0
SOLID
  5
1921
330
1E10
100
AcDbEntity
  8
标注
100
AcDbTrace
 10
246.3513558360545
 20
150.9188254987983
 30
0.0
 11
246.3513558360545
 21
150.7021588321317
 31
0.0
 12
245.7013558360545
 22
150.8104921654648
 32
0.0
 13
245.7013558360545
 23
150.8104921654648
 33
0.0
  0
SOLID
  5
1922
330
1E10
100
AcDbEntity
  8
标注
100
AcDbTrace
 10
275.0513558359345
 20
150.9188254987983
 30
0.0
 11
275.0513558359345
 21
150.7021588321317
 31
0.0
 12
275.7013558359345
 22
150.8104921654648
 32
0.0
 13
275.7013558359345
 23
150.8104921654648
 33
0.0
  0
INSERT
  5
1923
330
1E10
100
AcDbEntity
  8
标注
100
AcDbBlockReference
  2
*U8
 10
0.0
 20
0.0
 30
0.0
  0
POINT
  5
1924
330
1E10
100
AcDbEntity
  8
DEFPOINTS
 62
     0
100
AcDbPoint
 10
245.7013558360545
 20
154.7943957570584
 30
0.0
  0
POINT
  5
1925
330
1E10
100
AcDbEntity
  8
DEFPOINTS
 62
     0
100
AcDbPoint
 10
275.7013558359345
 20
154.7943957570584
 30
0.0
  0
POINT
  5
1926
330
1E10
100
AcDbEntity
  8
DEFPOINTS
 62
     0
100
AcDbPoint
 10
275.7013558359345
 20
150.8104921654648
 30
0.0
  0
ENDBLK
  5
1911
330
1E10
100
AcDbEntity
  8
0
100
AcDbBlockEnd
  0
BLOCK
  5
1E38
330
1E12
100
AcDbEntity
  8
0
100
AcDbBlockBegin
  2
*U8
 70
     1
 10
0.0
 20
0.0
 30
0.0
  3
*U8
  1

  0
TEXT
  5
1D3B
330
1E12
100
AcDbEntity
  8
标注
100
AcDbText
 10
259.9971891693277
 20
150.4854921654649
 30
0.0
 40
0.65
  1
30"
100
AcDbText
  0
ENDBLK
  5
1D3D
330
1E12
100
AcDbEntity
  8
0
100
AcDbBlockEnd
  0
BLOCK
  5
1E14
330
1E13
100
AcDbEntity
  8
0
100
AcDbBlockBegin
  2
*D9
 70
     1
 10
0.0
 20
0.0
 30
0.0
  3
*D9
  1

  0
LINE
  5
1937
330
1E13
100
AcDbEntity
  8
标注
100
AcDbLine
 10
275.5813558359381
 20
155.7943957570547
 30
0.0
 11
277.9636557463613
 21
155.7943957570547
 31
0.0
  0
LINE
  5
1938
330
1E13
100
AcDbEntity
  8
标注
100
AcDbLine
 10
275.5813558359381
 20
171.7943957569929
 30
0.0
 11
277.9636557463613
 21
171.7943957569929
 31
0.0
  0
LINE
  5
1939
330
1E13
100
AcDbEntity
  8
标注
100
AcDbLine
 10
277.6436557463613
 20
156.4443957570547
 30
0.0
 11
277.6436557463613
 21
162.9443957570238
 31
0.0
  0
LINE
  5
193A
330
1E13
100
AcDbEntity
  8
标注
100
AcDbLine
 10
277.6436557463613
 20
171.1443957569928
 30
0.0
 11
277.6436557463613
 21
164.6443957570238
 31
0.0
  0
SOLID
  5
193B
330
1E13
100
AcDbEntity
  8
标注
100
AcDbTrace
 10
277.535322413028
 20
156.4443957570547
 30
0.0
 11
277.7519890796947
 21
156.4443957570547
 31
0.0
 12
277.6436557463613
 22
155.7943957570547
 32
0.0
 13
277.6436557463613
 23
155.7943957570547
 33
0.0
  0
SOLID
  5
193C
330
1E13
100
AcDbEntity
  8
标注
100
AcDbTrace
 10
277.535322413028
 20
171.1443957569928
 30
0.0
 11
277.7519890796947
 21
171.1443957569928
 31
0.0
 12
277.6436557463613
 22
171.7943957569929
 32
0.0
 13
277.6436557463613
 23
171.7943957569929
 33
0.0
  0
INSERT
  5
193D
330
1E13
100
AcDbEntity
  8
标注
100
AcDbBlockReference
  2
*U10
 10
0.0
 20
0.0
 30
0.0
  0
POINT
  5
193E
330
1E13
100
AcDbEntity
  8
DEFPOINTS
 62
     0
100
AcDbPoint
 10
274.7013558359381
 20
155.7943957570547
 30
0.0
  0
POINT
  5
193F
330
1E13
100
AcDbEntity
  8
DEFPOINTS
 62
     0
100
AcDbPoint
 10
274.7013558359381
 20
171.7943957569929
 30
0.0
  0
POINT
  5
1940
330
1E13
100
AcDbEntity
  8
DEFPOINTS
 62
     0
100
AcDbPoint
 10
277.6436557463613
 20
171.7943957569929
 30
0.0
  0
ENDBLK
  5
192B
330
1E13
100
AcDbEntity
  8
0
100
AcDbBlockEnd
  0
BLOCK
  5
1E39
330
1E15
100
AcDbEntity
  8
0
100
AcDbBlockBegin
  2
*U10
 70
     1
 10
0.0
 20
0.0
 30
0.0
  3
*U10
  1

  0
TEXT
  5
1D3F
330
1E15
100
AcDbEntity
  8
标注
100
AcDbText
 10
277.9686557463612
 20
163.1443957570238
 30
0.0
 40
0.65
  1
16"
 50
90.0
100
AcDbText
  0
ENDBLK
  5
1D41
330
1E15
100
AcDbEntity
  8
0
100
AcDbBlockEnd
  0
BLOCK
  5
1E17
330
1E16
100
AcDbEntity
  8
0
100
AcDbBlockBegin
  2
*D11
 70
     1
 10
0.0
 20
0.0
 30
0.0
  3
*D11
  1

  0
LINE
  5
1951
330
1E16
100
AcDbEntity
  8
标注
100
AcDbLine
 10
276.5813558359345
 20
154.7943957570584
 30
0.0
 11
279.7018546045301
 21
154.7943957570584
 31
0.0
  0
LINE
  5
1952
330
1E16
100
AcDbEntity
  8
标注
100
AcDbLine
 10
276.5813558359345
 20
172.7943957569856
 30
0.0
 11
279.7018546045301
 21
172.7943957569856
 31
0.0
  0
LINE
  5
1953
330
1E16
100
AcDbEntity
  8
标注
100
AcDbLine
 10
279.3818546045301
 20
155.4443957570584
 30
0.0
 11
279.3818546045301
 21
162.944395757022
 31
0.0
  0
LINE
  5
1954
330
1E16
100
AcDbEntity
  8
标注
100
AcDbLine
 10
279.3818546045301
 20
172.1443957569854
 30
0.0
 11
279.3818546045301
 21
164.644395757022
 31
0.0
  0
SOLID
  5
1955
330
1E16
100
AcDbEntity
  8
标注
100
AcDbTrace
 10
279.2735212711968
 20
155.4443957570584
 30
0.0
 11
279.4901879378635
 21
155.4443957570584
 31
0.0
 12
279.3818546045301
 22
154.7943957570584
 32
0.0
 13
279.3818546045301
 23
154.7943957570584
 33
0.0
  0
SOLID
  5
1956
330
1E16
100
AcDbEntity
  8
标注
100
AcDbTrace
 10
279.2735212711968
 20
172.1443957569854
 30
0.0
 11
279.4901879378635
 21
172.1443957569854
 31
0.0
 12
279.3818546045301
 22
172.7943957569856
 32
0.0
 13
279.3818546045301
 23
172.7943957569856
 33
0.0
  0
INSERT
  5
1957
330
1E16
100
AcDbEntity
  8
标注
100
AcDbBlockReference
  2
*U12
 10
0.0
 20
0.0
 30
0.0
  0
POINT
  5
1958
330
1E16
100
AcDbEntity
  8
DEFPOINTS
 62
     0
100
AcDbPoint
 10
275.7013558359345
 20
154.7943957570584
 30
0.0
  0
POINT
  5
1959
330
1E16
100
AcDbEntity
  8
DEFPOINTS
 62
     0
100
AcDbPoint
 10
275.7013558359345
 20
172.7943957569856
 30
0.0
  0
POINT
  5
195A
330
1E16
100
AcDbEntity
  8
DEFPOINTS
 62
     0
100
AcDbPoint
 10
279.3818546045301
 20
172.7943957569856
 30
0.0
  0
ENDBLK
  5
1945
330
1E16
100
AcDbEntity
  8
0
100
AcDbBlockEnd
  0
BLOCK
  5
1E3A
330
1E18
100
AcDbEntity
  8
0
100
AcDbBlockBegin
  2
*U12
 70
     1
 10
0.0
 20
0.0
 30
0.0
  3
*U12
  1

  0
TEXT
  5
1D43
330
1E18
100
AcDbEntity
  8
标注
100
AcDbText
 10
279.7068546045301
 20
163.1443957570219
 30
0.0
 40
0.65
  1
18"
 50
90.0
100
AcDbText
  0
ENDBLK
  5
1D45
330
1E18
100
AcDbEntity
  8
0
100
AcDbBlockEnd
  0
BLOCK
  5
1E1A
330
1E19
100
AcDbEntity
  8
0
100
AcDbBlockBegin
  2
*D13
 70
     1
 10
0.0
 20
0.0
 30
0.0
  3
*D13
  1

  0
LINE
  5
196B
330
1E19
100
AcDbEntity
  8
标注
100
AcDbLine
 10
248.7126023456172
 20
114.8692766070514
 30
0.0
 11
248.7126023456172
 21
112.6370075107335
 31
0.0
  0
LINE
  5
196C
330
1E19
100
AcDbEntity
  8
标注
100
AcDbLine
 10
276.870082660466
 20
114.8692766070514
 30
0.0
 11
276.870082660466
 21
112.6370075107335
 31
0.0
  0
LINE
  5
196D
330
1E19
100
AcDbEntity
  8
标注
100
AcDbLine
 10
249.3626023456172
 20
112.9570075107335
 30
0.0
 11
260.6413425030416
 21
112.9570075107335
 31
0.0
  0
LINE
  5
196E
330
1E19
100
AcDbEntity
  8
标注
100
AcDbLine
 10
276.2200826604659
 20
112.9570075107335
 30
0.0
 11
264.9413425030415
 21
112.9570075107335
 31
0.0
  0
SOLID
  5
196F
330
1E19
100
AcDbEntity
  8
标注
100
AcDbTrace
 10
249.3626023456172
 20
113.0653408440668
 30
0.0
 11
249.3626023456172
 21
112.8486741774002
 31
0.0
 12
248.7126023456172
 22
112.9570075107335
 32
0.0
 13
248.7126023456172
 23
112.9570075107335
 33
0.0
  0
SOLID
  5
1970
330
1E19
100
AcDbEntity
  8
标注
100
AcDbTrace
 10
276.2200826604659
 20
113.0653408440668
 30
0.0
 11
276.2200826604659
 21
112.8486741774002
 31
0.0
 12
276.870082660466
 22
112.9570075107335
 32
0.0
 13
276.870082660466
 23
112.9570075107335
 33
0.0
  0
INSERT
  5
1971
330
1E19
100
AcDbEntity
  8
标注
100
AcDbBlockReference
  2
*U14
 10
0.0
 20
0.0
 30
0.0
  0
POINT
  5
1972
330
1E19
100
AcDbEntity
  8
DEFPOINTS
 62
     0
100
AcDbPoint
 10
248.7126023456172
 20
115.7492766070514
 30
0.0
  0
POINT
  5
1973
330
1E19
100
AcDbEntity
  8
DEFPOINTS
 62
     0
100
AcDbPoint
 10
276.870082660466
 20
115.7492766070514
 30
0.0
  0
POINT
  5
1974
330
1E19
100
AcDbEntity
  8
DEFPOINTS
 62
     0
100
AcDbPoint
 10
276.870082660466
 20
112.9570075107335
 30
0.0
  0
ENDBLK
  5
195F
330
1E19
100
AcDbEntity
  8
0
100
AcDbBlockEnd
  0
BLOCK
  5
1E3B
330
1E1B
100
AcDbEntity
  8
0
100
AcDbBlockBegin
  2
*U14
 70
     1
 10
0.0
 20
0.0
 30
0.0
  3
*U14
  1

  0
TEXT
  5
1D47
330
1E1B
100
AcDbEntity
  8
标注
100
AcDbText
 10
260.8413425030415
 20
112.6320075107335
 30
0.0
 40
0.65
  1
28 1/8"
100
AcDbText
  0
ENDBLK
  5
1D49
330
1E1B
100
AcDbEntity
  8
0
100
AcDbBlockEnd
  0
BLOCK
  5
1E1D
330
1E1C
100
AcDbEntity
  8
0
100
AcDbBlockBegin
  2
*D15
 70
     1
 10
0.0
 20
0.0
 30
0.0
  3
*D15
  1

  0
LINE
  5
1985
330
1E1C
100
AcDbEntity
  8
标注
100
AcDbLine
 10
277.7500826604659
 20
115.7492766070514
 30
0.0
 11
279.3267614640683
 21
115.7492766070514
 31
0.0
  0
LINE
  5
1986
330
1E1C
100
AcDbEntity
  8
标注
100
AcDbLine
 10
277.7500826604659
 20
131.9067569219456
 30
0.0
 11
279.3267614640684
 21
131.9067569219456
 31
0.0
  0
LINE
  5
1987
330
1E1C
100
AcDbEntity
  8
标注
100
AcDbLine
 10
279.0067614640683
 20
116.3992766070514
 30
0.0
 11
279.0067614640683
 21
121.7863500978319
 31
0.0
  0
LINE
  5
1988
330
1E1C
100
AcDbEntity
  8
标注
100
AcDbLine
 10
279.0067614640684
 20
131.2567569219456
 30
0.0
 11
279.0067614640683
 21
125.8696834311652
 31
0.0
  0
SOLID
  5
1989
330
1E1C
100
AcDbEntity
  8
标注
100
AcDbTrace
 10
278.898428130735
 20
116.3992766070514
 30
0.0
 11
279.1150947974017
 21
116.3992766070514
 31
0.0
 12
279.0067614640683
 22
115.7492766070514
 32
0.0
 13
279.0067614640683
 23
115.7492766070514
 33
0.0
  0
SOLID
  5
198A
330
1E1C
100
AcDbEntity
  8
标注
100
AcDbTrace
 10
278.898428130735
 20
131.2567569219456
 30
0.0
 11
279.1150947974017
 21
131.2567569219456
 31
0.0
 12
279.0067614640684
 22
131.9067569219456
 32
0.0
 13
279.0067614640684
 23
131.9067569219456
 33
0.0
  0
INSERT
  5
198B
330
1E1C
100
AcDbEntity
  8
标注
100
AcDbBlockReference
  2
*U16
 10
0.0
 20
0.0
 30
0.0
  0
POINT
  5
198C
330
1E1C
100
AcDbEntity
  8
DEFPOINTS
 62
     0
100
AcDbPoint
 10
276.870082660466
 20
115.7492766070514
 30
0.0
  0
POINT
  5
198D
330
1E1C
100
AcDbEntity
  8
DEFPOINTS
 62
     0
100
AcDbPoint
 10
276.870082660466
 20
131.9067569219456
 30
0.0
  0
POINT
  5
198E
330
1E1C
100
AcDbEntity
  8
DEFPOINTS
 62
     0
100
AcDbPoint
 10
279.0067614640684
 20
131.9067569219456
 30
0.0
  0
ENDBLK
  5
1979
330
1E1C
100
AcDbEntity
  8
0
100
AcDbBlockEnd
  0
BLOCK
  5
1E3C
330
1E1E
100
AcDbEntity
  8
0
100
AcDbBlockBegin
  2
*U16
 70
     1
 10
0.0
 20
0.0
 30
0.0
  3
*U16
  1

  0
TEXT
  5
1D4B
330
1E1E
100
AcDbEntity
  8
标注
100
AcDbText
 10
279.3317614640683
 20
121.9863500978319
 30
0.0
 40
0.65
  1
16 1/8"
 50
90.0
100
AcDbText
  0
ENDBLK
  5
1D4D
330
1E1E
100
AcDbEntity
  8
0
100
AcDbBlockEnd
  0
BLOCK
  5
1E20
330
1E1F
100
AcDbEntity
  8
0
100
AcDbBlockBegin
  2
_NONE
 70
     0
 10
0.0
 20
0.0
 30
0.0
  3
_NONE
  1

  0
ENDBLK
  5
1AF0
330
1E1F
100
AcDbEntity
  8
0
100
AcDbBlockEnd
  0
BLOCK
  5
1E22
330
1E21
100
AcDbEntity
  8
0
100
AcDbBlockBegin
  2
*D18
 70
     1
 10
0.0
 20
0.0
 30
0.0
  3
*D18
  1

  0
LINE
  5
1C7B
330
1E21
100
AcDbEntity
  8
标注
  6
ByBlock
100
AcDbLine
 10
329.2299638660385
 20
151.4253142089428
 30
0.0
 11
329.2299638660385
 21
149.5979431051932
 31
0.0
  0
LINE
  5
1C7C
330
1E21
100
AcDbEntity
  8
标注
  6
ByBlock
100
AcDbLine
 10
359.2299638659221
 20
151.4253142089428
 30
0.0
 11
359.2299638659221
 21
149.5979431051932
 31
0.0
  0
LINE
  5
1C7D
330
1E21
100
AcDbEntity
  8
标注
  6
ByBlock
100
AcDbLine
 10
329.8799638660385
 20
149.9179431051933
 30
0.0
 11
343.3257971993137
 21
149.9179431051933
 31
0.0
  0
LINE
  5
1C7E
330
1E21
100
AcDbEntity
  8
标注
  6
ByBlock
100
AcDbLine
 10
358.5799638659221
 20
149.9179431051933
 30
0.0
 11
345.1341305326471
 21
149.9179431051933
 31
0.0
  0
SOLID
  5
1C7F
330
1E21
100
AcDbEntity
  8
标注
100
AcDbTrace
 10
329.8799638660385
 20
150.0262764385266
 30
0.0
 11
329.8799638660385
 21
149.8096097718599
 31
0.0
 12
329.2299638660385
 22
149.9179431051933
 32
0.0
 13
329.2299638660385
 23
149.9179431051933
 33
0.0
  0
SOLID
  5
1C80
330
1E21
100
AcDbEntity
  8
标注
100
AcDbTrace
 10
358.5799638659221
 20
150.0262764385266
 30
0.0
 11
358.5799638659221
 21
149.8096097718599
 31
0.0
 12
359.2299638659221
 22
149.9179431051933
 32
0.0
 13
359.2299638659221
 23
149.9179431051933
 33
0.0
  0
INSERT
  5
1C81
330
1E21
100
AcDbEntity
  8
标注
100
AcDbBlockReference
  2
*U19
 10
0.0
 20
0.0
 30
0.0
  0
POINT
  5
1C82
330
1E21
100
AcDbEntity
  8
DEFPOINTS
 62
     0
100
AcDbPoint
 10
329.2299638660385
 20
152.3053142089428
 30
0.0
  0
POINT
  5
1C83
330
1E21
100
AcDbEntity
  8
DEFPOINTS
 62
     0
100
AcDbPoint
 10
359.2299638659221
 20
152.3053142089428
 30
0.0
  0
POINT
  5
1C84
330
1E21
100
AcDbEntity
  8
DEFPOINTS
 62
     0
100
AcDbPoint
 10
359.2299638659221
 20
149.9179431051933
 30
0.0
  0
ENDBLK
  5
1B8E
330
1E21
100
AcDbEntity
  8
0
100
AcDbBlockEnd
  0
BLOCK
  5
1E42
330
1E23
100
AcDbEntity
  8
0
100
AcDbBlockBegin
  2
*U19
 70
     1
 10
0.0
 20
0.0
 30
0.0
  3
*U19
  1

  0
TEXT
  5
1D5E
330
1E23
100
AcDbEntity
  8
标注
100
AcDbText
 10
343.5257971993137
 20
149.5929431051932
 30
0.0
 40
0.65
  1
30"
100
AcDbText
  0
ENDBLK
  5
1D60
330
1E23
100
AcDbEntity
  8
0
100
AcDbBlockEnd
  0
BLOCK
  5
1E25
330
1E24
100
AcDbEntity
  8
0
100
AcDbBlockBegin
  2
*D20
 70
     1
 10
0.0
 20
0.0
 30
0.0
  3
*D20
  1

  0
LINE
  5
1C85
330
1E24
100
AcDbEntity
  8
标注
  6
ByBlock
100
AcDbLine
 10
328.2299638660385
 20
151.4253142089428
 30
0.0
 11
328.2299638660385
 21
148.3994405888207
 31
0.0
  0
LINE
  5
1C86
330
1E24
100
AcDbEntity
  8
标注
  6
ByBlock
100
AcDbLine
 10
360.2299638659221
 20
151.4253142089428
 30
0.0
 11
360.2299638659221
 21
148.3994405888207
 31
0.0
  0
LINE
  5
1C87
330
1E24
100
AcDbEntity
  8
标注
  6
ByBlock
100
AcDbLine
 10
328.8799638660385
 20
148.7194405888206
 30
0.0
 11
343.271630532647
 21
148.7194405888206
 31
0.0
  0
LINE
  5
1C88
330
1E24
100
AcDbEntity
  8
标注
  6
ByBlock
100
AcDbLine
 10
359.5799638659221
 20
148.7194405888206
 30
0.0
 11
345.1882971993136
 21
148.7194405888206
 31
0.0
  0
SOLID
  5
1C89
330
1E24
100
AcDbEntity
  8
标注
100
AcDbTrace
 10
328.8799638660385
 20
148.827773922154
 30
0.0
 11
328.8799638660385
 21
148.6111072554874
 31
0.0
 12
328.2299638660385
 22
148.7194405888206
 32
0.0
 13
328.2299638660385
 23
148.7194405888206
 33
0.0
  0
SOLID
  5
1C8A
330
1E24
100
AcDbEntity
  8
标注
100
AcDbTrace
 10
359.5799638659221
 20
148.827773922154
 30
0.0
 11
359.5799638659221
 21
148.6111072554874
 31
0.0
 12
360.2299638659221
 22
148.7194405888206
 32
0.0
 13
360.2299638659221
 23
148.7194405888206
 33
0.0
  0
INSERT
  5
1C8B
330
1E24
100
AcDbEntity
  8
标注
100
AcDbBlockReference
  2
*U21
 10
0.0
 20
0.0
 30
0.0
  0
POINT
  5
1C8C
330
1E24
100
AcDbEntity
  8
DEFPOINTS
 62
     0
100
AcDbPoint
 10
328.2299638660385
 20
152.3053142089428
 30
0.0
  0
POINT
  5
1C8D
330
1E24
100
AcDbEntity
  8
DEFPOINTS
 62
     0
100
AcDbPoint
 10
360.2299638659221
 20
152.3053142089428
 30
0.0
  0
POINT
  5
1C8E
330
1E24
100
AcDbEntity
  8
DEFPOINTS
 62
     0
100
AcDbPoint
 10
360.2299638659221
 20
148.7194405888206
 30
0.0
  0
ENDBLK
  5
1BA8
330
1E24
100
AcDbEntity
  8
0
100
AcDbBlockEnd
  0
BLOCK
  5
1E43
330
1E26
100
AcDbEntity
  8
0
100
AcDbBlockBegin
  2
*U21
 70
     1
 10
0.0
 20
0.0
 30
0.0
  3
*U21
  1

  0
TEXT
  5
1D62
330
1E26
100
AcDbEntity
  8
标注
100
AcDbText
 10
343.471630532647
 20
148.3944405888207
 30
0.0
 40
0.65
  1
32"
100
AcDbText
  0
ENDBLK
  5
1D64
330
1E26
100
AcDbEntity
  8
0
100
AcDbBlockEnd
  0
BLOCK
  5
1E28
330
1E27
100
AcDbEntity
  8
0
100
AcDbBlockBegin
  2
*D22
 70
     1
 10
0.0
 20
0.0
 30
0.0
  3
*D22
  1

  0
LINE
  5
1C8F
330
1E27
100
AcDbEntity
  8
标注
  6
ByBlock
100
AcDbLine
 10
361.1099638659221
 20
153.3053142089428
 30
0.0
 11
362.155379199084
 21
153.3053142089428
 31
0.0
  0
LINE
  5
1C90
330
1E27
100
AcDbEntity
  8
标注
  6
ByBlock
100
AcDbLine
 10
361.1099638659221
 20
169.3053142088846
 30
0.0
 11
362.155379199084
 21
169.3053142088846
 31
0.0
  0
LINE
  5
1C91
330
1E27
100
AcDbEntity
  8
标注
  6
ByBlock
100
AcDbLine
 10
361.835379199084
 20
153.9553142089428
 30
0.0
 11
361.835379199084
 21
160.4553142089137
 31
0.0
  0
LINE
  5
1C92
330
1E27
100
AcDbEntity
  8
标注
  6
ByBlock
100
AcDbLine
 10
361.835379199084
 20
168.6553142088846
 30
0.0
 11
361.835379199084
 21
162.1553142089137
 31
0.0
  0
SOLID
  5
1C93
330
1E27
100
AcDbEntity
  8
标注
100
AcDbTrace
 10
361.7270458657507
 20
153.9553142089428
 30
0.0
 11
361.9437125324175
 21
153.9553142089428
 31
0.0
 12
361.835379199084
 22
153.3053142089428
 32
0.0
 13
361.835379199084
 23
153.3053142089428
 33
0.0
  0
SOLID
  5
1C94
330
1E27
100
AcDbEntity
  8
标注
100
AcDbTrace
 10
361.7270458657507
 20
168.6553142088846
 30
0.0
 11
361.9437125324175
 21
168.6553142088846
 31
0.0
 12
361.835379199084
 22
169.3053142088846
 32
0.0
 13
361.835379199084
 23
169.3053142088846
 33
0.0
  0
INSERT
  5
1C95
330
1E27
100
AcDbEntity
  8
标注
100
AcDbBlockReference
  2
*U23
 10
0.0
 20
0.0
 30
0.0
  0
POINT
  5
1C96
330
1E27
100
AcDbEntity
  8
DEFPOINTS
 62
     0
100
AcDbPoint
 10
360.2299638659221
 20
153.3053142089428
 30
0.0
  0
POINT
  5
1C97
330
1E27
100
AcDbEntity
  8
DEFPOINTS
 62
     0
100
AcDbPoint
 10
360.2299638659221
 20
169.3053142088846
 30
0.0
  0
POINT
  5
1C98
330
1E27
100
AcDbEntity
  8
DEFPOINTS
 62
     0
100
AcDbPoint
 10
361.835379199084
 20
169.3053142088846
 30
0.0
  0
ENDBLK
  5
1BC2
330
1E27
100
AcDbEntity
  8
0
100
AcDbBlockEnd
  0
BLOCK
  5
1E44
330
1E29
100
AcDbEntity
  8
0
100
AcDbBlockBegin
  2
*U23
 70
     1
 10
0.0
 20
0.0
 30
0.0
  3
*U23
  1

  0
TEXT
  5
1D66
330
1E29
100
AcDbEntity
  8
标注
100
AcDbText
 10
362.1603791990839
 20
160.6553142089138
 30
0.0
 40
0.65
  1
16"
 50
90.0
100
AcDbText
  0
ENDBLK
  5
1D68
330
1E29
100
AcDbEntity
  8
0
100
AcDbBlockEnd
  0
BLOCK
  5
1E2B
330
1E2A
100
AcDbEntity
  8
0
100
AcDbBlockBegin
  2
*D24
 70
     1
 10
0.0
 20
0.0
 30
0.0
  3
*D24
  1

  0
LINE
  5
1C99
330
1E2A
100
AcDbEntity
  8
标注
  6
ByBlock
100
AcDbLine
 10
361.1099638659221
 20
152.3053142089428
 30
0.0
 11
363.5543100510014
 21
152.3053142089428
 31
0.0
  0
LINE
  5
1C9A
330
1E2A
100
AcDbEntity
  8
标注
  6
ByBlock
100
AcDbLine
 10
361.1099638659221
 20
170.30531420887
 30
0.0
 11
363.5543100510014
 21
170.30531420887
 31
0.0
  0
LINE
  5
1C9B
330
1E2A
100
AcDbEntity
  8
标注
  6
ByBlock
100
AcDbLine
 10
363.2343100510013
 20
152.9553142089428
 30
0.0
 11
363.2343100510013
 21
160.4553142089064
 31
0.0
  0
LINE
  5
1C9C
330
1E2A
100
AcDbEntity
  8
标注
  6
ByBlock
100
AcDbLine
 10
363.2343100510013
 20
169.6553142088701
 30
0.0
 11
363.2343100510013
 21
162.1553142089064
 31
0.0
  0
SOLID
  5
1C9D
330
1E2A
100
AcDbEntity
  8
标注
100
AcDbTrace
 10
363.125976717668
 20
152.9553142089428
 30
0.0
 11
363.3426433843346
 21
152.9553142089428
 31
0.0
 12
363.2343100510013
 22
152.3053142089428
 32
0.0
 13
363.2343100510013
 23
152.3053142089428
 33
0.0
  0
SOLID
  5
1C9E
330
1E2A
100
AcDbEntity
  8
标注
100
AcDbTrace
 10
363.125976717668
 20
169.6553142088701
 30
0.0
 11
363.3426433843346
 21
169.6553142088701
 31
0.0
 12
363.2343100510013
 22
170.30531420887
 32
0.0
 13
363.2343100510013
 23
170.30531420887
 33
0.0
  0
INSERT
  5
1C9F
330
1E2A
100
AcDbEntity
  8
标注
100
AcDbBlockReference
  2
*U25
 10
0.0
 20
0.0
 30
0.0
  0
POINT
  5
1CA0
330
1E2A
100
AcDbEntity
  8
DEFPOINTS
 62
     0
100
AcDbPoint
 10
360.2299638659221
 20
152.3053142089428
 30
0.0
  0
POINT
  5
1CA1
330
1E2A
100
AcDbEntity
  8
DEFPOINTS
 62
     0
100
AcDbPoint
 10
360.2299638659221
 20
170.30531420887
 30
0.0
  0
POINT
  5
1CA2
330
1E2A
100
AcDbEntity
  8
DEFPOINTS
 62
     0
100
AcDbPoint
 10
363.2343100510013
 20
170.30531420887
 30
0.0
  0
ENDBLK
  5
1BDC
330
1E2A
100
AcDbEntity
  8
0
100
AcDbBlockEnd
  0
BLOCK
  5
1E45
330
1E2C
100
AcDbEntity
  8
0
100
AcDbBlockBegin
  2
*U25
 70
     1
 10
0.0
 20
0.0
 30
0.0
  3
*U25
  1

  0
TEXT
  5
1D6A
330
1E2C
100
AcDbEntity
  8
标注
100
AcDbText
 10
363.5593100510013
 20
160.6553142089065
 30
0.0
 40
0.65
  1
18"
 50
90.0
100
AcDbText
  0
ENDBLK
  5
1D6C
330
1E2C
100
AcDbEntity
  8
0
100
AcDbBlockEnd
  0
BLOCK
  5
1E2E
330
1E2D
100
AcDbEntity
  8
0
100
AcDbBlockBegin
  2
*D26
 70
     1
 10
0.0
 20
0.0
 30
0.0
  3
*D26
  1

  0
LINE
  5
1C2B
330
1E2D
100
AcDbEntity
  8
标注
  6
ByBlock
100
AcDbLine
 10
361.1099638659221
 20
189.9339840107005
 30
0.0
 11
362.2681822072544
 21
189.9339840107005
 31
0.0
  0
LINE
  5
1C2C
330
1E2D
100
AcDbEntity
  8
标注
  6
ByBlock
100
AcDbLine
 10
361.1095854298059
 20
179.9910118799473
 30
0.0
 11
362.2681822072544
 21
179.9910118799473
 31
0.0
  0
LINE
  5
1C2D
330
1E2D
100
AcDbEntity
  8
标注
  6
ByBlock
100
AcDbLine
 10
361.9481822072544
 20
189.2839840107004
 30
0.0
 11
361.9481822072544
 21
185.7583312786571
 31
0.0
  0
LINE
  5
1C2E
330
1E2D
100
AcDbEntity
  8
标注
  6
ByBlock
100
AcDbLine
 10
361.9481822072544
 20
180.6410118799473
 30
0.0
 11
361.9481822072544
 21
184.1666646119906
 31
0.0
  0
SOLID
  5
1C2F
330
1E2D
100
AcDbEntity
  8
标注
100
AcDbTrace
 10
361.839848873921
 20
189.2839840107004
 30
0.0
 11
362.0565155405877
 21
189.2839840107004
 31
0.0
 12
361.9481822072544
 22
189.9339840107005
 32
0.0
 13
361.9481822072544
 23
189.9339840107005
 33
0.0
  0
SOLID
  5
1C30
330
1E2D
100
AcDbEntity
  8
标注
100
AcDbTrace
 10
361.839848873921
 20
180.6410118799473
 30
0.0
 11
362.0565155405877
 21
180.6410118799473
 31
0.0
 12
361.9481822072544
 22
179.9910118799473
 32
0.0
 13
361.9481822072544
 23
179.9910118799473
 33
0.0
  0
INSERT
  5
1C31
330
1E2D
100
AcDbEntity
  8
标注
100
AcDbBlockReference
  2
*U27
 10
0.0
 20
0.0
 30
0.0
  0
POINT
  5
1C32
330
1E2D
100
AcDbEntity
  8
DEFPOINTS
 62
     0
100
AcDbPoint
 10
360.2299638659221
 20
189.9339840107005
 30
0.0
  0
POINT
  5
1C33
330
1E2D
100
AcDbEntity
  8
DEFPOINTS
 62
     0
100
AcDbPoint
 10
360.2295854298059
 20
179.9910118799473
 30
0.0
  0
POINT
  5
1C34
330
1E2D
100
AcDbEntity
  8
DEFPOINTS
 62
     0
100
AcDbPoint
 10
361.9481822072544
 20
179.9910118799473
 30
0.0
  0
ENDBLK
  5
1BF6
330
1E2D
100
AcDbEntity
  8
0
100
AcDbBlockEnd
  0
BLOCK
  5
1E41
330
1E2F
100
AcDbEntity
  8
0
100
AcDbBlockBegin
  2
*U27
 70
     1
 10
0.0
 20
0.0
 30
0.0
  3
*U27
  1

  0
TEXT
  5
1D5A
330
1E2F
100
AcDbEntity
  8
标注
100
AcDbText
 10
362.2731822072543
 20
184.3666646119905
 30
0.0
 40
0.65
  1
10"
 50
90.0
100
AcDbText
  0
ENDBLK
  5
1D5C
330
1E2F
100
AcDbEntity
  8
0
100
AcDbBlockEnd
  0
BLOCK
  5
1E31
330
1E30
100
AcDbEntity
  8
0
100
AcDbBlockBegin
  2
*D28
 70
     1
 10
0.0
 20
0.0
 30
0.0
  3
*D28
  1

  0
LINE
  5
1CC5
330
1E30
100
AcDbEntity
  8
标注
  6
ByBlock
100
AcDbLine
 10
360.227089264992
 20
114.5463809306108
 30
0.0
 11
361.4569589239384
 21
114.5463809306108
 31
0.0
  0
LINE
  5
1CC6
330
1E30
100
AcDbEntity
  8
标注
  6
ByBlock
100
AcDbLine
 10
360.227089264992
 20
130.7038617030063
 30
0.0
 11
361.4569589239384
 21
130.7038617030063
 31
0.0
  0
LINE
  5
1CC7
330
1E30
100
AcDbEntity
  8
标注
  6
ByBlock
100
AcDbLine
 10
361.1369589239384
 20
115.1963809306108
 30
0.0
 11
361.1369589239384
 21
120.5834546501419
 31
0.0
  0
LINE
  5
1CC8
330
1E30
100
AcDbEntity
  8
标注
  6
ByBlock
100
AcDbLine
 10
361.1369589239384
 20
130.0538617030063
 30
0.0
 11
361.1369589239384
 21
124.6667879834752
 31
0.0
  0
SOLID
  5
1CC9
330
1E30
100
AcDbEntity
  8
标注
100
AcDbTrace
 10
361.0286255906049
 20
115.1963809306108
 30
0.0
 11
361.2452922572717
 21
115.1963809306108
 31
0.0
 12
361.1369589239384
 22
114.5463809306108
 32
0.0
 13
361.1369589239384
 23
114.5463809306108
 33
0.0
  0
SOLID
  5
1CCA
330
1E30
100
AcDbEntity
  8
标注
100
AcDbTrace
 10
361.0286255906051
 20
130.0538617030063
 30
0.0
 11
361.2452922572717
 21
130.0538617030063
 31
0.0
 12
361.1369589239384
 22
130.7038617030063
 32
0.0
 13
361.1369589239384
 23
130.7038617030063
 33
0.0
  0
INSERT
  5
1CCB
330
1E30
100
AcDbEntity
  8
标注
100
AcDbBlockReference
  2
*U29
 10
0.0
 20
0.0
 30
0.0
  0
POINT
  5
1CCC
330
1E30
100
AcDbEntity
  8
DEFPOINTS
 62
     0
100
AcDbPoint
 10
359.3470892649921
 20
114.5463809306108
 30
0.0
  0
POINT
  5
1CCD
330
1E30
100
AcDbEntity
  8
DEFPOINTS
 62
     0
100
AcDbPoint
 10
359.3470892649921
 20
130.7038617030063
 30
0.0
  0
POINT
  5
1CCE
330
1E30
100
AcDbEntity
  8
DEFPOINTS
 62
     0
100
AcDbPoint
 10
361.1369589239384
 20
130.7038617030063
 30
0.0
  0
ENDBLK
  5
1CB9
330
1E30
100
AcDbEntity
  8
0
100
AcDbBlockEnd
  0
BLOCK
  5
1E46
330
1E32
100
AcDbEntity
  8
0
100
AcDbBlockBegin
  2
*U29
 70
     1
 10
0.0
 20
0.0
 30
0.0
  3
*U29
  1

  0
TEXT
  5
1D6E
330
1E32
100
AcDbEntity
  8
标注
100
AcDbText
 10
361.4619589239384
 20
120.7834546501419
 30
0.0
 40
0.65
  1
16 1/8"
 50
90.0
100
AcDbText
  0
ENDBLK
  5
1D70
330
1E32
100
AcDbEntity
  8
0
100
AcDbBlockEnd
  0
BLOCK
  5
1E34
330
1E33
100
AcDbEntity
  8
0
100
AcDbBlockBegin
  2
*D30
 70
     1
 10
0.0
 20
0.0
 30
0.0
  3
*D30
  1

  0
LINE
  5
1CDF
330
1E33
100
AcDbEntity
  8
标注
  6
ByBlock
100
AcDbLine
 10
329.1896089501525
 20
113.6663813881085
 30
0.0
 11
329.1896089501525
 21
111.911543851547
 31
0.0
  0
LINE
  5
1CE0
330
1E33
100
AcDbEntity
  8
标注
  6
ByBlock
100
AcDbLine
 10
359.3470892649921
 20
113.6663809306108
 30
0.0
 11
359.3470892649921
 21
111.911543851547
 31
0.0
  0
LINE
  5
1CE1
330
1E33
100
AcDbEntity
  8
标注
  6
ByBlock
100
AcDbLine
 10
329.8396089501525
 20
112.2315438515469
 30
0.0
 11
342.172515774239
 21
112.2315438515469
 31
0.0
  0
LINE
  5
1CE2
330
1E33
100
AcDbEntity
  8
标注
  6
ByBlock
100
AcDbLine
 10
358.6970892649921
 20
112.2315438515469
 30
0.0
 11
346.3641824409056
 21
112.2315438515469
 31
0.0
  0
SOLID
  5
1CE3
330
1E33
100
AcDbEntity
  8
标注
100
AcDbTrace
 10
329.8396089501525
 20
112.3398771848802
 30
0.0
 11
329.8396089501525
 21
112.1232105182136
 31
0.0
 12
329.1896089501525
 22
112.2315438515469
 32
0.0
 13
329.1896089501525
 23
112.2315438515469
 33
0.0
  0
SOLID
  5
1CE4
330
1E33
100
AcDbEntity
  8
标注
100
AcDbTrace
 10
358.6970892649921
 20
112.3398771848802
 30
0.0
 11
358.6970892649921
 21
112.1232105182136
 31
0.0
 12
359.3470892649921
 22
112.2315438515469
 32
0.0
 13
359.3470892649921
 23
112.2315438515469
 33
0.0
  0
INSERT
  5
1CE5
330
1E33
100
AcDbEntity
  8
标注
100
AcDbBlockReference
  2
*U31
 10
0.0
 20
0.0
 30
0.0
  0
POINT
  5
1CE6
330
1E33
100
AcDbEntity
  8
DEFPOINTS
 62
     0
100
AcDbPoint
 10
329.1896089501525
 20
114.5463813881085
 30
0.0
  0
POINT
  5
1CE7
330
1E33
100
AcDbEntity
  8
DEFPOINTS
 62
     0
100
AcDbPoint
 10
359.3470892649921
 20
114.5463809306108
 30
0.0
  0
POINT
  5
1CE8
330
1E33
100
AcDbEntity
  8
DEFPOINTS
 62
     0
100
AcDbPoint
 10
359.3470892649921
 20
112.2315438515469
 30
0.0
  0
ENDBLK
  5
1CD3
330
1E33
100
AcDbEntity
  8
0
100
AcDbBlockEnd
  0
BLOCK
  5
1E47
330
1E35
100
AcDbEntity
  8
0
100
AcDbBlockBegin
  2
*U31
 70
     1
 10
0.0
 20
0.0
 30
0.0
  3
*U31
  1

  0
TEXT
  5
1D72
330
1E35
100
AcDbEntity
  8
标注
100
AcDbText
 10
342.3725157742389
 20
111.9065438515469
 30
0.0
 40
0.65
  1
30 1/8"
100
AcDbText
  0
ENDBLK
  5
1D74
330
1E35
100
AcDbEntity
  8
0
100
AcDbBlockEnd
  0
BLOCK
  5
1E3E
330
1E3D
100
AcDbEntity
  8
0
100
AcDbBlockBegin
  2
*U32
 70
     1
 10
0.0
 20
0.0
 30
0.0
  3
*U32
  1

  0
TEXT
  5
1D52
330
1E3D
100
AcDbEntity
  8
标注
100
AcDbText
 10
340.9470581620502
 20
176.950588491619
 30
0.0
 40
0.7874015748031497
  1
FRONT VIEW
100
AcDbText
  0
ENDBLK
  5
1D54
330
1E3D
100
AcDbEntity
  8
0
100
AcDbBlockEnd
  0
BLOCK
  5
1E40
330
1E3F
100
AcDbEntity
  8
0
100
AcDbBlockBegin
  2
*U33
 70
     1
 10
0.0
 20
0.0
 30
0.0
  3
*U33
  1

  0
TEXT
  5
1D56
330
1E3F
100
AcDbEntity
  8
标注
100
AcDbText
 10
339.0567370152721
 20
145.4660662778964
 30
0.0
 40
0.7874015748031497
  1
OVERHEAD VIEW
100
AcDbText
  0
ENDBLK
  5
1D58
330
1E3F
100
AcDbEntity
  8
0
100
AcDbBlockEnd
  0
BLOCK
  5
1E49
330
1E48
100
AcDbEntity
  8
0
100
AcDbBlockBegin
  2
*U34
 70
     1
 10
0.0
 20
0.0
 30
0.0
  3
*U34
  1

  0
TEXT
  5
1D76
330
1E48
100
AcDbEntity
  8
标注
100
AcDbText
 10
7.665406168108972
 20
0.2986209613956193
 30
0.0
 40
0.7874015748031497
  1
 CUTOUT
100
AcDbText
  0
ENDBLK
  5
1D78
330
1E48
100
AcDbEntity
  8
0
100
AcDbBlockEnd
  0
BLOCK
  5
1E4B
330
1E4A
100
AcDbEntity
  8
0
100
AcDbBlockBegin
  2
*U35
 70
     1
 10
0.0
 20
0.0
 30
0.0
  3
*U35
  1

  0
TEXT
  5
1D7A
330
1E4A
100
AcDbEntity
  8
标注
100
AcDbText
 10
346.1794427912731
 20
107.8574790026476
 30
0.0
 40
0.7874015748031497
  1
 CUTOUT
100
AcDbText
  0
ENDBLK
  5
1D7C
330
1E4A
100
AcDbEntity
  8
0
100
AcDbBlockEnd
  0
BLOCK
  5
1E58
330
1E4D
100
AcDbEntity
  8
0
100
AcDbBlockBegin
  2
*D36
 70
     1
 10
0.0
 20
0.0
 30
0.0
  3
*D36
  1

  0
LINE
  5
1F99
330
1E4D
100
AcDbEntity
  8
标注
370
    -2
100
AcDbLine
 10
-687.0852058588642
 20
1164.973393432546
 30
0.0
 11
-687.0852058588642
 21
1163.146022328806
 31
0.0
  0
LINE
  5
1F9A
330
1E4D
100
AcDbEntity
  8
标注
370
    -2
100
AcDbLine
 10
-657.0852058591006
 20
1164.973393432546
 30
0.0
 11
-657.0852058591006
 21
1163.146022328806
 31
0.0
  0
LINE
  5
1F9B
330
1E4D
100
AcDbEntity
  8
标注
370
    -2
100
AcDbLine
 10
-686.4352058588642
 20
1163.466022328806
 30
0.0
 11
-672.7498716161448
 21
1163.466022328806
 31
0.0
  0
LINE
  5
1F9C
330
1E4D
100
AcDbEntity
  8
标注
370
    -2
100
AcDbLine
 10
-657.7352058591006
 20
1163.466022328806
 30
0.0
 11
-671.4205401018201
 21
1163.466022328806
 31
0.0
  0
MTEXT
  5
1F9D
330
1E4D
100
AcDbEntity
  8
标注
100
AcDbMText
 10
-672.0852058589825
 20
1163.466022328806
 30
0.0
 40
0.65
 41
0.0
 71
     5
 72
     1
  1
\A1;30
 73
     1
 44
1.0
  0
SOLID
  5
1F9E
330
1E4D
100
AcDbEntity
  8
标注
100
AcDbTrace
 10
-686.4352058588642
 20
1163.574355662139
 30
0.0
 11
-686.4352058588642
 21
1163.357688995472
 31
0.0
 12
-687.0852058588642
 22
1163.466022328806
 32
0.0
 13
-687.0852058588642
 23
1163.466022328806
 33
0.0
  0
SOLID
  5
1F9F
330
1E4D
100
AcDbEntity
  8
标注
100
AcDbTrace
 10
-657.7352058591006
 20
1163.574355662139
 30
0.0
 11
-657.7352058591006
 21
1163.357688995472
 31
0.0
 12
-657.0852058591006
 22
1163.466022328806
 32
0.0
 13
-657.0852058591006
 23
1163.466022328806
 33
0.0
  0
POINT
  5
1FA0
330
1E4D
100
AcDbEntity
  8
DEFPOINTS
 62
     0
100
AcDbPoint
 10
-687.0852058588642
 20
1165.853393432546
 30
0.0
  0
POINT
  5
1FA1
330
1E4D
100
AcDbEntity
  8
DEFPOINTS
 62
     0
100
AcDbPoint
 10
-657.0852058591006
 20
1165.853393432546
 30
0.0
  0
POINT
  5
1FA2
330
1E4D
100
AcDbEntity
  8
DEFPOINTS
 62
     0
100
AcDbPoint
 10
-657.0852058591006
 20
1163.466022328806
 30
0.0
  0
ENDBLK
  5
1E59
330
1E4D
100
AcDbEntity
  8
0
100
AcDbBlockEnd
  0
BLOCK
  5
1E65
330
1E5A
100
AcDbEntity
  8
0
100
AcDbBlockBegin
  2
*D37
 70
     1
 10
0.0
 20
0.0
 30
0.0
  3
*D37
  1

  0
LINE
  5
1F8F
330
1E5A
100
AcDbEntity
  8
标注
370
    -2
100
AcDbLine
 10
-688.0852058588604
 20
1164.973393432546
 30
0.0
 11
-688.0852058588604
 21
1161.947519812438
 31
0.0
  0
LINE
  5
1F90
330
1E5A
100
AcDbEntity
  8
标注
370
    -2
100
AcDbLine
 10
-656.0852058591045
 20
1164.973393432546
 30
0.0
 11
-656.0852058591045
 21
1161.947519812438
 31
0.0
  0
LINE
  5
1F91
330
1E5A
100
AcDbEntity
  8
标注
370
    -2
100
AcDbLine
 10
-687.4352058588604
 20
1162.267519812438
 30
0.0
 11
-672.7469896243303
 21
1162.267519812438
 31
0.0
  0
LINE
  5
1F92
330
1E5A
100
AcDbEntity
  8
标注
370
    -2
100
AcDbLine
 10
-656.7352058591045
 20
1162.267519812438
 30
0.0
 11
-671.4234220936345
 21
1162.267519812438
 31
0.0
  0
SOLID
  5
1F93
330
1E5A
100
AcDbEntity
  8
标注
100
AcDbTrace
 10
-687.4352058588604
 20
1162.375853145771
 30
0.0
 11
-687.4352058588604
 21
1162.159186479104
 31
0.0
 12
-688.0852058588604
 22
1162.267519812438
 32
0.0
 13
-688.0852058588604
 23
1162.267519812438
 33
0.0
  0
SOLID
  5
1F94
330
1E5A
100
AcDbEntity
  8
标注
100
AcDbTrace
 10
-656.7352058591045
 20
1162.375853145771
 30
0.0
 11
-656.7352058591045
 21
1162.159186479104
 31
0.0
 12
-656.0852058591045
 22
1162.267519812438
 32
0.0
 13
-656.0852058591045
 23
1162.267519812438
 33
0.0
  0
MTEXT
  5
1F95
330
1E5A
100
AcDbEntity
  8
标注
100
AcDbMText
 10
-672.0852058589825
 20
1162.267519812438
 30
0.0
 40
0.65
 41
0.0
 71
     5
 72
     1
  1
\A1;32
 73
     1
 44
1.0
  0
POINT
  5
1F96
330
1E5A
100
AcDbEntity
  8
DEFPOINTS
 62
     0
100
AcDbPoint
 10
-688.0852058588604
 20
1165.853393432546
 30
0.0
  0
POINT
  5
1F97
330
1E5A
100
AcDbEntity
  8
DEFPOINTS
 62
     0
100
AcDbPoint
 10
-656.0852058591045
 20
1165.853393432546
 30
0.0
  0
POINT
  5
1F98
330
1E5A
100
AcDbEntity
  8
DEFPOINTS
 62
     0
100
AcDbPoint
 10
-656.0852058591045
 20
1162.267519812438
 30
0.0
  0
ENDBLK
  5
1E66
330
1E5A
100
AcDbEntity
  8
0
100
AcDbBlockEnd
  0
BLOCK
  5
1E72
330
1E67
100
AcDbEntity
  8
0
100
AcDbBlockBegin
  2
*D38
 70
     1
 10
0.0
 20
0.0
 30
0.0
  3
*D38
  1

  0
LINE
  5
1F85
330
1E67
100
AcDbEntity
  8
标注
370
    -2
100
AcDbLine
 10
-655.2052058591045
 20
1166.853393432542
 30
0.0
 11
-654.1597905259492
 21
1166.853393432542
 31
0.0
  0
LINE
  5
1F86
330
1E67
100
AcDbEntity
  8
标注
370
    -2
100
AcDbLine
 10
-655.2052058591045
 20
1182.85339343242
 30
0.0
 11
-654.1597905259492
 21
1182.85339343242
 31
0.0
  0
LINE
  5
1F87
330
1E67
100
AcDbEntity
  8
标注
370
    -2
100
AcDbLine
 10
-654.4797905259493
 20
1167.503393432542
 30
0.0
 11
-654.4797905259493
 21
1174.217769285141
 31
0.0
  0
LINE
  5
1F88
330
1E67
100
AcDbEntity
  8
标注
370
    -2
100
AcDbLine
 10
-654.4797905259493
 20
1182.20339343242
 30
0.0
 11
-654.4797905259493
 21
1175.48901757982
 31
0.0
  0
SOLID
  5
1F89
330
1E67
100
AcDbEntity
  8
标注
100
AcDbTrace
 10
-654.5881238592826
 20
1167.503393432542
 30
0.0
 11
-654.3714571926159
 21
1167.503393432542
 31
0.0
 12
-654.4797905259493
 22
1166.853393432542
 32
0.0
 13
-654.4797905259493
 23
1166.853393432542
 33
0.0
  0
SOLID
  5
1F8A
330
1E67
100
AcDbEntity
  8
标注
100
AcDbTrace
 10
-654.5881238592826
 20
1182.20339343242
 30
0.0
 11
-654.3714571926159
 21
1182.20339343242
 31
0.0
 12
-654.4797905259493
 22
1182.85339343242
 32
0.0
 13
-654.4797905259493
 23
1182.85339343242
 33
0.0
  0
MTEXT
  5
1F8B
330
1E67
100
AcDbEntity
  8
标注
100
AcDbMText
 10
-654.4797905259494
 20
1174.85339343248
 30
0.0
 40
0.65
 41
0.0
 71
     5
 72
     1
  1
\A1;16
 11
0.0000000000000001
 21
1.0
 31
0.0
 73
     1
 44
1.0
  0
POINT
  5
1F8C
330
1E67
100
AcDbEntity
  8
DEFPOINTS
 62
     0
100
AcDbPoint
 10
-656.0852058591045
 20
1166.853393432542
 30
0.0
  0
POINT
  5
1F8D
330
1E67
100
AcDbEntity
  8
DEFPOINTS
 62
     0
100
AcDbPoint
 10
-656.0852058591045
 20
1182.85339343242
 30
0.0
  0
POINT
  5
1F8E
330
1E67
100
AcDbEntity
  8
DEFPOINTS
 62
     0
100
AcDbPoint
 10
-654.4797905259493
 20
1182.85339343242
 30
0.0
  0
ENDBLK
  5
1E73
330
1E67
100
AcDbEntity
  8
0
100
AcDbBlockEnd
  0
BLOCK
  5
1E7F
330
1E74
100
AcDbEntity
  8
0
100
AcDbBlockBegin
  2
*D39
 70
     1
 10
0.0
 20
0.0
 30
0.0
  3
*D39
  1

  0
LINE
  5
1F7B
330
1E74
100
AcDbEntity
  8
标注
370
    -2
100
AcDbLine
 10
-655.2052058591045
 20
1165.853393432546
 30
0.0
 11
-652.7608596740371
 21
1165.853393432546
 31
0.0
  0
LINE
  5
1F7C
330
1E74
100
AcDbEntity
  8
标注
370
    -2
100
AcDbLine
 10
-655.2052058591045
 20
1183.853393432401
 30
0.0
 11
-652.7608596740371
 21
1183.853393432401
 31
0.0
  0
LINE
  5
1F7D
330
1E74
100
AcDbEntity
  8
标注
370
    -2
100
AcDbLine
 10
-653.0808596740372
 20
1166.503393432546
 30
0.0
 11
-653.0808596740372
 21
1174.218212668489
 31
0.0
  0
LINE
  5
1F7E
330
1E74
100
AcDbEntity
  8
标注
370
    -2
100
AcDbLine
 10
-653.0808596740372
 20
1183.203393432401
 30
0.0
 11
-653.0808596740372
 21
1175.488574196457
 31
0.0
  0
SOLID
  5
1F7F
330
1E74
100
AcDbEntity
  8
标注
100
AcDbTrace
 10
-653.1891930073705
 20
1166.503393432546
 30
0.0
 11
-652.9725263407039
 21
1166.503393432546
 31
0.0
 12
-653.0808596740372
 22
1165.853393432546
 32
0.0
 13
-653.0808596740372
 23
1165.853393432546
 33
0.0
  0
SOLID
  5
1F80
330
1E74
100
AcDbEntity
  8
标注
100
AcDbTrace
 10
-653.1891930073705
 20
1183.203393432401
 30
0.0
 11
-652.9725263407039
 21
1183.203393432401
 31
0.0
 12
-653.0808596740372
 22
1183.853393432401
 32
0.0
 13
-653.0808596740372
 23
1183.853393432401
 33
0.0
  0
MTEXT
  5
1F81
330
1E74
100
AcDbEntity
  8
标注
100
AcDbMText
 10
-653.0808596740373
 20
1174.853393432473
 30
0.0
 40
0.65
 41
0.0
 71
     5
 72
     1
  1
\A1;18
 11
0.0000000000000001
 21
1.0
 31
0.0
 73
     1
 44
1.0
  0
POINT
  5
1F82
330
1E74
100
AcDbEntity
  8
DEFPOINTS
 62
     0
100
AcDbPoint
 10
-656.0852058591045
 20
1165.853393432546
 30
0.0
  0
POINT
  5
1F83
330
1E74
100
AcDbEntity
  8
DEFPOINTS
 62
     0
100
AcDbPoint
 10
-656.0852058591045
 20
1183.853393432401
 30
0.0
  0
POINT
  5
1F84
330
1E74
100
AcDbEntity
  8
DEFPOINTS
 62
     0
100
AcDbPoint
 10
-653.0808596740372
 20
1183.853393432401
 30
0.0
  0
ENDBLK
  5
1E80
330
1E74
100
AcDbEntity
  8
0
100
AcDbBlockEnd
  0
BLOCK
  5
1E8C
330
1E81
100
AcDbEntity
  8
0
100
AcDbBlockBegin
  2
*D40
 70
     1
 10
0.0
 20
0.0
 30
0.0
  3
*D40
  1

  0
LINE
  5
1FAD
330
1E81
100
AcDbEntity
  8
标注
370
    -2
100
AcDbLine
 10
-655.2052058591045
 20
1203.482063234153
 30
0.0
 11
-654.0469875177791
 21
1203.482063234153
 31
0.0
  0
LINE
  5
1FAE
330
1E81
100
AcDbEntity
  8
标注
370
    -2
100
AcDbLine
 10
-655.2055842952207
 20
1193.53909110344
 30
0.0
 11
-654.0469875177791
 21
1193.53909110344
 31
0.0
  0
LINE
  5
1FAF
330
1E81
100
AcDbEntity
  8
标注
370
    -2
100
AcDbLine
 10
-654.3669875177791
 20
1202.832063234153
 30
0.0
 11
-654.3669875177791
 21
1199.144871166067
 31
0.0
  0
LINE
  5
1FB0
330
1E81
100
AcDbEntity
  8
标注
370
    -2
100
AcDbLine
 10
-654.3669875177791
 20
1194.18909110344
 30
0.0
 11
-654.3669875177791
 21
1197.876283171524
 31
0.0
  0
MTEXT
  5
1FB1
330
1E81
100
AcDbEntity
  8
标注
100
AcDbMText
 10
-654.3669875177791
 20
1198.510577168796
 30
0.0
 40
0.65
 41
0.0
 71
     5
 72
     1
  1
\A1;10
 11
0.0000000000000001
 21
1.0
 31
0.0
 73
     1
 44
1.0
  0
SOLID
  5
1FB2
330
1E81
100
AcDbEntity
  8
标注
100
AcDbTrace
 10
-654.4753208511125
 20
1202.832063234153
 30
0.0
 11
-654.2586541844458
 21
1202.832063234153
 31
0.0
 12
-654.3669875177791
 22
1203.482063234153
 32
0.0
 13
-654.3669875177791
 23
1203.482063234153
 33
0.0
  0
SOLID
  5
1FB3
330
1E81
100
AcDbEntity
  8
标注
100
AcDbTrace
 10
-654.4753208511125
 20
1194.18909110344
 30
0.0
 11
-654.2586541844458
 21
1194.18909110344
 31
0.0
 12
-654.3669875177791
 22
1193.53909110344
 32
0.0
 13
-654.3669875177791
 23
1193.53909110344
 33
0.0
  0
POINT
  5
1FB4
330
1E81
100
AcDbEntity
  8
DEFPOINTS
 62
     0
100
AcDbPoint
 10
-656.0852058591045
 20
1203.482063234153
 30
0.0
  0
POINT
  5
1FB5
330
1E81
100
AcDbEntity
  8
DEFPOINTS
 62
     0
100
AcDbPoint
 10
-656.0855842952207
 20
1193.53909110344
 30
0.0
  0
POINT
  5
1FB6
330
1E81
100
AcDbEntity
  8
DEFPOINTS
 62
     0
100
AcDbPoint
 10
-654.3669875177791
 20
1193.53909110344
 30
0.0
  0
ENDBLK
  5
1E8D
330
1E81
100
AcDbEntity
  8
0
100
AcDbBlockEnd
  0
BLOCK
  5
1E99
330
1E8E
100
AcDbEntity
  8
0
100
AcDbBlockBegin
  2
*D41
 70
     1
 10
0.0
 20
0.0
 30
0.0
  3
*D41
  1

  0
LINE
  5
1F3F
330
1E8E
100
AcDbEntity
  8
标注
370
    -2
100
AcDbLine
 10
-656.0880804600311
 20
1128.094460154365
 30
0.0
 11
-654.8582108010918
 21
1128.094460154365
 31
0.0
  0
LINE
  5
1F40
330
1E8E
100
AcDbEntity
  8
标注
370
    -2
100
AcDbLine
 10
-656.0880804600311
 20
1144.251940926696
 30
0.0
 11
-654.8582108010918
 21
1144.251940926696
 31
0.0
  0
LINE
  5
1F41
330
1E8E
100
AcDbEntity
  8
标注
370
    -2
100
AcDbLine
 10
-655.1782108010918
 20
1128.744460154365
 30
0.0
 11
-655.1782108010918
 21
1134.780721004377
 31
0.0
  0
LINE
  5
1F42
330
1E8E
100
AcDbEntity
  8
标注
370
    -2
100
AcDbLine
 10
-655.1782108010918
 20
1143.601940926696
 30
0.0
 11
-655.1782108010918
 21
1137.565680076683
 31
0.0
  0
SOLID
  5
1F43
330
1E8E
100
AcDbEntity
  8
标注
100
AcDbTrace
 10
-655.2865441344252
 20
1128.744460154365
 30
0.0
 11
-655.0698774677584
 21
1128.744460154365
 31
0.0
 12
-655.1782108010918
 22
1128.094460154365
 32
0.0
 13
-655.1782108010918
 23
1128.094460154365
 33
0.0
  0
SOLID
  5
1F44
330
1E8E
100
AcDbEntity
  8
标注
100
AcDbTrace
 10
-655.2865441344252
 20
1143.601940926696
 30
0.0
 11
-655.0698774677584
 21
1143.601940926696
 31
0.0
 12
-655.1782108010918
 22
1144.251940926696
 32
0.0
 13
-655.1782108010918
 23
1144.251940926696
 33
0.0
  0
MTEXT
  5
1F45
330
1E8E
100
AcDbEntity
  8
标注
100
AcDbMText
 10
-655.1782108010919
 20
1136.17320054053
 30
0.0
 40
0.65
 41
0.0
 71
     5
 72
     1
  1
\A1;16 1/8
 11
0.0000000000000001
 21
1.0
 31
0.0
 73
     1
 44
1.0
  0
POINT
  5
1F46
330
1E8E
100
AcDbEntity
  8
DEFPOINTS
 62
     0
100
AcDbPoint
 10
-656.9680804600311
 20
1128.094460154365
 30
0.0
  0
POINT
  5
1F47
330
1E8E
100
AcDbEntity
  8
DEFPOINTS
 62
     0
100
AcDbPoint
 10
-656.9680804600311
 20
1144.251940926696
 30
0.0
  0
POINT
  5
1F48
330
1E8E
100
AcDbEntity
  8
DEFPOINTS
 62
     0
100
AcDbPoint
 10
-655.1782108010918
 20
1144.251940926696
 30
0.0
  0
ENDBLK
  5
1E9A
330
1E8E
100
AcDbEntity
  8
0
100
AcDbBlockEnd
  0
BLOCK
  5
1EA6
330
1E9B
100
AcDbEntity
  8
0
100
AcDbBlockBegin
  2
*D42
 70
     1
 10
0.0
 20
0.0
 30
0.0
  3
*D42
  1

  0
LINE
  5
1F49
330
1E9B
100
AcDbEntity
  8
标注
370
    -2
100
AcDbLine
 10
-687.1255607747499
 20
1127.214460611863
 30
0.0
 11
-687.1255607747499
 21
1125.45962307531
 31
0.0
  0
LINE
  5
1F4A
330
1E9B
100
AcDbEntity
  8
标注
370
    -2
100
AcDbLine
 10
-656.9680804600311
 20
1127.214460154364
 30
0.0
 11
-656.9680804600311
 21
1125.45962307531
 31
0.0
  0
LINE
  5
1F4B
330
1E9B
100
AcDbEntity
  8
标注
370
    -2
100
AcDbLine
 10
-686.47556077475
 20
1125.77962307531
 30
0.0
 11
-673.469671913434
 21
1125.77962307531
 31
0.0
  0
LINE
  5
1F4C
330
1E9B
100
AcDbEntity
  8
标注
370
    -2
100
AcDbLine
 10
-657.6180804600311
 20
1125.77962307531
 30
0.0
 11
-670.6239693213468
 21
1125.77962307531
 31
0.0
  0
SOLID
  5
1F4D
330
1E9B
100
AcDbEntity
  8
标注
100
AcDbTrace
 10
-686.47556077475
 20
1125.887956408643
 30
0.0
 11
-686.47556077475
 21
1125.671289741976
 31
0.0
 12
-687.1255607747499
 22
1125.77962307531
 32
0.0
 13
-687.1255607747499
 23
1125.77962307531
 33
0.0
  0
SOLID
  5
1F4E
330
1E9B
100
AcDbEntity
  8
标注
100
AcDbTrace
 10
-657.6180804600311
 20
1125.887956408643
 30
0.0
 11
-657.6180804600311
 21
1125.671289741976
 31
0.0
 12
-656.9680804600311
 22
1125.77962307531
 32
0.0
 13
-656.9680804600311
 23
1125.77962307531
 33
0.0
  0
MTEXT
  5
1F4F
330
1E9B
100
AcDbEntity
  8
标注
100
AcDbMText
 10
-672.0468206173904
 20
1125.77962307531
 30
0.0
 40
0.65
 41
0.0
 71
     5
 72
     1
  1
\A1;30 1/8
 73
     1
 44
1.0
  0
POINT
  5
1F50
330
1E9B
100
AcDbEntity
  8
DEFPOINTS
 62
     0
100
AcDbPoint
 10
-687.1255607747499
 20
1128.094460611863
 30
0.0
  0
POINT
  5
1F51
330
1E9B
100
AcDbEntity
  8
DEFPOINTS
 62
     0
100
AcDbPoint
 10
-656.9680804600311
 20
1128.094460154365
 30
0.0
  0
POINT
  5
1F52
330
1E9B
100
AcDbEntity
  8
DEFPOINTS
 62
     0
100
AcDbPoint
 10
-656.9680804600311
 20
1125.77962307531
 30
0.0
  0
ENDBLK
  5
1EA7
330
1E9B
100
AcDbEntity
  8
0
100
AcDbBlockEnd
  0
BLOCK
  5
1EB4
330
1EA9
100
AcDbEntity
  8
0
100
AcDbBlockBegin
  2
*D43
 70
     1
 10
0.0
 20
0.0
 30
0.0
  3
*D43
  1

  0
LINE
  5
1EAA
330
1EA9
100
AcDbEntity
  8
标注
370
    -2
100
AcDbLine
 10
-1356.38917936416
 20
971.190081052749
 30
0.0
 11
-1339.617857160643
 21
971.190081052749
 31
0.0
  0
LINE
  5
1EAB
330
1EA9
100
AcDbEntity
  8
标注
370
    -2
100
AcDbLine
 10
-1356.38917936416
 20
1086.190081052358
 30
0.0
 11
-1339.617857160643
 21
1086.190081052358
 31
0.0
  0
LINE
  5
1EAC
330
1EA9
100
AcDbEntity
  8
标注
370
    -2
100
AcDbLine
 10
-1339.937857160643
 20
971.8400810527491
 30
0.0
 11
-1339.937857160643
 21
1027.623414385886
 31
0.0
  0
LINE
  5
1EAD
330
1EA9
100
AcDbEntity
  8
标注
370
    -2
100
AcDbLine
 10
-1339.937857160643
 20
1085.540081052358
 30
0.0
 11
-1339.937857160643
 21
1029.75674771922
 31
0.0
  0
SOLID
  5
1EAE
330
1EA9
100
AcDbEntity
  8
标注
100
AcDbTrace
 10
-1340.046190493976
 20
971.8400810527491
 30
0.0
 11
-1339.829523827309
 21
971.8400810527491
 31
0.0
 12
-1339.937857160643
 22
971.190081052749
 32
0.0
 13
-1339.937857160643
 23
971.190081052749
 33
0.0
  0
SOLID
  5
1EAF
330
1EA9
100
AcDbEntity
  8
标注
100
AcDbTrace
 10
-1340.046190493976
 20
1085.540081052358
 30
0.0
 11
-1339.829523827309
 21
1085.540081052358
 31
0.0
 12
-1339.937857160643
 22
1086.190081052358
 32
0.0
 13
-1339.937857160643
 23
1086.190081052358
 33
0.0
  0
MTEXT
  5
1EB0
330
1EA9
100
AcDbEntity
  8
标注
100
AcDbMText
 10
-1339.937857160643
 20
1028.690081052553
 30
0.0
 40
0.65
 41
0.0
 71
     5
 72
     1
  1
\A1;115"
 11
0.0000000000000001
 21
1.0
 31
0.0
 73
     1
 44
1.0
  0
POINT
  5
1EB1
330
1EA9
100
AcDbEntity
  8
DEFPOINTS
 62
     0
100
AcDbPoint
 10
-1357.26917936416
 20
971.190081052749
 30
0.0
  0
POINT
  5
1EB2
330
1EA9
100
AcDbEntity
  8
DEFPOINTS
 62
     0
100
AcDbPoint
 10
-1357.26917936416
 20
1086.190081052358
 30
0.0
  0
POINT
  5
1EB3
330
1EA9
100
AcDbEntity
  8
DEFPOINTS
 62
     0
100
AcDbPoint
 10
-1339.937857160643
 20
1086.190081052358
 30
0.0
  0
ENDBLK
  5
1EB5
330
1EA9
100
AcDbEntity
  8
0
100
AcDbBlockEnd
  0
BLOCK
  5
1EC5
330
1EBA
100
AcDbEntity
  8
0
100
AcDbBlockBegin
  2
*D44
 70
     1
 10
0.0
 20
0.0
 30
0.0
  3
*D44
  1

  0
LINE
  5
1EBB
330
1EBA
100
AcDbEntity
  8
标注
370
    -2
100
AcDbLine
 10
-1355.294845915378
 20
966.3113072003476
 30
0.0
 11
-1345.070816300436
 21
966.3113072003476
 31
0.0
  0
LINE
  5
1EBC
330
1EBA
100
AcDbEntity
  8
标注
370
    -2
100
AcDbLine
 10
-1355.294845915378
 20
1086.190081052358
 30
0.0
 11
-1345.070816300436
 21
1086.190081052358
 31
0.0
  0
LINE
  5
1EBD
330
1EBA
100
AcDbEntity
  8
标注
370
    -2
100
AcDbLine
 10
-1345.390816300436
 20
966.9613072003476
 30
0.0
 11
-1345.390816300436
 21
1023.775694126352
 31
0.0
  0
LINE
  5
1EBE
330
1EBA
100
AcDbEntity
  8
标注
370
    -2
100
AcDbLine
 10
-1345.390816300436
 20
1085.540081052358
 30
0.0
 11
-1345.390816300436
 21
1028.725694126352
 31
0.0
  0
SOLID
  5
1EBF
330
1EBA
100
AcDbEntity
  8
标注
100
AcDbTrace
 10
-1345.499149633769
 20
966.9613072003476
 30
0.0
 11
-1345.282482967103
 21
966.9613072003476
 31
0.0
 12
-1345.390816300436
 22
966.3113072003476
 32
0.0
 13
-1345.390816300436
 23
966.3113072003476
 33
0.0
  0
SOLID
  5
1EC0
330
1EBA
100
AcDbEntity
  8
标注
100
AcDbTrace
 10
-1345.499149633769
 20
1085.540081052358
 30
0.0
 11
-1345.282482967103
 21
1085.540081052358
 31
0.0
 12
-1345.390816300436
 22
1086.190081052358
 32
0.0
 13
-1345.390816300436
 23
1086.190081052358
 33
0.0
  0
MTEXT
  5
1EC1
330
1EBA
100
AcDbEntity
  8
标注
100
AcDbMText
 10
-1345.390816300436
 20
1026.250694126352
 30
0.0
 40
0.65
 41
0.0
 71
     5
 72
     1
  1
\A1;119.8788"
 11
0.0000000000000001
 21
1.0
 31
0.0
 73
     1
 44
1.0
  0
POINT
  5
1EC2
330
1EBA
100
AcDbEntity
  8
DEFPOINTS
 62
     0
100
AcDbPoint
 10
-1356.174845915378
 20
966.3113072003476
 30
0.0
  0
POINT
  5
1EC3
330
1EBA
100
AcDbEntity
  8
DEFPOINTS
 62
     0
100
AcDbPoint
 10
-1356.174845915378
 20
1086.190081052358
 30
0.0
  0
POINT
  5
1EC4
330
1EBA
100
AcDbEntity
  8
DEFPOINTS
 62
     0
100
AcDbPoint
 10
-1345.390816300436
 20
1086.190081052358
 30
0.0
  0
ENDBLK
  5
1EC6
330
1EBA
100
AcDbEntity
  8
0
100
AcDbBlockEnd
  0
ENDSEC
  0
SECTION
  2
ENTITIES
  0
LINE
  5
1B41
330
1DB2
100
AcDbEntity
  8
0
100
AcDbLine
 10
-688.0852058588604
 20
1203.482063234153
 30
0.0
 11
-687.2033160950807
 21
1203.482063234153
 31
0.0
  0
LINE
  5
1B43
330
1DB2
100
AcDbEntity
  8
虚线
100
AcDbLine
 10
-686.4838383556855
 20
1193.59073635105
 30
0.0
 11
-674.441666566264
 21
1193.403323076759
 31
0.0
  0
LINE
  5
1B45
330
1DB2
100
AcDbEntity
  8
0
100
AcDbLine
 10
-656.9670956228841
 20
1203.482063234153
 30
0.0
 11
-656.0852058591045
 21
1203.482063234153
 31
0.0
  0
LINE
  5
1B47
330
1DB2
100
AcDbEntity
  8
0
100
AcDbLine
 10
-687.2033160950807
 20
1203.482063234153
 30
0.0
 11
-656.9670956228841
 21
1203.482063234153
 31
0.0
  0
LINE
  5
1B48
330
1DB2
100
AcDbEntity
  8
虚线
100
AcDbLine
 10
-674.368670425894
 20
1193.403323076759
 30
0.0
 11
-669.8017412920708
 21
1193.403323076759
 31
0.0
  0
LINE
  5
1B49
330
1DB2
100
AcDbEntity
  8
0
100
AcDbLine
 10
-688.0852058588604
 20
1165.853393432546
 30
0.0
 11
-688.0852058588458
 21
1183.853393432401
 31
0.0
  0
LINE
  5
1B4A
330
1DB2
100
AcDbEntity
  8
0
100
AcDbLine
 10
-688.0852058588604
 20
1165.853393432546
 30
0.0
 11
-656.0852058591045
 21
1165.853393432546
 31
0.0
  0
LINE
  5
1B4B
330
1DB2
100
AcDbEntity
  8
0
100
AcDbLine
 10
-688.0852058588458
 20
1183.853393432401
 30
0.0
 11
-656.0852058591045
 21
1183.853393432401
 31
0.0
  0
LINE
  5
1B4C
330
1DB2
100
AcDbEntity
  8
0
100
AcDbLine
 10
-656.0852058591045
 20
1183.853393432401
 30
0.0
 11
-656.0852058591045
 21
1165.853393432546
 31
0.0
  0
LINE
  5
1B4D
330
1DB2
100
AcDbEntity
  8
0
100
AcDbLine
 10
-687.0852058588642
 20
1166.853393432542
 30
0.0
 11
-657.0852058591006
 21
1166.853393432542
 31
0.0
  0
LINE
  5
1B4E
330
1DB2
100
AcDbEntity
  8
0
100
AcDbLine
 10
-657.0852058591006
 20
1182.85339343242
 30
0.0
 11
-657.0852058591006
 21
1166.853393432542
 31
0.0
  0
LINE
  5
1B4F
330
1DB2
100
AcDbEntity
  8
0
100
AcDbLine
 10
-687.0852058588642
 20
1166.853393432542
 30
0.0
 11
-687.0852058588642
 21
1182.85339343242
 31
0.0
  0
LINE
  5
1B50
330
1DB2
100
AcDbEntity
  8
0
100
AcDbLine
 10
-687.0852058588642
 20
1182.85339343242
 30
0.0
 11
-657.0852058591006
 21
1182.85339343242
 31
0.0
  0
CIRCLE
  5
1B53
330
1DB2
100
AcDbEntity
  8
0
100
AcDbCircle
 10
-672.0421218649361
 20
1178.133756666612
 30
0.0
 40
2.165354330691338
  0
CIRCLE
  5
1B54
330
1DB2
100
AcDbEntity
  8
0
100
AcDbCircle
 10
-672.0421218649361
 20
1178.133756666612
 30
0.0
 40
1.791338582662833
  0
CIRCLE
  5
1B55
330
1DB2
100
AcDbEntity
  8
0
100
AcDbCircle
 10
-672.0421218649361
 20
1178.133756666612
 30
0.0
 40
2.283464566910865
  0
LINE
  5
1B56
330
1DB2
100
AcDbEntity
  8
虚线
100
AcDbLine
 10
-669.728745673605
 20
1193.403323076759
 30
0.0
 11
-674.441666566264
 21
1193.403323076759
 31
0.0
  0
ARC
  5
1B58
330
1DB2
100
AcDbEntity
  8
虚线
100
AcDbCircle
 10
-674.4416665662789
 20
1193.285212840528
 30
0.0
 40
0.1181102362195276
100
AcDbArc
 50
26.56505106335313
 51
90.0
  0
ARC
  5
1B59
330
1DB2
100
AcDbEntity
  8
虚线
100
AcDbCircle
 10
-669.7287451516713
 20
1193.285212840528
 30
0.0
 40
0.1181102362195276
100
AcDbArc
 50
90.0
 51
153.4349486710915
  0
ARC
  5
1B5A
330
1DB2
100
AcDbEntity
  8
虚线
100
AcDbCircle
 10
-674.2140621194778
 20
1193.22615772242
 30
0.0
 40
0.0590551181097638
100
AcDbArc
 50
206.5650516412263
 51
269.9999999574794
  0
ARC
  5
1B5B
330
1DB2
100
AcDbEntity
  8
虚线
100
AcDbCircle
 10
-669.9563495984867
 20
1193.22615772242
 30
0.0
 40
0.0590551181097638
100
AcDbArc
 50
270.0000000425206
 51
333.4349477713555
  0
LINE
  5
1B5C
330
1DB2
100
AcDbEntity
  8
虚线
100
AcDbLine
 10
-669.9035290950952
 20
1193.199747470739
 30
0.0
 11
-669.8343861584833
 21
1193.338033343949
 31
0.0
  0
LINE
  5
1B5D
330
1DB2
100
AcDbEntity
  8
虚线
100
AcDbLine
 10
-674.2140621194778
 20
1193.167102604312
 30
0.0
 11
-673.8568594022742
 21
1193.167102604312
 31
0.0
  0
LINE
  5
1B5E
330
1DB2
100
AcDbEntity
  8
虚线
100
AcDbLine
 10
-670.3135523156902
 20
1193.108047486203
 30
0.0
 11
-670.3135523156902
 21
1193.167102604312
 31
0.0
  0
LINE
  5
1B5F
330
1DB2
100
AcDbEntity
  8
虚线
100
AcDbLine
 10
-674.2668826228692
 20
1193.199747470739
 30
0.0
 11
-674.3360255594815
 21
1193.338033343949
 31
0.0
  0
LINE
  5
1B60
330
1DB2
100
AcDbEntity
  8
虚线
100
AcDbLine
 10
-673.8568594022742
 20
1193.108047486203
 30
0.0
 11
-673.8568594022742
 21
1193.167102604312
 31
0.0
  0
LINE
  5
1B61
330
1DB2
100
AcDbEntity
  8
虚线
100
AcDbLine
 10
-670.3135523156902
 20
1193.167102604312
 30
0.0
 11
-669.9563495984867
 21
1193.167102604312
 31
0.0
  0
LINE
  5
1B62
330
1DB2
100
AcDbEntity
  8
虚线
100
AcDbLine
 10
-673.8568594022742
 20
1193.167102604312
 30
0.0
 11
-670.3135523156902
 21
1193.167102604312
 31
0.0
  0
LINE
  5
1B63
330
1DB2
100
AcDbEntity
  8
0
100
AcDbLine
 10
-674.3197031262752
 20
1193.173337219043
 30
0.0
 11
-674.3888460628729
 21
1193.311623092253
 31
0.0
  0
ARC
  5
1B64
330
1DB2
100
AcDbEntity
  8
0
100
AcDbCircle
 10
-674.4416665662789
 20
1193.285212840528
 30
0.0
 40
0.0590551181097638
100
AcDbArc
 50
26.56505106335313
 51
90.0
  0
LINE
  5
1B65
330
1DB2
100
AcDbEntity
  8
0
100
AcDbLine
 10
-686.5393867052165
 20
1193.531596894551
 30
0.0
 11
-674.441666566264
 21
1193.344267958651
 31
0.0
  0
ARC
  5
1B66
330
1DB2
100
AcDbEntity
  8
0
100
AcDbCircle
 10
-674.2140621194778
 20
1193.22615772242
 30
0.0
 40
0.1181102362195276
100
AcDbArc
 50
206.5650516412263
 51
269.9999999574794
  0
LINE
  5
1B67
330
1DB2
100
AcDbEntity
  8
0
100
AcDbLine
 10
-674.2140621194778
 20
1193.108047486203
 30
0.0
 11
-673.8568594022742
 21
1193.108047486203
 31
0.0
  0
LINE
  5
1B68
330
1DB2
100
AcDbEntity
  8
0
100
AcDbLine
 10
-673.8568594022742
 20
1193.108047486203
 30
0.0
 11
-670.3135523156902
 21
1193.108047486203
 31
0.0
  0
LINE
  5
1B69
330
1DB2
100
AcDbEntity
  8
0
100
AcDbLine
 10
-670.3135523156902
 20
1193.108047486203
 30
0.0
 11
-669.9563495984867
 21
1193.108047486203
 31
0.0
  0
ARC
  5
1B6A
330
1DB2
100
AcDbEntity
  8
0
100
AcDbCircle
 10
-669.9563495984867
 20
1193.22615772242
 30
0.0
 40
0.1181102362195276
100
AcDbArc
 50
270.0000000425206
 51
333.4349477713555
  0
LINE
  5
1B6B
330
1DB2
100
AcDbEntity
  8
0
100
AcDbLine
 10
-669.8507085916896
 20
1193.173337219043
 30
0.0
 11
-669.7815656550773
 21
1193.311623092253
 31
0.0
  0
ARC
  5
1B6C
330
1DB2
100
AcDbEntity
  8
0
100
AcDbCircle
 10
-669.7287451516713
 20
1193.285212840528
 30
0.0
 40
0.0590551181097638
100
AcDbArc
 50
90.0
 51
153.4349486710915
  0
LINE
  5
1B6E
330
1DB2
100
AcDbEntity
  8
0
100
AcDbLine
 10
-656.9670956228841
 20
1203.423008116045
 30
0.0
 11
-656.0852058591045
 21
1203.423008116045
 31
0.0
  0
LINE
  5
1B6F
330
1DB2
100
AcDbEntity
  8
0
100
AcDbLine
 10
-688.0852058588604
 20
1203.423008116045
 30
0.0
 11
-687.2033160950807
 21
1203.423008116045
 31
0.0
  0
LINE
  5
1B71
330
1DB2
100
AcDbEntity
  8
0
100
AcDbLine
 10
-688.0852058588604
 20
1203.482063234153
 30
0.0
 11
-688.0852058588604
 21
1203.423008116045
 31
0.0
  0
LINE
  5
1B72
330
1DB2
100
AcDbEntity
  8
0
100
AcDbLine
 10
-656.0852058591045
 20
1203.482063234153
 30
0.0
 11
-656.0852058591045
 21
1203.423008116045
 31
0.0
  0
LINE
  5
1B79
330
1DB2
100
AcDbEntity
  8
虚线
100
AcDbLine
 10
-657.6865738846802
 20
1193.590736342934
 30
0.0
 11
-669.7287451516861
 21
1193.403323076759
 31
0.0
  0
LINE
  5
1B7A
330
1DB2
100
AcDbEntity
  8
0
100
AcDbLine
 10
-657.6310255351467
 20
1193.531596886476
 30
0.0
 11
-669.7287451516861
 21
1193.344267958651
 31
0.0
  0
LINE
  5
1B7E
330
1DB2
100
AcDbEntity
  8
0
100
AcDbLine
 10
-669.920896093742
 20
1178.979103729042
 30
0.0
 11
-657.0852058591006
 21
1182.85339343242
 31
0.0
  0
LINE
  5
1B7F
330
1DB2
100
AcDbEntity
  8
0
100
AcDbLine
 10
-687.0852058588642
 20
1166.853393432542
 30
0.0
 11
-673.9589251234511
 21
1176.892758803405
 31
0.0
  0
LINE
  5
1B80
330
1DB2
100
AcDbEntity
  8
0
100
AcDbLine
 10
-687.0852058588642
 20
1182.85339343242
 30
0.0
 11
-674.1724683789581
 21
1178.955847998844
 31
0.0
  0
LINE
  5
1B87
330
1DB2
100
AcDbEntity
  8
0
100
AcDbLine
 10
-656.9670956228841
 20
1203.423008116045
 30
0.0
 11
-687.2033160950807
 21
1203.423008116047
 31
0.0
  0
LINE
  5
1B88
330
1DB2
100
AcDbEntity
  8
0
100
AcDbLine
 10
-674.4416665662789
 20
1193.344267958638
 30
0.0
 11
-669.7287451516861
 21
1193.344267958651
 31
0.0
  0
INSERT
  5
1B89
330
1DB2
100
AcDbEntity
  8
标注
100
AcDbBlockReference
  2
*U32
 10
-1016.315169723585
 20
1013.548079224213
 30
0.0
  0
INSERT
  5
1B8A
330
1DB2
100
AcDbEntity
  8
标注
100
AcDbBlockReference
  2
*U33
 10
-1016.315169723585
 20
1013.548079224213
 30
0.0
  0
DIMENSION
  5
1B8B
330
1DB2
100
AcDbEntity
  8
标注
100
AcDbDimension
  2
*D36
 10
-657.0852058591006
 20
1163.466022328806
 30
0.0
 11
-672.0852058589825
 21
1163.466022328806
 31
0.0
 70
   160
 71
     5
 42
29.99999999976365
  3
副本STANDARD
100
AcDbAlignedDimension
 13
-687.0852058588642
 23
1165.853393432546
 33
0.0
 14
-657.0852058591006
 24
1165.853393432546
 34
0.0
100
AcDbRotatedDimension
  0
DIMENSION
  5
1BA5
330
1DB2
100
AcDbEntity
  8
标注
100
AcDbDimension
  2
*D37
 10
-656.0852058591045
 20
1162.267519812438
 30
0.0
 11
-672.0852058589825
 21
1162.267519812438
 31
0.0
 70
    32
 71
     5
 42
31.9999999997558
  3
副本STANDARD
100
AcDbAlignedDimension
 13
-688.0852058588604
 23
1165.853393432546
 33
0.0
 14
-656.0852058591045
 24
1165.853393432546
 34
0.0
100
AcDbRotatedDimension
  0
DIMENSION
  5
1BBF
330
1DB2
100
AcDbEntity
  8
标注
100
AcDbDimension
  2
*D38
 10
-654.4797905259493
 20
1182.85339343242
 30
0.0
 11
-654.4797905259494
 21
1174.85339343248
 31
0.0
 70
    32
 71
     5
 42
15.9999999998779
  3
副本STANDARD
100
AcDbAlignedDimension
 13
-656.0852058591045
 23
1166.853393432542
 33
0.0
 14
-656.0852058591045
 24
1182.85339343242
 34
0.0
 50
90.0
100
AcDbRotatedDimension
  0
DIMENSION
  5
1BD9
330
1DB2
100
AcDbEntity
  8
标注
100
AcDbDimension
  2
*D39
 10
-653.0808596740372
 20
1183.853393432401
 30
0.0
 11
-653.0808596740373
 21
1174.853393432473
 31
0.0
 70
    32
 71
     5
 42
17.99999999985493
  3
副本STANDARD
100
AcDbAlignedDimension
 13
-656.0852058591045
 23
1165.853393432546
 33
0.0
 14
-656.0852058591045
 24
1183.853393432401
 34
0.0
 50
90.0
100
AcDbRotatedDimension
  0
DIMENSION
  5
1BF3
330
1DB2
100
AcDbEntity
  8
标注
100
AcDbDimension
  2
*D40
 10
-654.3669875177791
 20
1193.53909110344
 30
0.0
 11
-654.3669875177791
 21
1198.510577168796
 31
0.0
 70
   160
 71
     5
 42
9.94297213071286
  3
副本STANDARD
100
AcDbAlignedDimension
 13
-656.0852058591045
 23
1203.482063234153
 33
0.0
 14
-656.0855842952207
 24
1193.53909110344
 34
0.0
 50
90.0
100
AcDbRotatedDimension
  0
LINE
  5
1CB2
330
1DB2
100
AcDbEntity
  8
中心线
  6
Continuous
 62
     1
100
AcDbLine
 10
-687.1255607747499
 20
1144.251940926696
 30
0.0
 11
-656.9680804600311
 21
1144.251940926696
 31
0.0
  0
LINE
  5
1CB3
330
1DB2
100
AcDbEntity
  8
中心线
  6
Continuous
 62
     1
100
AcDbLine
 10
-656.9680804600311
 20
1144.251940926696
 30
0.0
 11
-656.9680804600311
 21
1128.094460611863
 31
0.0
  0
LINE
  5
1CB4
330
1DB2
100
AcDbEntity
  8
中心线
  6
Continuous
 62
     1
100
AcDbLine
 10
-687.1255607747499
 20
1128.094460611863
 30
0.0
 11
-687.1255607747499
 21
1144.251940926696
 31
0.0
  0
LINE
  5
1CB5
330
1DB2
100
AcDbEntity
  8
中心线
  6
Continuous
 62
     1
100
AcDbLine
 10
-687.1255607747499
 20
1128.094460611863
 30
0.0
 11
-656.9680804600311
 21
1128.094460611863
 31
0.0
  0
DIMENSION
  5
1CB6
330
1DB2
100
AcDbEntity
  8
标注
100
AcDbDimension
  2
*D41
 10
-655.1782108010918
 20
1144.251940926696
 30
0.0
 11
-655.1782108010919
 21
1136.17320054053
 31
0.0
 70
    32
 71
     5
 42
16.15748077233115
  3
副本STANDARD
100
AcDbAlignedDimension
 13
-656.9680804600311
 23
1128.094460154365
 33
0.0
 14
-656.9680804600311
 24
1144.251940926696
 34
0.0
 50
90.0
100
AcDbRotatedDimension
  0
DIMENSION
  5
1CD0
330
1DB2
100
AcDbEntity
  8
标注
100
AcDbDimension
  2
*D42
 10
-656.9680804600311
 20
1125.77962307531
 30
0.0
 11
-672.0468206173904
 21
1125.77962307531
 31
0.0
 70
    32
 71
     5
 42
30.15748031471878
  3
副本STANDARD
100
AcDbAlignedDimension
 13
-687.1255607747499
 23
1128.094460611863
 33
0.0
 14
-656.9680804600311
 24
1128.094460154365
 34
0.0
100
AcDbRotatedDimension
  0
INSERT
  5
1CF1
330
1DB2
100
AcDbEntity
  8
标注
100
AcDbBlockReference
  2
*U35
 10
-1016.315169723585
 20
1013.548079224213
 30
0.0
  0
LINE
  5
1CF2
330
1DB2
100
AcDbEntity
  8
中心线
  6
Continuous
 62
     1
100
AcDbLine
 10
-677.8011330142334
 20
1121.658759693732
 30
0.0
 11
-671.5843280101742
 21
1121.658759693732
 31
0.0
  0
LINE
  5
1EB6
330
1DB2
100
AcDbEntity
  8
0
100
AcDbLine
 10
-670.1543360880702
 20
1176.849048416073
 30
0.0
 11
-657.0852058591006
 21
1166.853393432542
 31
0.0
  0
LINE
  5
1ECD
330
1DB2
100
AcDbEntity
  8
标注
100
AcDbLine
 10
-687.0852058588642
 20
1203.423008116045
 30
0.0
 11
-686.4838383556855
 21
1193.59073635105
 31
0.0
  0
LINE
  5
1ECE
330
1DB2
100
AcDbEntity
  8
标注
100
AcDbLine
 10
-687.1441508272747
 20
1203.419402887332
 30
0.0
 11
-686.5393867052165
 21
1193.531596894551
 31
0.0
  0
LINE
  5
1ECF
330
1DB2
100
AcDbEntity
  8
标注
100
AcDbLine
 10
-657.0852063810051
 20
1203.423008116045
 30
0.0
 11
-657.6865738846802
 21
1193.590736342934
 31
0.0
  0
LINE
  5
1ED0
330
1DB2
100
AcDbEntity
  8
标注
100
AcDbLine
 10
-657.0262614125946
 20
1203.419402887332
 30
0.0
 11
-657.6310255351467
 21
1193.531596886476
 31
0.0
  0
ENDSEC
  0
SECTION
  2
OBJECTS
  0
DICTIONARY
  5
1D88
330
0
100
AcDbDictionary
281
     1
  3
ACAD_COLOR
350
1DAB
  3
ACAD_GROUP
350
1D89
  3
ACAD_LAYOUT
350
1DAA
  3
ACAD_MATERIAL
350
1D8C
  3
ACAD_MLINESTYLE
350
1DA7
  3
ACAD_PLOTSETTINGS
350
1DA9
  3
ACAD_PLOTSTYLENAME
350
1D8A
  3
ACAD_TABLESTYLE
350
1DAC
  3
ACAD_VISUALSTYLE
350
1D90
  3
AcDbVariableDictionary
350
1F17
  0
DICTIONARY
  5
1EB7
330
1DB2
100
AcDbDictionary
280
     1
281
     1
  3
ACAD_SORTENTS
360
1EB8
  0
DICTIONARY
  5
1DAB
102
{ACAD_REACTORS
330
1D88
102
}
330
1D88
100
AcDbDictionary
281
     1
  0
DICTIONARY
  5
1D89
102
{ACAD_REACTORS
330
1D88
102
}
330
1D88
100
AcDbDictionary
281
     1
  0
DICTIONARY
  5
1DAA
102
{ACAD_REACTORS
330
1D88
102
}
330
1D88
100
AcDbDictionary
281
     1
  3
Model
350
1DB5
  3
布局1
350
1DB1
  0
DICTIONARY
  5
1D8C
102
{ACAD_REACTORS
330
1D88
102
}
330
1D88
100
AcDbDictionary
281
     1
  3
ByBlock
350
1D8E
  3
ByLayer
350
1D8D
  3
Global
350
1D8F
  0
DICTIONARY
  5
1DA7
102
{ACAD_REACTORS
330
1D88
102
}
330
1D88
100
AcDbDictionary
281
     1
  3
Standard
350
1DA8
  0
DICTIONARY
  5
1DA9
102
{ACAD_REACTORS
330
1D88
102
}
330
1D88
100
AcDbDictionary
281
     1
  0
ACDBDICTIONARYWDFLT
  5
1D8A
102
{ACAD_REACTORS
330
1D88
102
}
330
1D88
100
AcDbDictionary
281
     1
  3
Normal
350
1D8B
100
AcDbDictionaryWithDefault
340
1D8B
  0
DICTIONARY
  5
1DAC
102
{ACAD_REACTORS
330
1D88
102
}
330
1D88
100
AcDbDictionary
281
     1
  3
Standard
350
1DAD
  0
DICTIONARY
  5
1D90
102
{ACAD_REACTORS
330
1D88
102
}
330
1D88
100
AcDbDictionary
281
     1
  3
2dWireframe
350
1D96
  3
3D Hidden
350
1D98
  3
3dWireframe
350
1D97
  3
Basic
350
1D95
  3
Brighten
350
1D9C
  3
ColorChange
350
1DA0
  3
Conceptual
350
1D99
  3
Dim
350
1D9B
  3
Facepattern
350
1D9F
  3
Flat
350
1D91
  3
FlatWithEdges
350
1D92
  3
Gouraud
350
1D93
  3
GouraudWithEdges
350
1D94
  3
Linepattern
350
1D9E
  3
Realistic
350
1D9A
  3
Thicken
350
1D9D
  0
DICTIONARY
  5
1F17
102
{ACAD_REACTORS
330
1D88
102
}
330
1D88
100
AcDbDictionary
281
     1
  3
CTABLESTYLE
350
1F18
  0
SORTENTSTABLE
  5
1EB8
102
{ACAD_REACTORS
330
1EB7
102
}
330
1EB7
100
AcDbSortentsTable
330
1DB2
331
1B8A
  5
1B8B
331
1B45
  5
1B45
331
1B48
  5
1B48
331
1B4B
  5
1B4B
331
1B4E
  5
1B4E
331
1B54
  5
1B54
331
1BBF
  5
1BD9
331
1B5A
  5
1B5A
331
1B5D
  5
1B5D
331
1B62
  5
1B62
331
1B65
  5
1B65
331
1B68
  5
1B68
331
1B6B
  5
1B6B
331
1CB3
  5
1CB4
331
1B6E
  5
1B6E
331
1CB6
  5
1CD0
331
1B71
  5
1B71
331
1B7A
  5
1B7A
331
1B41
  5
1B41
331
1B89
  5
1B8A
331
1ECE
  5
1ECE
331
1B47
  5
1B47
331
1B4A
  5
1B4A
331
1EB6
  5
1B7E
331
1B4D
  5
1B4D
331
1BA5
  5
1BBF
331
1B50
  5
1B50
331
1CF2
  5
1EB6
331
1B53
  5
1B53
331
1B56
  5
1B56
331
1B59
  5
1B59
331
1BD9
  5
1BF3
331
1B5C
  5
1B5C
331
1B5F
  5
1B5F
331
1B61
  5
1B61
331
1B64
  5
1B64
331
1B67
  5
1B67
331
1B6A
  5
1B6A
331
1CB2
  5
1CB3
331
1CB5
  5
1CB6
331
1CD0
  5
1CF1
331
1B79
  5
1B79
331
1B7F
  5
1B80
331
1B87
  5
1B88
331
1B88
  5
1B89
331
1B43
  5
1B43
331
1ECD
  5
1ECD
331
1B8B
  5
1BA5
331
1B49
  5
1B49
331
1B4C
  5
1B4C
331
1CF1
  5
1CF2
331
1B4F
  5
1B4F
331
1B55
  5
1B55
331
1B58
  5
1B58
331
1B5B
  5
1B5B
331
1B5E
  5
1B5E
331
1B60
  5
1B60
331
1B63
  5
1B63
331
1B66
  5
1B66
331
1BF3
  5
1CB2
331
1B69
  5
1B69
331
1B6C
  5
1B6C
331
1CB4
  5
1CB5
331
1B6F
  5
1B6F
331
1B72
  5
1B72
331
1B7E
  5
1B7F
331
1B80
  5
1B87
  0
LAYOUT
  5
1DB5
102
{ACAD_REACTORS
330
1DAA
102
}
330
1DAA
100
AcDbPlotSettings
  1

  2
\\Jw2dstap8i27w9o\KONICA MINOLTA 185
  4

  6

 40
0.0
 41
0.0
 42
0.0
 43
0.0
 44
0.0
 45
0.0
 46
0.0
 47
0.0
 48
0.0
 49
0.0
140
0.0
141
0.0
142
1.0
143
1.0
 70
  1712
 72
     0
 73
     0
 74
     0
  7

 75
     0
147
1.0
 76
     0
 77
     2
 78
   300
148
0.0
149
0.0
100
AcDbLayout
  1
Model
 70
     1
 71
     0
 10
0.0
 20
0.0
 11
12.0
 21
9.0
 12
0.0
 22
0.0
 32
0.0
 14
0.0
 24
0.0
 34
0.0
 15
0.0
 25
0.0
 35
0.0
146
0.0
 13
0.0
 23
0.0
 33
0.0
 16
1.0
 26
0.0
 36
0.0
 17
0.0
 27
1.0
 37
0.0
 76
     0
330
1DB2
331
1DB7
  0
LAYOUT
  5
1DB1
102
{ACAD_REACTORS
330
1DAA
102
}
330
1DAA
100
AcDbPlotSettings
  1

  2
\\Jw2dstap8i27w9o\KONICA MINOLTA 185
  4

  6

 40
0.0
 41
0.0
 42
0.0
 43
0.0
 44
0.0
 45
0.0
 46
0.0
 47
0.0
 48
0.0
 49
0.0
140
0.0
141
0.0
142
1.0
143
1.0
 70
   688
 72
     0
 73
     0
 74
     5
  7

 75
    16
147
1.0
 76
     0
 77
     2
 78
   300
148
0.0
149
0.0
100
AcDbLayout
  1
布局1
 70
     1
 71
     1
 10
0.0
 20
0.0
 11
12.0
 21
9.0
 12
0.0
 22
0.0
 32
0.0
 14
1.000000000000000E+20
 24
1.000000000000000E+20
 34
1.000000000000000E+20
 15
-1.000000000000000E+20
 25
-1.000000000000000E+20
 35
-1.000000000000000E+20
146
0.0
 13
0.0
 23
0.0
 33
0.0
 16
1.0
 26
0.0
 36
0.0
 17
0.0
 27
1.0
 37
0.0
 76
     0
330
1DAE
  0
MATERIAL
  5
1D8E
102
{ACAD_XDICTIONARY
360
1F1B
102
}
102
{ACAD_REACTORS
330
1D8C
102
}
330
1D8C
100
AcDbMaterial
  1
ByBlock
  0
MATERIAL
  5
1D8D
102
{ACAD_XDICTIONARY
360
1F19
102
}
102
{ACAD_REACTORS
330
1D8C
102
}
330
1D8C
100
AcDbMaterial
  1
ByLayer
  0
MATERIAL
  5
1D8F
102
{ACAD_XDICTIONARY
360
1F1D
102
}
102
{ACAD_REACTORS
330
1D8C
102
}
330
1D8C
100
AcDbMaterial
  1
Global
  0
MLINESTYLE
  5
1DA8
102
{ACAD_REACTORS
330
1DA7
102
}
330
1DA7
100
AcDbMlineStyle
  2
STANDARD
 70
     0
  3

 62
   256
 51
90.0
 52
90.0
 71
     2
 49
0.5
 62
   256
  6
BYLAYER
 49
-0.5
 62
   256
  6
BYLAYER
  0
ACDBPLACEHOLDER
  5
1D8B
102
{ACAD_REACTORS
330
1D8A
102
}
330
1D8A
  0
TABLESTYLE
  5
1DAD
102
{ACAD_XDICTIONARY
360
1FB7
102
}
102
{ACAD_REACTORS
330
1DAC
102
}
330
1DAC
100
AcDbTableStyle
  3
Standard
 70
     0
 71
     0
 40
0.06
 41
0.06
280
     0
281
     0
  7
STANDARD
140
0.18
170
     2
 62
     0
 63
     7
283
     0
274
    -2
284
     1
 64
     0
275
    -2
285
     1
 65
     0
276
    -2
286
     1
 66
     0
277
    -2
287
     1
 67
     0
278
    -2
288
     1
 68
     0
279
    -2
289
     1
 69
     0
  7
STANDARD
140
0.25
170
     5
 62
     0
 63
     7
283
     0
274
    -2
284
     1
 64
     0
275
    -2
285
     1
 65
     0
276
    -2
286
     1
 66
     0
277
    -2
287
     1
 67
     0
278
    -2
288
     1
 68
     0
279
    -2
289
     1
 69
     0
  7
STANDARD
140
0.18
170
     5
 62
     0
 63
     7
283
     0
274
    -2
284
     1
 64
     0
275
    -2
285
     1
 65
     0
276
    -2
286
     1
 66
     0
277
    -2
287
     1
 67
     0
278
    -2
288
     1
 68
     0
279
    -2
289
     1
 69
     0
  0
VISUALSTYLE
  5
1D96
102
{ACAD_REACTORS
330
1D90
102
}
330
1D90
100
AcDbVisualStyle
  2
2dWireframe
 70
     4
 71
     0
 72
     2
 73
     0
 90
        0
 40
-0.6
 41
-30.0
 62
     5
 63
     7
421
 16777215
 74
     1
 91
        4
 64
     7
 65
   257
 75
     1
175
     1
 42
1.0
 92
        0
 66
   257
 43
1.0
 76
     1
 77
     6
 78
     2
 67
     7
 79
     5
170
     0
171
     0
290
     0
174
     0
 93
        1
 44
0.0
173
     0
291
     0
 45
0.0
1001
ACAD
1000
AcDbSavedByObjectVersion
1070
     0
1000
AcDbSavedByObjectVersion
1070
     0
  0
VISUALSTYLE
  5
1D98
102
{ACAD_REACTORS
330
1D90
102
}
330
1D90
100
AcDbVisualStyle
  2
3D Hidden
 70
     6
 71
     1
 72
     2
 73
     2
 90
        0
 40
-0.6
 41
-30.0
 62
     5
 63
     7
421
 16777215
 74
     2
 91
        2
 64
     7
 65
   257
 75
     2
175
     1
 42
40.0
 92
        0
 66
   257
 43
1.0
 76
     1
 77
     6
 78
     2
 67
     7
 79
     3
170
     0
171
     0
290
     0
174
     0
 93
        1
 44
0.0
173
     0
291
     0
 45
0.0
1001
ACAD
1000
AcDbSavedByObjectVersion
1070
     0
1000
AcDbSavedByObjectVersion
1070
     0
  0
VISUALSTYLE
  5
1D97
102
{ACAD_REACTORS
330
1D90
102
}
330
1D90
100
AcDbVisualStyle
  2
3dWireframe
 70
     5
 71
     0
 72
     2
 73
     0
 90
        0
 40
-0.6
 41
-30.0
 62
     5
 63
     7
421
 16777215
 74
     1
 91
        4
 64
     7
 65
   257
 75
     1
175
     1
 42
1.0
 92
        0
 66
   257
 43
1.0
 76
     1
 77
     6
 78
     2
 67
     7
 79
     5
170
     0
171
     0
290
     0
174
     0
 93
        1
 44
0.0
173
     0
291
     0
 45
0.0
1001
ACAD
1000
AcDbSavedByObjectVersion
1070
     0
1000
AcDbSavedByObjectVersion
1070
     0
  0
VISUALSTYLE
  5
1D95
102
{ACAD_REACTORS
330
1D90
102
}
330
1D90
100
AcDbVisualStyle
  2
Basic
 70
     7
 71
     1
 72
     0
 73
     1
 90
        0
 40
-0.6
 41
-30.0
 62
     5
 63
     7
421
 16777215
 74
     0
 91
        4
 64
     7
 65
   257
 75
     1
175
     1
 42
1.0
 92
        8
 66
     7
 43
1.0
 76
     1
 77
     6
 78
     2
 67
     7
 79
     5
170
     0
171
     0
290
     0
174
     0
 93
        1
 44
0.0
173
     0
291
     1
 45
0.0
1001
ACAD
1000
AcDbSavedByObjectVersion
1070
     0
1000
AcDbSavedByObjectVersion
1070
     0
  0
VISUALSTYLE
  5
1D9C
102
{ACAD_REACTORS
330
1D90
102
}
330
1D90
100
AcDbVisualStyle
  2
Brighten
 70
    12
 71
     2
 72
     2
 73
     0
 90
        0
 40
-0.6
 41
-30.0
 62
     5
 63
     7
421
 16777215
 74
     1
 91
        4
 64
     7
 65
   257
 75
     1
175
     1
 42
1.0
 92
        8
 66
     7
 43
1.0
 76
     1
 77
     6
 78
     2
 67
     7
 79
     5
170
     0
171
     0
290
     0
174
     0
 93
        1
 44
50.0
173
     0
291
     1
 45
0.0
1001
ACAD
1000
AcDbSavedByObjectVersion
1070
     0
1000
AcDbSavedByObjectVersion
1070
     0
  0
VISUALSTYLE
  5
1DA0
102
{ACAD_REACTORS
330
1D90
102
}
330
1D90
100
AcDbVisualStyle
  2
ColorChange
 70
    16
 71
     2
 72
     2
 73
     3
 90
        0
 40
-0.6
 41
-30.0
 62
     5
 63
     8
421
  8421504
 74
     1
 91
        4
 64
     7
 65
   257
 75
     1
175
     1
 42
1.0
 92
        8
 66
     8
424
  8421504
 43
1.0
 76
     1
 77
     6
 78
     2
 67
     7
 79
     5
170
     0
171
     0
290
     0
174
     0
 93
        1
 44
0.0
173
     0
291
     1
 45
0.0
1001
ACAD
1000
AcDbSavedByObjectVersion
1070
     0
1000
AcDbSavedByObjectVersion
1070
     0
  0
VISUALSTYLE
  5
1D99
102
{ACAD_REACTORS
330
1D90
102
}
330
1D90
100
AcDbVisualStyle
  2
Conceptual
 70
     9
 71
     3
 72
     2
 73
     0
 90
        0
 40
-0.6
 41
-30.0
 62
     5
 63
     7
421
 16777215
 74
     2
 91
        2
 64
     7
 65
   257
 75
     1
175
     1
 42
40.0
 92
        8
 66
     7
 43
1.0
 76
     1
 77
     6
 78
     2
 67
     7
 79
     3
170
     0
171
     0
290
     0
174
     0
 93
        1
 44
0.0
173
     0
291
     0
 45
0.0
1001
ACAD
1000
AcDbSavedByObjectVersion
1070
     0
1000
AcDbSavedByObjectVersion
1070
     0
  0
VISUALSTYLE
  5
1D9B
102
{ACAD_REACTORS
330
1D90
102
}
330
1D90
100
AcDbVisualStyle
  2
Dim
 70
    11
 71
     2
 72
     2
 73
     0
 90
        0
 40
-0.6
 41
-30.0
 62
     5
 63
     7
421
 16777215
 74
     1
 91
        4
 64
     7
 65
   257
 75
     1
175
     1
 42
1.0
 92
        8
 66
     7
 43
1.0
 76
     1
 77
     6
 78
     2
 67
     7
 79
     5
170
     0
171
     0
290
     0
174
     0
 93
        1
 44
-50.0
173
     0
291
     1
 45
0.0
1001
ACAD
1000
AcDbSavedByObjectVersion
1070
     0
1000
AcDbSavedByObjectVersion
1070
     0
  0
VISUALSTYLE
  5
1D9F
102
{ACAD_REACTORS
330
1D90
102
}
330
1D90
100
AcDbVisualStyle
  2
Facepattern
 70
    15
 71
     2
 72
     2
 73
     0
 90
        0
 40
-0.6
 41
-30.0
 62
     5
 63
     7
421
 16777215
 74
     1
 91
        4
 64
     7
 65
   257
 75
     1
175
     1
 42
1.0
 92
        8
 66
     7
 43
1.0
 76
     1
 77
     6
 78
     2
 67
     7
 79
     5
170
     0
171
     0
290
     0
174
     0
 93
        1
 44
0.0
173
     0
291
     1
 45
0.0
1001
ACAD
1000
AcDbSavedByObjectVersion
1070
     0
1000
AcDbSavedByObjectVersion
1070
     0
  0
VISUALSTYLE
  5
1D91
102
{ACAD_REACTORS
330
1D90
102
}
330
1D90
100
AcDbVisualStyle
  2
Flat
 70
     0
 71
     2
 72
     1
 73
     1
 90
        2
 40
-0.6
 41
30.0
 62
     5
 63
     7
421
 16777215
 74
     0
 91
        4
 64
     7
 65
   257
 75
     1
175
     1
 42
1.0
 92
        8
 66
     7
 43
1.0
 76
     1
 77
     6
 78
     2
 67
     7
 79
     5
170
     0
171
     0
290
     0
174
     0
 93
       13
 44
0.0
173
     0
291
     1
 45
0.0
1001
ACAD
1000
AcDbSavedByObjectVersion
1070
     0
1000
AcDbSavedByObjectVersion
1070
     0
  0
VISUALSTYLE
  5
1D92
102
{ACAD_REACTORS
330
1D90
102
}
330
1D90
100
AcDbVisualStyle
  2
FlatWithEdges
 70
     1
 71
     2
 72
     1
 73
     1
 90
        2
 40
-0.6
 41
30.0
 62
     5
 63
     7
421
 16777215
 74
     1
 91
        4
 64
     7
 65
   257
 75
     1
175
     1
 42
1.0
 92
        0
 66
   257
 43
1.0
 76
     1
 77
     6
 78
     2
 67
     7
 79
     5
170
     0
171
     0
290
     0
174
     0
 93
       13
 44
0.0
173
     0
291
     1
 45
0.0
1001
ACAD
1000
AcDbSavedByObjectVersion
1070
     0
1000
AcDbSavedByObjectVersion
1070
     0
  0
VISUALSTYLE
  5
1D93
102
{ACAD_REACTORS
330
1D90
102
}
330
1D90
100
AcDbVisualStyle
  2
Gouraud
 70
     2
 71
     2
 72
     2
 73
     1
 90
        2
 40
-0.6
 41
30.0
 62
     5
 63
     7
421
 16777215
 74
     0
 91
        4
 64
     7
 65
   257
 75
     1
175
     1
 42
1.0
 92
        0
 66
     7
 43
1.0
 76
     1
 77
     6
 78
     2
 67
     7
 79
     5
170
     0
171
     0
290
     0
174
     0
 93
       13
 44
0.0
173
     0
291
     1
 45
0.0
1001
ACAD
1000
AcDbSavedByObjectVersion
1070
     0
1000
AcDbSavedByObjectVersion
1070
     0
  0
VISUALSTYLE
  5
1D94
102
{ACAD_REACTORS
330
1D90
102
}
330
1D90
100
AcDbVisualStyle
  2
GouraudWithEdges
 70
     3
 71
     2
 72
     2
 73
     1
 90
        2
 40
-0.6
 41
30.0
 62
     5
 63
     7
421
 16777215
 74
     1
 91
        4
 64
     7
 65
   257
 75
     1
175
     1
 42
1.0
 92
        0
 66
   257
 43
1.0
 76
     1
 77
     6
 78
     2
 67
     7
 79
     5
170
     0
171
     0
290
     0
174
     0
 93
       13
 44
0.0
173
     0
291
     1
 45
0.0
1001
ACAD
1000
AcDbSavedByObjectVersion
1070
     0
1000
AcDbSavedByObjectVersion
1070
     0
  0
VISUALSTYLE
  5
1D9E
102
{ACAD_REACTORS
330
1D90
102
}
330
1D90
100
AcDbVisualStyle
  2
Linepattern
 70
    14
 71
     2
 72
     2
 73
     0
 90
        0
 40
-0.6
 41
-30.0
 62
     5
 63
     7
421
 16777215
 74
     1
 91
        4
 64
     7
 65
   257
 75
     7
175
     7
 42
1.0
 92
        8
 66
     7
 43
1.0
 76
     1
 77
     6
 78
     2
 67
     7
 79
     5
170
     0
171
     0
290
     0
174
     0
 93
        1
 44
0.0
173
     0
291
     1
 45
0.0
1001
ACAD
1000
AcDbSavedByObjectVersion
1070
     0
1000
AcDbSavedByObjectVersion
1070
     0
  0
VISUALSTYLE
  5
1D9A
102
{ACAD_REACTORS
330
1D90
102
}
330
1D90
100
AcDbVisualStyle
  2
Realistic
 70
     8
 71
     2
 72
     2
 73
     0
 90
        0
 40
-0.6
 41
-30.0
 62
     5
 63
     7
421
 16777215
 74
     1
 91
        0
 64
     7
 65
   257
 75
     1
175
     1
 42
1.0
 92
        8
 66
     8
424
  7895160
 43
1.0
 76
     1
 77
     6
 78
     2
 67
     7
 79
     5
170
     0
171
     0
290
     0
174
     0
 93
       13
 44
0.0
173
     0
291
     0
 45
0.0
1001
ACAD
1000
AcDbSavedByObjectVersion
1070
     0
1000
AcDbSavedByObjectVersion
1070
     0
  0
VISUALSTYLE
  5
1D9D
102
{ACAD_REACTORS
330
1D90
102
}
330
1D90
100
AcDbVisualStyle
  2
Thicken
 70
    13
 71
     2
 72
     2
 73
     0
 90
        0
 40
-0.6
 41
-30.0
 62
     5
 63
     7
421
 16777215
 74
     1
 91
        4
 64
     7
 65
   257
 75
     1
175
     1
 42
1.0
 92
       12
 66
     7
 43
1.0
 76
     1
 77
     6
 78
     2
 67
     7
 79
     5
170
     0
171
     0
290
     0
174
     0
 93
        1
 44
0.0
173
     0
291
     1
 45
0.0
1001
ACAD
1000
AcDbSavedByObjectVersion
1070
     0
1000
AcDbSavedByObjectVersion
1070
     0
  0
DICTIONARYVAR
  5
1F18
102
{ACAD_REACTORS
330
1F17
102
}
330
1F17
100
DictionaryVariables
280
     0
  1
STANDARD
  0
DICTIONARY
  5
1F1B
330
1D8E
100
AcDbDictionary
280
     1
281
     1
  3
ACAD_XREC_ROUNDTRIP
360
1F1C
  0
DICTIONARY
  5
1F19
330
1D8D
100
AcDbDictionary
280
     1
281
     1
  3
ACAD_XREC_ROUNDTRIP
360
1F1A
  0
DICTIONARY
  5
1F1D
330
1D8F
100
AcDbDictionary
280
     1
281
     1
  3
ACAD_XREC_ROUNDTRIP
360
1F1E
  0
DICTIONARY
  5
1FB7
330
1DAD
100
AcDbDictionary
280
     1
281
     1
  3
ACAD_XREC_ROUNDTRIP
360
1FB8
  0
XRECORD
  5
1F1C
102
{ACAD_REACTORS
330
1F1B
102
}
330
1F1B
100
AcDbXrecord
280
     1
102
MATERIAL
148
0.0
149
0.0
149
0.0
 93
        0
 94
       63
282
     0
 72
     1
 77
     1
171
     1
175
     1
179
     1
273
     0
  0
XRECORD
  5
1F1A
102
{ACAD_REACTORS
330
1F19
102
}
330
1F19
100
AcDbXrecord
280
     1
102
MATERIAL
148
0.0
149
0.0
149
0.0
 93
        0
 94
       63
282
     0
 72
     1
 77
     1
171
     1
175
     1
179
     1
273
     0
  0
XRECORD
  5
1F1E
102
{ACAD_REACTORS
330
1F1D
102
}
330
1F1D
100
AcDbXrecord
280
     1
102
MATERIAL
148
0.0
149
0.0
149
0.0
 93
        0
 94
       63
282
     0
 72
     1
 77
     1
171
     1
175
     1
179
     1
273
     0
  0
XRECORD
  5
1FB8
102
{ACAD_REACTORS
330
1FB7
102
}
330
1FB7
100
AcDbXrecord
280
     1
102
ACAD_ROUNDTRIP_PRE2007_TABLESTYLE
 90
      512
 91
        0
  1

 92
      512
 93
        0
  2

 94
      512
 95
        0
  3

  0
ENDSEC
  0
EOF
